#TITLE:Bawal Lumabas;
#SUBTITLE:;
#ARTIST:Kim Chiu;
#TITLETRANSLIT:;
#SUBTITLETRANSLIT:;
#ARTISTTRANSLIT:;
#GENRE:Meme;
#CREDIT:Jenro Jupitel;
#MUSIC:Bawal Lumabas.ogg;
#BANNER:Bawal Lumabas-BN.png;
#BACKGROUND:Bawal Lumabas-BG.png;
#CDTITLE:;
#SAMPLESTART:66.820;
#SAMPLELENGTH:19.050;
#SELECTABLE:YES;
#OFFSET:-0.070;
#BPMS:0.000=100.000
,15.250=200.000
,16.000=100.000
,71.000=200.000
,72.000=100.000
,117.000=200.000
,118.000=100.000
;
#STOPS:15.250=0.225
,60.500=1.800
,71.000=0.300
,105.000=1.200
,117.000=0.300
,151.000=1.200
;
#DISPLAYBPM:100.000;
#BGCHANGES:;
#FGCHANGES:;

//--------------- dance-single - Jenro Jupitel (2020) ----------------
#NOTES:
     dance-single:
     Jenro Jupitel (2020):
     Beginner:
     1:
     0,0,0,0,0:
0000
0000
0000
0000
,
0000
0000
0000
0000
,
0000
0000
0000
0000
,
0000
0000
0000
0000
,
1000
0000
0001
0000
,
1000
0000
0100
0000
,
0010
0000
0010
0000
,
0100
0000
0100
0000
,
0001
0000
1000
0000
,
0001
0000
0100
0000
,
1000
0000
0001
0000
,
1000
0000
0010
0000
,
0100
0000
0000
0000
,
0100
0000
0000
0000
,
0100
0000
0000
0000
,
0010
1000
0000
0020
,
0030
0001
0001
0001
,
0000
1000
0000
0020
,
0030
1000
0000
0020
,
0030
1000
1000
1000
,
0000
0002
0000
0000
,
0000
0000
0000
0003
,
0000
2000
0000
0000
,
3000
0100
0000
2000
,
3000
0001
0000
0200
,
0300
0001
0001
0001
,
0000
1001
0000
1000
,
0000
0020
0030
0001
,
0001
0001
0000
1000
,
0000
0020
0030
1000
,
0000
0020
0030
1000
,
1000
1000
0000
0002
,
0000
0000
0000
0000
,
0000
0003
0000
2000
,
0000
0000
3000
0100
,
0000
2000
3000
0001
,
0000
0200
0300
0001
,
0001
0001
0000
1001
,
0000
1000
0010
0001
,
0010
2000
0000
3000
,
0000
1000
0010
0001
,
0010
2000
0000
3000
;

//--------------- dance-single - Jenro Jupitel (2020) ----------------
#NOTES:
     dance-single:
     Jenro Jupitel (2020):
     Easy:
     4:
     0.215455,0.263461,0.150818,0.197949,0,160,144,16,21,0,0,0.215455,0.263461,0.150818,0.197949,0,160,144,16,21,0,0:
0000
0000
0000
0000
,
0000
0000
0000
0000
,
0000
0000
0000
0000
,
0000
0000
0000
0000
,
1000
0000
0001
1000
0000
0001
1000
0000
,
0100
1100
0010
0101
,
0001
1000
0001
1000
,
0100
1000
0001
0100
,
1000
0100
0100
0001
,
1000
1000
0001
0001
,
0100
0000
0010
0000
1000
0001
0100
0000
,
0001
0000
1000
0100
0010
0000
0010
0000
,
0100
1000
0001
0100
,
0100
1000
0001
0010
,
0100
0000
0001
0000
,
0010
1001
0100
0020
,
0030
1000
1010
0001
,
0011
0100
0002
0013
,
0000
0100
2000
3010
,
0100
0000
1001
0000
0010
0000
0001
0001
,
0001
0000
2000
0100
3100
0000
0020
0001
,
0031
0000
0001
0100
0010
1000
0100
0000
,
1000
1000
1000
0000
0001
0000
2002
0000
,
3003
0000
1000
0001
1000
0000
2000
0000
,
3010
0000
0001
1000
0001
0000
0002
0000
,
0013
0020
0230
2000
,
3300
0101
0000
1001
,
0100
0020
0030
1000
,
1010
0001
0011
0100
,
0002
0013
0000
0100
,
2000
3010
0100
1001
,
0010
0000
0001
0001
0001
0000
2000
0100
,
3100
0000
0020
0001
0031
0000
0001
0100
,
0010
1000
0100
0000
1000
1000
1000
0000
,
0001
0000
2002
0000
3003
0000
1000
0001
,
1000
0000
2000
0000
3010
0000
0001
1000
,
0001
0002
0013
0020
,
0230
2000
3300
0101
,
0000
1000
1010
0001
,
0011
0000
0100
0010
0100
0010
0100
0010
,
0010
1000
1010
0001
,
0011
0000
0100
0010
0100
0010
0100
0010
,
0010
0000
0000
0000
;

//--------------- dance-single - Jenro Jupitel (2020) ----------------
#NOTES:
     dance-single:
     Jenro Jupitel (2020):
     Medium:
     6:
     0.297597,0.364792,0.188523,0.197949,0.009426,221,201,20,21,0,0,0.297597,0.364792,0.188523,0.197949,0.009426,221,201,20,21,0,0:
0000
0000
0000
0000
,
0000
0000
0000
0000
,
0000
0000
0000
0000
,
0000
0000
0000
0000
,
1000
0000
0001
0000
,
1000
0001
0100
0010
,
0000
1000
1000
0100
0100
0001
0001
0100
,
1000
0100
0001
0100
1000
1000
1000
0000
,
0000
0000
0010
0001
0020
0000
0130
0000
,
0100
1000
0200
0000
0310
0000
1001
0000
,
0000
0000
0001
0001
0001
1000
1000
0100
,
1000
0001
1000
0001
0020
0000
0130
0000
,
1001
0000
1000
0100
1000
0100
0010
0001
,
0010
0000
0100
0001
0100
0001
1000
0010
,
1000
0000
1000
0001
1000
1000
0001
0001
,
1000
0000
1001
0100
0100
1001
0020
0000
,
0030
0000
1000
1000
1010
0000
0001
0001
,
0011
0100
0020
0130
,
0000
0000
1000
1000
0020
0000
0130
0000
,
0100
0100
1001
0010
0010
0000
1000
0001
,
1000
0000
1000
0001
0200
0000
0310
0000
,
2000
3002
0000
1003
,
1000
0000
0000
0000
1000
0000
0000
0001
0000
0000
1000
0000
0100
0000
0000
0000
,
0000
0000
1000
0001
0001
1000
1000
0010
,
0010
0000
0001
0001
0001
0001
2000
0000
,
3010
0020
0230
0310
,
0000
0000
1001
0000
0000
0000
1001
0100
,
0100
1001
0020
0000
0030
0000
1000
1000
,
1010
0000
0001
0001
0011
0000
0100
0000
,
0020
0000
0130
0000
0000
0000
1000
1000
,
0020
0000
0130
0000
0100
0100
1001
0010
,
0010
0000
1000
0001
1000
0000
1000
0001
,
0200
0310
2000
3001
,
0002
0000
0000
0000
1003
0000
0000
0000
1000
0000
0000
0000
1000
0000
0000
0001
,
0000
1000
0100
0000
0000
0000
1000
0001
,
0001
1000
1000
0010
0010
0000
0001
0001
,
0001
0001
2000
0000
3010
0000
0020
0000
,
0230
0310
0000
1001
,
0000
0000
1000
1000
1010
0000
0001
0001
,
0011
0000
0100
0100
0010
0010
0010
0010
,
0110
0000
1000
1000
1010
0000
0001
0001
,
0011
0000
0100
0100
0010
0010
0010
0010
,
0110
0000
0000
0000
;

//--------------- dance-single - Jenro Jupitel (2020) ----------------
#NOTES:
     dance-single:
     Jenro Jupitel (2020):
     Hard:
     10:
     0.413403,0.526921,0.29221,0.16967,0.311063,307,276,31,18,0,0,0.413403,0.526921,0.29221,0.16967,0.311063,307,276,31,18,0,0:
0000
0000
0000
0000
,
0000
0000
0000
0000
,
0000
0000
0000
0000
,
0000
0000
0000
0000
,
1000
0001
0001
1000
0001
1000
1000
0010
,
1000
0000
0000
0001
0100
0000
0000
0100
0010
0000
0010
0000
1000
0000
0000
0000
,
0000
0000
1000
0000
1000
0000
0100
0010
0100
0000
0010
0000
0001
0000
1000
0001
,
0100
0001
0100
0010
1000
0001
0020
0000
,
0130
0000
0000
0000
1000
0000
0001
0020
0000
0000
0100
0000
0130
0000
1000
0000
,
0100
0000
1000
0100
0000
0010
0001
0000
0200
0000
0000
0000
0310
0000
1000
0000
,
0000
0000
0000
0000
0001
0000
1000
0100
0000
0000
0010
0000
0001
0000
0010
0000
,
0100
0000
1000
0100
0000
1000
0100
0000
0021
0000
0000
0000
0130
0000
0000
0000
,
1000
0000
0001
0100
0001
0000
1000
0000
0001
0010
0001
0000
1000
0000
0100
0010
,
0001
0000
1000
0100
1000
0000
0001
0000
1000
0010
1000
0000
0001
0000
0100
0010
,
1000
0000
0000
0000
0001
0100
0000
0010
0000
0100
0001
0000
1000
0000
0100
0000
,
0011
0000
1001
0100
0100
1001
0020
0000
,
0030
0000
0000
0000
1000
0010
1000
0010
1000
0000
0100
0000
0001
0010
0001
0010
,
0001
0000
0000
0000
0100
0010
0100
0010
0100
0000
0010
0000
0200
0000
0000
0000
,
0300
0000
0000
0000
0100
0010
0100
0010
0100
0000
0010
0000
0200
0000
0300
0000
,
0001
0000
1000
0000
1001
0000
0010
0000
0100
0000
1000
0000
0001
1000
0001
1000
,
0001
0000
0000
0000
1000
0000
0001
0000
0100
0000
0010
1000
0000
0000
0100
0000
,
1000
0100
0000
0010
0000
0000
0002
0000
0000
0000
0000
0000
0003
0000
0000
0000
,
1000
0100
0010
0100
1000
0001
0000
0001
2000
0000
0000
0000
3000
0000
0000
0000
,
0000
1000
0010
0100
0001
1000
0100
0010
,
0001
0000
0001
0100
0001
1000
0100
1000
,
0010
0000
0000
0000
0010
0100
0010
0000
0200
0000
0010
0000
0310
0000
0000
0000
,
0000
0000
1001
0000
0000
0000
1001
0100
,
0100
0000
1001
0000
0020
0000
0000
0000
0030
0000
0000
0000
1000
0010
1000
0010
,
1000
0000
0100
0000
0001
0010
0001
0010
0001
0000
0000
0000
0100
0010
0100
0010
,
0100
0000
0010
0000
0200
0000
0000
0000
0300
0000
0000
0000
0100
0010
0100
0010
,
0100
0010
0200
0300
0001
1000
1001
0010
,
0100
0000
1000
0000
0001
1000
0001
1000
0001
0000
0000
0000
1000
0000
0001
0000
,
0100
0000
0010
1000
0000
0000
0100
0000
1000
0100
0000
0010
0000
0000
0002
0000
,
0000
0000
0000
0000
0003
0000
0000
0000
1000
0100
0010
0100
1000
0001
0000
0001
,
2000
0000
3000
0000
0000
1000
0010
0100
,
0001
1000
0100
0010
0001
0000
0001
0100
,
0001
0000
1000
0000
0100
0000
1000
0000
0010
0000
0000
0000
0010
0100
0010
0000
,
0200
0010
0310
0000
0000
0000
1001
0000
,
0000
0000
0000
0000
1000
0010
1000
0010
1000
0000
0000
0000
0001
0010
0001
0010
,
0001
0000
0000
0000
0100
0000
0100
0010
0100
0010
0100
0010
0100
0000
0010
0100
,
0010
0000
0000
0000
1000
0010
1000
0010
1000
0000
0000
0000
0001
0010
0001
0010
,
0001
0000
0000
0000
0100
0000
0100
0010
0100
0010
0100
0010
0100
0000
0010
0100
,
0010
0000
0000
0000
;

//--------------- dance-single - Jenro Jupitel (2020) ----------------
#NOTES:
     dance-single:
     Jenro Jupitel (2020):
     Challenge:
     13:
     0,0,0,0,0:
0000
0000
0000
0000
,
0000
0000
0000
0000
,
0000
0000
0000
0000
,
0000
0000
0000
0000
,
0100
1000
0001
1000
0010
0100
0001
0010
0100
1000
0001
1000
0010
0100
0010
1000
,
0100
0010
0100
1000
0010
0100
0001
0010
0100
1000
0001
0100
0020
0000
0000
0000
,
0030
0000
0100
0001
1000
0100
1000
0001
0100
0001
0010
0100
1000
0001
0100
0010
,
1000
0100
0010
0001
0010
0001
1000
0100
1000
0010
0100
0010
2000
0000
0000
0000
,
3000
0000
0000
0000
0100
0010
0001
1000
0001
0010
0100
1000
0010
0100
0001
1000
,
0001
0000
0010
0100
0000
1000
0010
0000
0100
0001
1000
0001
0010
0100
0010
0001
,
0200
0000
0000
0000
0310
0100
0001
0010
0100
1000
0010
1000
0001
0010
0100
0010
,
0001
1000
0010
0100
0010
1000
0100
1000
0001
0100
0010
1000
0002
0000
0003
0000
,
0200
0301
0010
0100
1000
0100
2000
3001
0010
0001
0100
0010
0200
0301
0010
0001
,
2000
3001
1000
0010
1000
0100
0020
0031
1000
0010
0100
0001
0020
0130
1000
0001
,
0200
0301
1000
0100
1000
0010
0000
0001
0010
0100
2000
0000
3002
0000
0203
0000
,
0302
0000
0003
0000
1001
0000
0100
0010
0100
0000
1001
0000
0020
0000
0100
0000
,
0130
0000
0100
0000
0100
0001
1000
0001
0010
0000
0101
0000
1000
0010
0100
0001
,
1000
0000
1010
0000
0001
0010
0100
0010
0001
0000
0100
0000
0110
0000
0000
0000
,
0000
0000
0000
0000
0010
0100
1000
0010
0100
0000
0010
0000
0110
0000
0000
0000
,
1001
0000
0110
0000
2002
3003
0220
0000
0330
0000
0000
1000
0001
0100
0001
0010
,
0100
0000
0000
0000
1002
0000
0010
0000
0103
0000
1000
0001
0000
0000
0010
0000
,
0100
0010
0000
1001
0000
0000
0220
0000
0330
0000
0000
0000
1000
0000
0000
0000
,
1000
0010
0100
0001
0010
0100
1000
0001
1000
0000
0001
0000
1001
0000
0000
0000
,
0000
0000
0000
0000
2000
3100
0010
0100
1000
0010
0200
0301
0010
0001
1000
0010
,
0200
0310
1000
0001
0020
0130
0010
0001
0100
0001
2000
3100
0010
0001
1000
0100
,
2000
3010
0100
0001
0200
0301
1000
0010
1000
0100
0010
0100
1000
0010
1000
0001
,
1000
0001
0010
0001
0100
0000
0000
0000
0000
0000
0000
0000
1001
0000
0100
0010
,
0100
0000
1001
0000
0020
0000
0100
0000
0130
0000
0100
0000
0100
0001
1000
0001
,
0010
0000
0101
0000
1000
0010
0100
0001
1000
0000
1010
0000
0001
0010
0100
0010
,
0001
0000
0100
0000
0110
0000
0000
0000
0000
0000
0000
0000
0010
0100
1000
0010
,
0100
0000
0010
0000
0110
0000
0000
0000
1001
0000
0110
0000
2002
3003
0220
0000
,
0330
0000
0000
1000
0001
0100
0001
0010
0100
0000
0000
0000
1002
0000
0010
0000
,
0103
0000
1000
1001
0000
0000
0010
0000
0110
0110
0000
1001
0000
0000
0220
0000
,
0330
0000
0000
0000
1000
0000
0000
0000
1000
0010
0100
0001
0010
0100
1000
0001
,
1000
0000
0001
0000
1001
0000
0000
0000
0000
0000
0000
0000
2000
3100
0010
0100
,
1000
0010
0200
0301
0010
0001
1000
0010
0200
0310
1000
0001
0020
0130
0010
0001
,
0100
0001
2000
3100
0010
0001
1000
0100
2000
3010
0100
0001
0200
0301
1000
0010
,
1000
0100
0010
0100
1000
0010
1000
0001
1000
0001
0010
0001
0100
0000
0000
0000
,
0000
0000
0000
0000
0100
0001
1000
0001
0010
0000
0101
0000
1000
0010
0100
0001
,
1000
0000
1010
0000
1000
0100
0010
0001
0100
0010
0100
0001
1000
0100
1000
0001
,
1000
0000
0000
0000
0100
0001
1000
0001
0010
0000
0101
0000
1000
0010
0100
0001
,
1000
0000
1010
0000
1000
0100
0010
0001
0100
0010
0100
0001
1000
0100
1000
0001
,
1000
0000
0000
0000
;

//--------------- dance-double - Jenro Jupitel (2021) ----------------
#NOTES:
     dance-double:
     Jenro Jupitel (2021):
     Challenge:
     11:
     0,0,0,0,0:
00000000
00000000
00000000
00000000
,
00000000
00000000
00000000
00000000
,
00000000
00000000
00000000
00000000
,
00000000
00000000
00000000
00000000
,
00001000
00000010
00000100
00000100
00000001
00000001
00001000
00001000
,
00000100
00010000
00001000
00100000
00001000
00010000
00001000
01000000
,
00100000
00010000
00100000
00001000
00100000
00001000
00010000
00000010
,
00001000
00000100
00000010
00000001
00001000
00001000
00000001
00000001
,
00000100
00000000
00000000
00000000
00000010
00001000
00000010
00001000
00000010
00000000
00001000
00000000
00001100
00000000
00001000
00000100
,
00001000
00000100
00001000
00000100
00000010
00000001
00000100
00000010
00000001
00000000
00000001
00000000
00000001
00000000
00000001
00000000
,
00000101
00000000
00000010
00000000
00001001
00000000
00000100
00000000
00000100
00000000
00000100
00000000
00000101
00000000
00001000
00000100
,
00000010
00000000
00000001
00000010
00000000
00000100
00001000
00000000
00000001
00000100
00000001
00000100
00000001
00000100
00000001
00000000
,
00001000
00000100
00000100
00000001
00000100
00000100
00001000
00000100
,
00001000
00010000
00010000
00001000
00100000
00100000
00010000
00001000
,
00010000
00000000
00010000
00000000
00010000
00000000
00000000
00010000
00000000
00000000
00010000
00000000
00001000
00000000
00000010
00000000
,
00001001
00000000
00000001
00000010
00000100
00001000
00000011
00000000
,
00000000
00000000
00000000
00000000
00000100
00001000
00000100
00001000
00011000
00000000
00000100
00000000
00000100
00001000
00000100
00001000
,
00011000
00000000
00000000
00000000
00000010
00000001
00001000
00000010
00000100
00000000
00000001
00000000
00001100
00000000
00000000
00000000
,
00010000
00000000
00000000
00000000
00100000
00010000
10000000
00100000
01000000
00000000
00010000
00000000
11000000
00000000
00000000
00000000
,
00010000
00000000
01000000
00000000
00010000
00000000
00010000
00000000
00001000
00000000
00001000
00000000
00010000
00001000
00010000
00001000
,
00010000
00000000
00010000
00001000
00100000
00010000
00010000
00001000
,
00000010
00000000
00010000
00000000
00010000
00001000
00100000
00001000
00010000
00000010
00010000
00000000
00011000
00000000
00000000
00000000
,
00000100
00001000
00001000
00000100
00001000
00000000
00000000
00000100
00000000
00000000
00001000
00000000
00002200
00000000
00000000
00000000
,
00003300
00000000
00000001
00000010
00001000
00000010
00000001
00000010
,
00001000
00000100
00010000
00000100
00010000
00000100
00010000
00001000
,
00010000
00001000
00010000
00001000
00001000
00001000
00002000
00000000
,
00003000
00000000
11000000
00000000
00000000
00000000
00000001
00000010
,
00000100
00000000
00001000
00000000
00000011
00000000
00000000
00000000
00000000
00000000
00000000
00000000
00000100
00001000
00000100
00001000
,
00011000
00000000
00000100
00000000
00000100
00001000
00000100
00001000
00011000
00000000
00000000
00000000
00000010
00000001
00001000
00000010
,
00000100
00000000
00000001
00000000
00001100
00000000
00000000
00000000
00010000
00000000
00000000
00000000
00100000
00010000
10000000
00100000
,
01000000
00010000
11000000
00000000
00010000
01000000
00010000
00010000
,
00001000
00000000
00001000
00000000
00010000
00001000
00010000
00001000
00010000
00000000
00000000
00000000
00010000
00000000
00001000
00000000
,
00100000
00000000
00010000
00000000
00010000
00000000
00001000
00000000
00000010
00000000
00010000
00000000
00010000
00001000
00100000
00001000
,
00010000
00000010
00010000
00000000
00011000
00000000
00000000
00000000
00000100
00001000
00001000
00000100
00001000
00000000
00000000
00000100
,
00000000
00001000
00002200
00000000
00003300
00000000
00000001
00000010
,
00001000
00000010
00000001
00000010
00001000
00000100
00010000
00000100
,
00010000
00000100
00010000
00001000
00010000
00001000
00010000
00001000
,
00001000
00001000
00002000
00000000
00003000
00000000
11000000
00000000
,
00000000
00000000
00000000
00000000
10000000
01000000
00100000
00010000
00100000
00000000
00110000
00000000
10000000
01000000
00100000
00010000
,
00100000
00000000
00110000
00000000
00010000
00100000
00010000
00100000
01000000
10000000
01000000
10000000
00100000
10000000
00100000
10000000
,
00010000
01000000
00010000
01000000
10000000
01000000
00100000
00010000
00100000
00000000
00110000
00000000
10000000
01000000
00100000
00010000
,
00100000
00000000
00110000
00000000
00010000
00100000
00010000
00100000
01000000
10000000
01000000
10000000
00100000
10000000
00100000
10000000
,
00010000
01000000
00000000
00000000
00000000
00000000
00000000
00000000
;
