#TITLE:Bata, Kaya Mo!;
#SUBTITLE:;
#ARTIST:BINI, PLAYERTWO;
#TITLETRANSLIT:;
#SUBTITLETRANSLIT:;
#ARTISTTRANSLIT:;
#GENRE:;
#CREDIT:Jenro Jupitel (2024);
#MUSIC:Bata Kaya Mo.ogg;
#BANNER:Bata Kaya Mo-bn.png;
#BACKGROUND:Bata Kaya Mo-bg.png;
#CDTITLE:cdtitle.png;
#SAMPLESTART:59.118;
#SAMPLELENGTH:14.769;
#SELECTABLE:YES;
#OFFSET:-0.041;
#BPMS:0.000=130.000;
#STOPS:;
#BGCHANGES:;
#FGCHANGES:;

//--------------- dance-single - Jenro Jupitel (2024) ----------------
#NOTES:
     dance-single:
     Jenro Jupitel (2024):
     Beginner:
     4:
     0,0,0,0,0:
0000
0000
0000
0000
,
0000
0000
0000
0000
,
0000
0000
0000
0000
,
0000
0000
0000
0000
,
0010
0001
0100
0000
,
1000
0000
1000
0000
,
1000
0100
0001
0000
,
0010
0000
0010
0000
,
0100
0001
0010
0100
,
1000
0001
1000
0000
,
0100
1000
0010
0100
,
0001
1000
0001
0000
,
0010
0001
0100
0010
,
1000
0001
1000
0000
,
0010
1000
0100
0010
,
0001
1000
0001
0000
,
1000
0000
0001
0000
,
0010
0000
0010
0000
,
0001
0000
1000
0000
,
0100
0000
0100
0000
,
1000
0001
0010
0010
,
0001
1000
0100
0100
,
0001
1000
0100
0100
,
1000
0001
0010
0010
,
0100
1000
1000
0100
,
0001
0100
0100
0001
,
0010
0010
0100
0010
,
0010
0100
1000
1001
,
1000
0010
0010
1000
,
0100
0100
0010
0100
,
0100
0010
0001
1000
,
0002
0000
0003
0000
,
0100
0001
0010
0100
,
1000
0001
1000
0001
,
0100
1000
0010
0100
,
0001
1000
0001
1000
,
0010
0001
0100
0010
,
1000
0001
1000
0100
,
0010
1000
0100
0010
,
0001
1000
0001
0010
,
0100
0001
0010
0100
,
1000
0001
1000
0010
,
0100
1000
0010
0100
,
0001
1000
0001
0100
,
0010
0001
0100
0010
,
1000
0001
1000
1001
,
0010
1000
0100
0010
,
0001
1000
0001
1001
;

//--------------- dance-single - Jenro Jupitel (2024) ----------------
#NOTES:
     dance-single:
     Jenro Jupitel (2024):
     Easy:
     7:
     0,0,0,0,0:
0000
0000
0000
0000
,
0000
0000
0000
0000
,
0000
0000
0000
0000
,
0000
0000
0000
0000
,
0010
0100
1000
1000
,
0001
1000
0010
0010
,
0010
0100
0001
0001
,
1000
0001
0010
0010
,
0001
1000
0010
0000
1000
0000
0100
0000
,
1000
0001
0100
0000
0010
0000
1000
0000
,
0001
0010
0001
0000
1000
0000
0010
0000
,
1000
0100
1000
0000
0001
0000
0010
0000
,
0100
0100
0100
0000
1000
0000
0001
0000
,
0100
0100
0100
0000
0001
0000
1000
0000
,
0010
1000
0010
0000
0100
0001
0100
0000
,
0001
1000
0001
0000
0100
0000
0010
0000
,
1000
0001
0110
0001
,
0001
1000
0110
1000
,
0001
0100
0101
0010
,
1000
0100
1100
0010
,
0100
0000
0001
0001
0010
0000
1000
0000
,
0001
0000
1000
1000
0010
0000
0100
0000
,
0001
1100
1000
0101
,
0010
0100
0000
0000
,
1000
0100
0001
0000
0001
0000
1000
0000
,
1000
0010
0001
0000
0001
1000
0001
0000
,
1000
0100
0001
0000
0001
0100
1000
0000
,
0001
0001
1010
1100
,
1000
0100
0010
0001
1000
0000
1100
0000
,
0001
0100
0010
1000
0001
0000
0101
0000
,
0010
0100
0010
0100
,
0001
1000
0000
0000
,
0001
1000
0010
0000
1000
0000
0100
0000
,
1000
0001
0100
0000
0010
0000
1000
0000
,
0001
0010
0001
0000
1000
0000
0010
0000
,
1000
0100
1000
0000
0001
0000
0010
0000
,
0100
0100
0100
0000
1000
0000
0001
0000
,
0100
0100
0100
0000
0001
0000
1000
0000
,
0010
1000
0010
0000
0100
0001
0100
0000
,
0001
1000
0001
0000
0100
0000
0010
0000
,
1000
0010
0100
0001
0100
0000
0001
0000
,
0011
1000
1100
0001
,
0001
0100
0010
1000
0010
0000
1000
0000
,
1100
0001
0011
1000
,
0010
0100
0010
1000
0001
1000
0100
0000
,
0100
0010
0100
0001
1000
0001
0010
0000
,
0001
1000
0100
0000
1000
0010
0001
0000
,
0001
1000
1000
0100
1000
0010
0100
0001
,
0010
0000
0000
0000
;

//--------------- dance-single - Jenro Jupitel (2024) ----------------
#NOTES:
     dance-single:
     Jenro Jupitel (2024):
     Medium:
     11:
     0,0,0,0,0:
0000
0000
0000
0000
,
0000
0000
0000
0000
,
0000
0000
0000
0000
,
0000
0000
0000
0000
,
0010
0000
0100
0001
1000
0010
0000
0000
,
0100
0100
0010
1000
0000
0101
0000
0001
,
1000
0000
0100
0010
0001
0100
0000
0000
,
0001
0000
1000
0000
0001
0000
1000
0000
0001
0000
0100
0010
0100
0000
0000
0000
,
0001
0010
0100
0100
1000
1000
0010
0010
,
0100
0000
0001
0000
0100
0000
0010
0000
1000
0000
0001
0000
1000
0100
1000
0000
,
0100
1000
0001
1000
0100
1000
0010
0100
,
0001
0001
0010
0100
0010
0001
1000
0000
,
0100
0100
1000
1000
0010
0100
0010
0100
,
0001
0000
0010
0000
0100
0000
0010
0000
0001
0000
1000
0001
1000
0000
0000
0000
,
0001
0010
1000
0010
0001
0100
0010
1000
,
0100
0010
0001
1000
0100
1000
0010
0000
,
0110
0101
0011
1100
,
0011
0000
0000
0000
1100
0000
0000
0000
0001
0000
0000
1000
0001
0000
1000
0000
,
0100
1010
1100
0011
,
1100
0000
0000
0000
0011
0000
0000
0000
1000
0000
0000
0001
1000
0000
0001
0000
,
0010
0000
0001
0100
0010
0000
1000
0100
,
0010
0000
0001
1000
1100
0000
0101
0000
,
1000
0000
0001
0000
1000
0000
0001
0000
1000
0000
0000
0010
0100
0000
0001
0000
,
0010
1100
0001
0000
,
1000
0010
0100
0010
1000
0001
0100
0001
,
0010
0000
0100
1000
0000
0001
0000
0100
0001
0000
0010
0100
0000
0000
1000
0001
,
1000
0000
0010
0100
0000
0001
0010
0100
1000
0000
0001
0000
1000
0000
0100
0000
,
0010
0001
0100
0010
1000
0000
1001
0000
,
0110
0000
0010
0100
1000
0000
1000
1000
,
1000
0000
0001
0001
0001
0000
0110
0000
,
1001
0000
0100
0000
0001
1000
0010
0000
,
1000
0100
0001
1000
,
0001
0010
0100
0100
1000
1000
0010
0010
,
0100
0000
0001
0000
0100
0000
0010
0000
1000
0000
0001
0000
1000
0100
1000
0000
,
0100
1000
0001
1000
0100
1000
0010
0100
,
0001
0001
0010
0100
0010
0001
1000
0000
,
0100
0100
1000
1000
0010
0100
0010
0100
,
0001
0000
0010
0000
0100
0000
0010
0000
0001
0000
1000
0001
1000
0000
0000
0000
,
0001
0010
1000
0010
0001
0100
0010
1000
,
0100
0010
0001
1000
0100
1000
0010
0000
,
0001
0010
0100
0100
1000
1000
0010
0010
,
0100
0000
0001
0000
0100
0000
0010
0000
1000
0000
0001
0000
1000
0100
1000
0000
,
0100
1000
0001
1000
0100
1000
0010
0100
,
0001
0001
0010
0100
0010
0001
1000
0000
,
0100
0100
1000
1000
0010
0100
0010
0100
,
0001
0000
0010
0000
0100
0000
0010
0000
0001
0000
1000
0001
1000
0000
0000
0000
,
0001
0010
1000
0010
0001
0100
0010
1000
,
0100
0010
0001
1000
0100
1000
0010
0000
;

//--------------- dance-single - Jenro Jupitel (2024) ----------------
#NOTES:
     dance-single:
     Jenro Jupitel (2024):
     Hard:
     14:
     0,0,0,0,0:
0000
0000
0000
0000
,
0000
0000
0000
0000
,
0000
0000
0000
0000
,
0000
0000
0000
0000
,
1000
0100
0001
0100
1000
1000
0000
0000
,
0001
0100
0001
0100
0000
0011
0001
0000
,
1000
0001
1000
0000
0100
0000
0010
0000
0100
0000
1000
0000
0000
0000
0000
0000
,
0001
0010
0001
0000
1000
0000
0001
0100
0001
0000
0000
1000
0010
0000
0000
0000
,
0101
0000
0100
0000
0010
1000
0001
0000
0100
0000
0100
0000
0100
0001
1000
0000
,
1000
0010
0100
0000
1000
0000
0100
0010
0001
0000
1000
0100
1000
0000
0001
0000
,
0010
0001
0010
0001
0010
0000
0100
1000
0100
1000
0100
0000
1000
0010
0100
0001
,
1000
0001
1000
0100
0010
0000
0001
1000
0001
0100
0010
0000
0100
0010
0100
0000
,
0010
1000
0001
1000
0100
0000
0010
0001
0010
0100
0010
0000
0010
0001
0100
0000
,
0100
0000
0110
0000
0010
0000
1000
0001
1000
0001
1000
0000
0001
1000
0100
0000
,
0010
0000
0001
0000
1001
0000
1000
0000
0100
0000
1001
0000
0100
0000
0000
0010
,
0100
0000
0000
0001
0000
0000
1000
0000
0000
0001
0000
0000
0001
0000
0000
1000
0000
0000
0100
0000
0001
0000
0100
0000
,
1000
0000
0000
0000
1010
0000
0000
0000
0101
0000
0000
0010
0100
0000
1000
0000
,
0001
0000
0000
0000
0110
0000
0000
0000
1001
0000
0000
1000
0001
0000
0100
0000
,
0110
0000
0000
0000
0011
0000
0000
0000
1100
0000
0000
0001
0100
0000
0001
0000
,
0011
0000
0000
0000
1100
0000
0010
0000
0110
0000
0000
1000
1000
0000
0001
0000
,
0100
0000
0010
0000
1000
0100
1000
0000
0001
0000
0000
0010
0001
0000
1000
0000
,
1010
0000
0101
0000
0110
0000
1001
0100
,
0100
1001
1010
0011
,
0001
0100
1000
0100
0001
0000
0000
0000
1000
0000
0000
1000
0000
0000
1000
0000
,
0100
0010
0001
0100
0001
0000
1000
0100
1000
0000
0000
0010
0100
0000
0001
0000
,
1000
0100
1000
0100
1000
0010
0100
0000
0001
0100
0001
0100
0001
0000
0010
0000
,
1000
0001
1000
0100
0010
0001
1000
0000
0001
1000
0001
0100
0010
1000
0001
0000
,
1100
0000
0000
0101
0000
0000
0100
0000
0110
0000
0000
0000
1001
0000
0000
0000
,
0001
0010
0100
1000
0100
0000
1000
0000
1000
0100
1000
0010
0100
0000
0001
0000
,
0001
0010
0001
1000
0001
0100
0010
0100
0010
0000
0000
1000
0001
0000
0010
0000
,
0110
0010
0011
0001
0101
1000
1100
0010
,
0110
0010
0100
0110
0100
0000
1001
0000
,
0101
0000
0100
0000
0010
1000
0001
0000
0100
0000
0100
0000
0100
0001
1000
0000
,
1000
0010
0100
0000
1000
0000
0100
0010
0001
0000
1000
0100
1000
0000
0001
0000
,
0010
0001
0010
0001
0010
0000
0100
1000
0100
1000
0100
0000
1000
0010
0100
0001
,
1000
0001
1000
0100
0010
0000
0001
1000
0001
0100
0010
0000
0100
0010
0100
0000
,
0010
1000
0001
1000
0100
0000
0010
0001
0010
0100
0010
0000
0010
0001
0100
0000
,
0100
0000
0110
0000
0010
0000
1000
0001
1000
0001
1000
0000
0001
1000
0100
0000
,
0010
0001
1000
0100
1000
0000
1000
0010
0100
0001
1000
0000
0100
0010
0100
0000
,
1000
0000
0001
0100
0001
0000
0001
0010
0001
0000
1000
0000
0100
1000
0100
0000
,
0101
0000
0100
0000
0010
1000
0001
0000
0100
0000
0100
0000
0100
0001
1000
0000
,
1000
0010
0100
0000
1000
0000
0100
0010
0001
0000
1000
0100
1000
0000
0001
0000
,
0010
0001
0010
0001
0010
0000
0100
1000
0100
1000
0100
0000
1000
0010
0100
0001
,
1000
0001
1000
0100
0010
0000
0001
1000
0001
0100
0010
0000
0100
0010
0100
0000
,
0010
1000
0001
1000
0100
0000
0010
0001
0010
0100
0010
0000
0010
0001
0100
0000
,
0100
0000
0110
0000
0010
0000
1000
0001
1000
0001
1000
0000
0001
1000
0100
0000
,
0010
0001
1000
0100
1000
0000
1000
0010
0100
0001
1000
0000
0100
0010
0100
0000
,
1000
0000
0001
0100
0001
0000
0001
0010
0001
0000
0000
1000
0100
0000
1000
0000
,
0001
0000
0000
0000
;
