#TITLE:Bata, Dahan-Dahan!;
#SUBTITLE:;
#ARTIST:IV of Spades;
#TITLETRANSLIT:;
#SUBTITLETRANSLIT:;
#ARTISTTRANSLIT:;
#GENRE:;
#CREDIT:Jenro Jupitel (2024);
#MUSIC:Bata Dahan Dahan!.ogg;
#BANNER:Bata Dahan Dahan!-bn.png;
#BACKGROUND:Bata Dahan Dahan!-bg.png;
#CDTITLE:cdtitle.png;
#SAMPLESTART:50.622;
#SAMPLELENGTH:12.799;
#SELECTABLE:YES;
#OFFSET:-0.027;
#BPMS:0.000=150.016;
#STOPS:;
#BGCHANGES:-0.027=Bata Dahan Dahan.mp4=1.000=1=0=0=StretchNoLoop==CrossFade==,
99999.000=-nosongbg-=1.000=0=0=0=StretchNoLoop====
;
#FGCHANGES:;

//--------------- dance-single - Jenro Jupitel (2024) ----------------
#NOTES:
     dance-single:
     Jenro Jupitel (2024):
     Beginner:
     3:
     0,0,0,0,0:
0000
0000
0000
0000
,
0000
0000
0000
0000
,
0000
0000
0000
0000
,
0000
0000
0000
0000
,
0001
0000
0000
0000
,
0010
0000
0000
0000
,
0100
0000
0000
0000
,
0100
0000
0000
0000
,
0100
0001
0100
0000
,
1000
0100
1000
0000
,
0010
0000
0001
0000
,
0100
0000
1000
0000
,
0010
0001
0010
0000
,
1000
0010
1000
0000
,
1000
0000
0100
0000
,
0001
0000
0010
0000
,
0100
0001
1000
0000
,
1000
0010
0001
0000
,
1000
0000
0001
0000
,
0010
0000
0010
0000
,
0100
1000
0100
0000
,
0001
0010
0001
0000
,
0100
0000
0110
0000
,
0010
0000
0100
0000
,
0100
0001
0100
1000
,
0100
1000
0010
0001
,
0010
1000
0010
1000
,
0100
0001
1000
0010
,
0001
0100
1000
0100
,
0001
0010
0001
0000
,
1001
0000
0000
0000
,
1000
0000
0001
0000
,
0100
0001
0100
0000
,
1001
0000
1000
0000
,
1000
0100
1000
0000
,
1001
0000
0001
0000
,
0010
0001
0010
0000
,
1001
0000
1000
0000
,
1000
0010
1000
0000
,
1001
0000
0001
0000
,
0100
0001
1000
0001
,
1001
0001
1000
0000
,
1000
0010
0001
1000
,
1001
1000
0001
0000
,
0100
1000
0100
0001
,
1001
0001
1000
0000
,
0001
0010
0001
0000
;

//--------------- dance-single - Jenro Jupitel (2024) ----------------
#NOTES:
     dance-single:
     Jenro Jupitel (2024):
     Easy:
     4:
     0,0,0,0,0:
0000
0000
0000
0000
,
0000
0000
0000
0000
,
0000
0000
0000
0000
,
0000
0000
0000
0000
,
0010
0000
0000
0000
,
0100
0000
0000
0000
,
0010
0000
0000
0100
,
0000
0000
0010
0000
,
0001
0100
0100
0001
,
1000
0100
0100
1000
,
0010
0100
0100
0001
,
0010
0100
0100
1000
,
0001
0010
0010
0001
,
1000
0010
0010
1000
,
0100
0010
0010
0001
,
0100
0010
0010
1000
,
0001
0010
0100
1000
,
1000
0010
0100
0001
,
0001
0100
0010
1000
,
1000
0100
0010
0001
,
0001
1000
0100
0100
,
1000
0001
0100
0100
,
0010
0000
0000
0100
,
0000
0001
1000
0000
,
0001
1000
0001
1001
,
0001
0100
0010
0000
,
0010
0100
0010
0110
,
1000
0100
0010
0000
,
1000
0001
1000
1001
,
0001
0010
0100
0000
,
0100
0010
0100
0110
,
1000
0010
0100
0000
,
0001
0100
0100
0010
,
1000
0100
0100
0010
,
0010
0100
0100
1000
,
0010
0100
0100
0001
,
0001
0010
0010
0100
,
1000
0010
0010
0100
,
0100
0010
0010
1000
,
0100
0010
0010
1000
,
0001
0010
0100
0010
,
1000
0010
0100
0010
,
0001
0100
0010
0100
,
1000
0100
0010
0100
,
0001
1000
0100
0001
,
1000
0001
0100
1000
,
0010
0000
0000
0100
;

//--------------- dance-single - Jenro Jupitel (2024) ----------------
#NOTES:
     dance-single:
     Jenro Jupitel (2024):
     Medium:
     7:
     0,0,0,0,0:
0000
0000
0000
0000
,
0000
0000
0000
0000
,
0000
0000
0000
0000
,
0000
0000
0000
0000
,
0100
0100
0000
0000
,
0100
0100
0000
0000
,
0110
0000
0000
0010
0000
0000
0100
0000
,
0000
0000
0100
0000
,
0001
0010
0001
0100
,
0010
1000
0010
0000
1000
0000
0001
0000
,
1000
0100
0001
0100
,
1000
0010
0001
0010
,
0001
0100
0010
0010
,
1000
0001
1000
0000
1000
0100
1000
0000
,
0001
0100
0010
1000
,
0100
0010
0001
0100
,
1000
0010
1000
0100
,
0010
0001
0010
0000
0001
0000
1000
0000
,
0001
0100
1000
0100
,
0001
0010
1000
0010
,
1000
0100
0010
0010
,
0001
1000
0001
0000
0001
0100
0001
0000
,
1000
0100
0010
0001
,
0100
0010
1000
0100
,
0010
0011
0100
1000
,
0010
1010
0100
0001
,
1000
0001
1000
0001
,
0100
0000
0110
0000
0010
0100
0010
0000
,
1000
0100
0010
0001
,
1000
0010
0100
0001
,
0010
0001
0100
1000
,
0100
0100
0100
0000
,
0001
0010
0001
0000
0001
0000
0100
0000
,
0010
1000
0010
0000
1000
0000
0001
0000
,
1000
0100
1000
0000
0001
0100
0001
0000
,
1000
0010
1000
0000
0001
0010
0001
0000
,
1000
0001
0100
0000
0010
0100
0010
0000
,
1000
0001
1000
0000
1000
0100
1000
0000
,
0001
0100
0010
1000
0000
0000
1001
0000
,
1000
0100
0010
0001
0000
0000
0110
0000
,
1000
0010
1000
0000
1000
0000
0100
0000
,
0010
0001
0010
0000
0001
0000
1000
0000
,
0001
0100
0001
0000
1000
0100
1000
0000
,
0001
0010
0001
0000
1000
0010
1000
0000
,
0001
1000
0100
0000
0010
0100
0010
0000
,
0001
1000
0001
0000
0001
0100
0001
0000
,
1000
0100
0010
0001
0000
0000
1001
0000
,
0001
0100
0010
1000
0000
0000
0000
0000
;

//--------------- dance-single - Jenro Jupitel (2024) ----------------
#NOTES:
     dance-single:
     Jenro Jupitel (2024):
     Hard:
     10:
     0,0,0,0,0:
0000
0000
0000
0000
,
0000
0000
0000
0000
,
0000
0000
0000
0000
,
0000
0000
0000
0000
,
0010
0000
0100
0100
0100
0000
0000
0000
,
0100
0000
0000
0000
,
0010
0000
0000
0100
0000
0000
0100
0000
,
0000
0000
1001
0000
,
1000
0100
0001
0100
,
0001
1000
0001
0100
0001
1000
0010
0000
,
1000
0010
0100
0000
0100
0001
0010
0000
,
0010
0100
1000
0000
0100
0010
0001
0000
,
1000
0000
0001
0000
0100
0000
0010
0100
,
0100
0100
0001
0000
1000
0000
0010
0000
,
1000
0100
0010
0000
1000
0100
0010
0000
,
0001
1000
0001
0010
0001
1000
0010
0000
,
0001
0010
1000
0010
,
1000
0001
1000
0100
1000
0001
0010
0000
,
0001
0010
0100
0000
0100
1000
0010
0000
,
0010
0100
0001
0000
0100
0010
1000
0000
,
0001
0000
1000
0000
0100
0000
0010
0100
,
0100
0100
1000
0000
0001
0000
0010
0000
,
0001
0100
0010
0000
0001
0100
0010
0000
,
1000
0001
1000
0010
1000
0001
0010
0000
,
0100
1000
0100
1000
0000
0010
0000
0001
,
0001
0100
0001
0000
1000
0000
1100
0000
,
0100
0001
0100
0001
0000
0010
0000
1000
,
1000
0100
1000
0000
0001
0000
0101
0000
,
0010
0100
1000
0001
0000
0100
0000
1000
,
1000
0010
1000
0000
0011
0000
1010
0000
,
0001
1000
0001
1000
0010
0100
0010
0100
,
0010
1000
0001
0000
0110
0000
0010
0000
,
1000
0011
0001
1010
,
0001
1000
0001
0100
0001
1000
0010
0000
,
1000
0010
0100
0000
0100
0001
0010
0000
,
0010
0100
1000
0100
0010
0001
0100
0000
,
1000
0001
1000
0001
0100
0100
0010
0100
,
0100
0100
0001
1000
0001
0010
0010
0000
,
1000
0100
0010
0001
1000
0100
0010
0001
,
0001
1000
0001
0010
0001
1000
0010
0000
,
0001
1010
1000
0011
,
1000
0001
1000
0100
1000
0001
0010
0000
,
0001
0010
0100
0000
0100
1000
0010
0000
,
0010
0100
0001
0100
0010
1000
0100
0000
,
0001
1000
0001
1000
0100
0100
0010
0100
,
0100
0100
1000
0001
1000
0010
0010
0000
,
0001
0100
0010
1000
0001
0100
0010
0000
,
0000
0000
0100
0000
;
