#TITLE:Atin Ang Gabi;
#SUBTITLE:;
#ARTIST:Paul Pablo;
#TITLETRANSLIT:;
#SUBTITLETRANSLIT:;
#ARTISTTRANSLIT:;
#GENRE:;
#CREDIT:Jenro Jupitel (2024);
#MUSIC:Atin Ang Gabi.ogg;
#BANNER:Atin Ang Gabi-bn.png;
#BACKGROUND:Atin Ang Gabi-bg.png;
#CDTITLE:cdtitle.png;
#SAMPLESTART:45.653;
#SAMPLELENGTH:15.738;
#SELECTABLE:YES;
#OFFSET:-0.409;
#BPMS:0.000=122.000
,7.000=244.000
,8.000=122.000
,91.000=244.000
,92.000=122.000
,172.000=244.000
,173.000=122.000
;
#STOPS:7.000=0.061
,7.250=0.061
,7.500=0.061
,7.750=0.061
,91.000=0.246
,172.000=0.246
;
#DISPLAYBPM:122.000;
#BGCHANGES:-0.490=Atin Ang Gabi.mp4=1.00=1=0=0=StretchNoLoop==CrossFade==,
99999.000=-nosongbg-=1.000=0=0=0=StretchNoLoop====
;
#FGCHANGES:;

//--------------- dance-single - Jenro Jupitel (2024) ----------------
#NOTES:
     dance-single:
     Jenro Jupitel (2024):
     Beginner:
     2:
     0,0,0,0,0:
0000
0000
0000
0000
,
0000
0000
0000
0000
,
0100
0000
0000
0000
,
0001
0000
1000
0000
,
0100
0000
0000
0000
,
0100
0000
0000
0000
,
0010
0000
0000
0000
,
1000
0000
0001
0000
,
0010
0000
0000
0000
,
0010
0000
0000
0000
,
1000
0000
0000
0000
,
0001
0000
0000
0000
,
0100
0000
0000
0000
,
0010
0000
0000
0000
,
0001
0000
0000
0000
,
1000
0000
0000
0000
,
0100
0000
0000
0000
,
0010
0000
0000
0000
,
1000
0000
1000
0000
,
0001
0000
0001
0000
,
1000
0000
0001
0000
,
1000
0000
0001
0000
,
0010
0000
0000
0000
,
0001
0000
1000
0000
,
0100
0000
0010
0000
,
1000
0000
0001
0000
,
0100
0000
0100
0000
,
0001
0000
1000
0000
,
0100
0000
0010
0000
,
1000
0000
0001
0000
,
0100
0000
0100
0000
,
1000
1000
1000
0000
,
0001
0001
0001
0000
,
0100
0100
0100
0000
,
0010
0010
0010
0000
,
1000
1000
1000
0000
,
0001
0001
0001
0000
,
0010
0010
0010
0000
,
0100
0100
0100
0000
,
1000
1000
0010
0000
,
0001
0001
0010
0000
,
1000
1000
0100
0000
,
0001
0001
0010
0000
,
1000
1000
0010
0000
,
0001
0001
0100
0000
,
1000
1000
0100
0000
,
0001
0001
0010
0000
;

//--------------- dance-single - Jenro Jupitel (2024) ----------------
#NOTES:
     dance-single:
     Jenro Jupitel (2024):
     Easy:
     4:
     0,0,0,0,0:
0000
0000
0000
0000
,
0000
0000
0000
0000
,
0100
0010
0001
0100
,
0001
1000
1000
0100
,
0001
0001
0100
0010
,
0001
1000
0100
0001
,
0010
0010
0100
0001
,
1000
1000
0100
0010
,
0001
0001
1000
0100
,
0200
0000
0000
0300
,
0010
0100
0100
0001
,
2000
3001
0020
0031
,
0010
0100
0100
1000
,
0002
1003
0020
1030
,
0100
0010
0010
0001
,
2000
3001
0200
0301
,
0100
0010
0010
1000
,
0002
1003
0200
1300
,
0010
0000
0100
0000
,
0100
0000
0010
0000
,
0100
0000
0100
0000
,
0010
0100
0100
0000
,
1000
0001
0100
0110
,
0100
0010
0001
0100
,
0001
1000
1000
0100
,
1001
0001
0100
0010
,
0001
1000
0100
0001
,
0110
0010
0100
0001
,
1000
1000
0100
0010
,
1001
0001
1000
0100
,
0200
0300
0100
0110
,
0020
0130
2000
3001
,
0200
0310
0002
1003
,
0002
0100
0010
1003
,
2000
0100
0010
3001
,
0200
0310
0002
1003
,
0020
0130
2000
3001
,
2000
0010
0100
3001
,
0002
0010
0100
1003
,
0010
0100
0100
1001
,
1000
0011
0010
0001
,
1010
0100
0100
1001
,
0001
1000
0010
1001
,
0100
0110
0010
0001
,
1000
0001
0100
0001
,
0100
0010
0010
1001
,
0001
1000
0100
1000
,
0010
0000
0000
0000
;

//--------------- dance-single - Jenro Jupitel (2024) ----------------
#NOTES:
     dance-single:
     Jenro Jupitel (2024):
     Medium:
     9:
     0,0,0,0,0:
0000
0000
0000
0000
,
0000
0000
0000
0000
,
0100
1000
0001
1000
1000
0100
0010
0000
,
0001
0001
0010
0000
0010
0001
0100
0000
,
0200
0000
0310
0000
0010
1000
1001
0000
,
0201
1300
1200
0301
,
0100
0001
1000
0001
0001
0100
0010
0000
,
1000
1000
0010
0000
0010
1000
0100
0000
,
0200
0000
0310
0000
0010
0001
1001
0000
,
0220
0000
0000
0330
,
0010
0100
1000
0001
0100
0010
0100
0001
,
2000
3100
0002
0103
,
0010
0100
0001
1000
0100
0010
0100
1000
,
0002
0103
2000
3100
,
0011
0101
1010
1100
,
1001
0110
0110
1001
,
0100
0010
1000
0000
1000
0010
0200
0000
,
0302
1003
0100
0001
,
0102
1000
0010
0103
,
0102
1000
0010
0103
,
0102
1000
0010
0103
,
0010
0100
0010
0100
0010
0100
0010
0100
,
0001
0000
0001
0000
1000
0001
0001
0000
,
0100
0010
1000
0001
0100
0001
0001
0000
,
0101
0000
0001
0100
0010
0100
0001
1000
,
0200
1300
1100
1010
,
0100
0000
0001
0000
1000
0001
1001
0000
,
0100
0010
0001
1000
0100
1000
1000
0000
,
1100
0000
1000
0100
0010
0100
1000
0001
,
0200
0301
0101
0011
,
0100
0000
1000
0000
0001
1000
1001
0000
,
0100
0010
1000
0010
0010
0010
1000
0000
,
0010
0100
0001
0001
0001
0010
0100
0000
,
1000
0100
0001
0100
1000
0001
0100
0000
,
0001
0100
1000
0100
0001
1000
0100
0000
,
0010
0100
0001
0100
0100
0100
0001
0000
,
0100
0010
1000
1000
1000
0100
0010
0000
,
0001
0010
1000
0010
0001
1000
0010
0000
,
1000
0010
0001
0010
1000
0001
0010
0000
,
0100
1000
1100
0001
0011
0001
0100
0010
,
1000
0010
0100
0001
1000
0010
0100
0001
,
1000
0100
0010
0001
1000
0100
0010
0001
,
0001
0100
0010
1000
0100
1000
1000
0001
,
0011
0000
1100
0010
0100
0010
0001
0100
,
0010
0100
0010
1000
0100
0010
0001
0100
,
0002
0100
1000
0013
,
0002
0100
1000
0013
,
0100
0000
0000
0000
;

//--------------- dance-single - Jenro Jupitel (2024) ----------------
#NOTES:
     dance-single:
     Jenro Jupitel (2024):
     Hard:
     12:
     0,0,0,0,0:
0000
0000
0000
0000
,
M00M
0000
0000
0000
0000
0000
0000
0000
0000
0000
0000
0000
0010
1000
0001
1000
,
0001
0000
0100
0000
0010
0000
0100
0010
0000
1000
0001
0000
0100
0001
0010
0100
,
0000
0000
1100
0000
1100
0000
0000
0010
0001
0000
0100
0000
0010
1000
0010
0000
,
0100
0000
0000
0000
0102
0000
0000
0000
0013
0000
1000
0000
0001
0100
0010
0000
,
0011
0100
0100
0000
0012
0000
1MM3
0000
,
0100
0000
0010
0000
0001
0000
0000
0001
0000
0000
0100
0000
0001
1000
0001
1000
,
0010
0000
0100
0000
0001
0000
0000
1000
0100
0000
0010
0000
1000
0001
0100
0000
,
0021
0000
0000
0000
M130
0000
0010
0000
0001
0000
0100
0000
0010
1000
0010
0000
,
0000
0000
0100
0000
0001
0000
0000
1000
0000
0000
0001
0000
0100
0000
0100
0000
,
0001
0010
0001
0000
1000
0000
0010
0100
0001
0000
0100
0000
0010
1000
0010
0000
,
0001
1000
0100
1000
0001
0100
0001
0010
,
0100
0010
0100
0000
0010
0000
0001
1000
0001
0000
0100
0000
0010
0100
0010
0000
,
1000
0100
0001
1000
0100
1000
101M
0000
,
0100
0010
0100
0000
1000
0000
0100
0001
0010
0000
0010
0000
0011
0000
0100
0000
,
1100
0000
1000
0000
0001
0000
0001
0000
0100
0000
0010
0000
1000
0001
1000
0000
,
0010
0000
1000
0010
0100
0000
0001
0000
0010
0001
0010
0000
0001
0000
0001
0000
,
0M01
0000
0M11
0000
1M01
1000
0100
0010
,
0100
0000
1000
0000
0100
0000
0010
0000
0100
0000
1000
0000
0100
0010
0100
0010
,
0100
1000
0100
0000
0010
0100
0000
1000
0100
0000
0010
0000
0001
0000
0100
0000
,
0010
1000
0100
0000
0100
0010
0000
0010
0001
0000
0100
0000
0010
1000
0010
1000
,
0100
0010
0001
0000
0001
0100
0000
0100
0010
0000
1000
0000
0100
0010
0001
0000
,
0001
0000
0000
0000
0001
0000
0000
1000
0000
0000
0001
0000
02M0
0000
0000
0000
,
0301
0000
0100
0000
0001
0000
0010
0000
0100
0000
0001
0000
0001
0000
1000
0100
,
0000
0000
1000
0000
0010
0000
0100
0000
0001
0000
0100
0000
0001
0000
0010
0100
,
000M
1000
0000
0000
0110
0000
0000
0001
0000
0000
0101
0000
0100
0010
0100
0000
,
M010
0100
0010
0000
0001
0000
1000
0001
0100
0000
1000
0000
0010
1000
0010
0000
,
0010
0000
0100
0000
1000
0000
0010
0000
0100
0000
1000
0000
1000
0000
0001
0100
,
00M0
0000
0001
0000
0010
0000
0100
0000
1000
0000
0100
0000
1000
0000
0010
0100
,
0000
0001
0000
0000
0110
0000
0000
1000
0000
0000
1100
0000
0100
0010
0100
0000
,
0M10
0001
0010
0000
1000
0000
0100
1000
0100
0000
0001
0000
1000
0000
0110
0000
,
0001
0000
0000
0100
0000
0000
0010
0000
0000
0100
0000
0000
M12M
0000
0000
0000
,
1030
0000
0000
0100
0000
0000
0010
0000
0000
0100
0000
0000
M21M
0000
0000
0000
,
0301
0000
1000
0001
0000
0001
1000
0000
0000
1000
0000
0000
1MM2
0000
0000
0000
,
1003
0000
0001
1000
0000
1000
0001
0000
0000
0001
0000
0000
2MM1
0000
0000
0000
,
3001
0010
0100
1000
0000
0010
0100
0000
0100
0010
0000
0000
M12M
0000
0000
0000
,
1030
0100
0010
0001
0000
0010
0100
0000
0100
0010
0000
0000
M21M
0000
0000
0000
,
0301
1000
0001
1000
0000
0001
0100
0000
1000
0010
0000
0000
1MM2
0000
0000
0000
,
1003
0100
0010
0001
0000
1000
0001
0000
0001
1000
0000
0000
2MM1
0000
0000
0000
,
3100
0000
0001
0010
0100
0000
0100
0010
0001
0000
0100
0001
0010
0000
0100
1000
,
001M
0000
1000
0000
1010
0000
0010
0000
0101
0000
0001
0000
1000
0000
0100
0010
,
M100
0000
0000
0001
0000
0000
0100
0000
0000
1000
0000
0000
1100
0000
0000
0000
,
001M
0000
0000
0000
0101
0000
0100
0000
0100
0000
0001
0000
1000
0001
1000
0000
,
M002
0000
1003
0100
1000
0100
0010
0000
,
100M
0000
1000
0100
1000
0100
0010
0000
,
M001
0000
0100
0001
0000
0001
0010
0000
0010
0100
0000
0100
0010
0000
0000
0000
,
001M
0000
0100
0001
0000
0001
0010
0000
0010
0000
0001
0000
0010
0000
0100
0010
,
M000
0000
0000
0000
;
