#TITLE:Ate Sandali;
#SUBTITLE:;
#ARTIST:Maris Racal;
#TITLETRANSLIT:;
#SUBTITLETRANSLIT:;
#ARTISTTRANSLIT:;
#GENRE:Pop;
#CREDIT:;
#MUSIC:Ate Sandali.ogg;
#BANNER:AteSandali-bn.jpg;
#BACKGROUND:AteSandali-bg.jpg;
#CDTITLE:;
#SAMPLESTART:36.685;
#SAMPLELENGTH:25.714;
#SELECTABLE:YES;
#OFFSET:-0.062;
#BPMS:0.000=154.000;
#STOPS:;
#BGCHANGES:;
#FGCHANGES:;

//--------------- dance-single - Jenro (2021) ----------------
#NOTES:
     dance-single:
     Jenro (2021):
     Beginner:
     3:
     0,0,0,0,0:
0000
0000
0000
0000
,
0000
0000
0000
0000
,
0000
0000
0000
0000
,
0000
0000
0000
0000
,
0010
0000
0000
0000
,
0010
0010
0010
0000
,
0010
0000
0010
0000
,
0001
0000
0000
0000
,
0100
0100
0000
0000
,
0100
0100
0000
0000
,
0100
0100
0000
0000
,
0100
0100
0000
0000
,
0010
0010
0000
0000
,
0010
0010
0000
0000
,
0010
0010
0000
0000
,
0100
0000
0000
0000
,
0001
0000
0000
0000
,
1000
0000
0000
0000
,
0001
0000
0000
0000
,
1000
0000
0000
0000
,
0100
0000
0000
0000
,
0001
0000
0000
0000
,
0010
0000
0000
0000
,
1000
0000
0000
0000
,
0010
0000
0100
0000
,
0010
0000
0010
0000
,
0100
0000
0010
0000
,
0100
0000
0100
0000
,
0010
0000
0001
0000
,
0010
0000
1000
0000
,
0100
0000
0100
0000
,
0010
0010
0010
0010
,
0010
0010
0010
0000
,
0001
0000
1000
0000
,
0001
0000
0100
0000
,
1000
0000
0100
0000
,
0001
0000
0010
0000
,
1000
1000
1000
0000
,
1000
1000
1000
0000
,
1000
1000
1000
0000
,
0100
0000
0010
0000
,
1000
0001
0010
0000
,
0100
0000
0010
0000
,
0001
1000
0100
0000
,
0010
0000
0001
0000
,
0100
0010
1000
0001
,
0001
0000
0100
0000
,
0001
0010
1000
0100
,
0020
0000
0000
0000
,
1030
0000
1000
0000
,
0020
0000
0000
0000
,
1030
0000
1000
0000
,
0020
0000
0000
0000
,
0130
0000
0001
0000
,
0200
0000
0000
0000
,
0301
0000
0100
0000
,
0001
0000
0000
0000
,
1000
0000
0000
0000
,
0001
0000
0000
0000
,
1000
0000
0000
0000
,
0100
0000
0000
0000
,
0001
0000
0000
0000
,
0010
0000
0000
0000
,
1000
0000
0000
0000
,
0001
0000
0000
0000
,
1000
0000
0000
0000
,
0001
0000
0000
0000
,
1000
0000
0000
0000
,
0100
0000
0100
0000
,
0001
0000
0001
0000
,
0010
0010
0010
0010
,
1000
1000
1000
0000
,
0010
0000
0100
0000
,
0010
0000
0010
0000
,
0100
0000
0010
0000
,
0100
0000
0100
0000
,
0010
0000
0001
0000
,
0010
0000
1000
0000
,
0100
0000
0100
0000
,
0010
0010
0010
0010
,
0010
0010
0010
0000
,
0001
0001
0001
0000
,
1000
1000
1000
0000
,
0100
0100
0100
0000
,
0010
0010
0010
0000
,
0100
0100
0100
0000
,
0010
0010
0010
0000
,
0100
0100
0100
0000
;

//--------------- dance-single - Jenro (2021) ----------------
#NOTES:
     dance-single:
     Jenro (2021):
     Easy:
     6:
     0,0,0,0,0:
0000
0000
0000
0000
,
0000
0000
0000
0000
,
0000
0000
0000
0000
,
0000
0000
0000
0000
,
0001
1000
0100
0001
,
1000
1000
0010
0100
,
0001
1000
0100
0000
,
2000
0000
3010
0100
,
1000
0001
0100
1000
,
0001
0001
0010
0100
,
1000
0001
0100
0000
,
0002
0000
0013
0100
,
0001
1000
0001
1000
,
1000
0001
1000
0001
,
0010
0200
0000
0300
,
1000
0000
0000
0000
,
0100
0001
0100
1000
,
0100
0001
0100
0010
,
1000
0010
0001
0010
,
1000
0010
0001
0010
,
0100
0001
0010
0001
,
0100
0010
1000
0100
,
1000
0100
1000
0100
,
0010
0001
0010
0001
,
0200
0300
0101
0000
,
0200
0310
0101
0000
,
0020
0030
1010
0000
,
0020
0130
1010
0000
,
2000
3000
0110
0000
,
2000
3001
0110
0110
,
0001
0001
1000
1000
,
0001
1001
1100
0000
,
0200
0300
1100
0000
,
0200
0310
1100
0000
,
0020
0030
0011
0000
,
0020
0130
0011
0000
,
0002
0003
0110
0000
,
0002
1003
0110
0110
,
1000
1000
0001
0001
,
1000
1001
0101
0000
,
0100
0000
0010
0000
,
1000
0001
0010
1001
,
0100
0000
0010
0000
,
0001
1000
0100
1001
,
0010
0000
0001
0001
,
0000
0000
1000
1000
,
1001
0000
0100
0000
,
0001
0010
1000
0100
,
0110
0000
1000
0001
,
0100
0001
1000
0010
,
0110
0000
0001
1000
,
0100
1000
0001
0010
,
0110
0000
1000
0000
,
1000
0000
0001
0000
,
0100
0000
0010
0000
,
1000
0000
1000
0000
,
0002
1000
0100
0013
,
0002
0010
0100
1003
,
0002
1000
0100
0013
,
2000
0010
0001
3100
,
2000
0001
0100
3010
,
2000
0010
0100
3001
,
2000
0001
0100
3010
,
0002
0010
1000
0103
,
0110
0100
0001
0100
,
0110
0100
1000
0100
,
0110
0100
0001
0100
,
0110
0100
1000
0100
,
0001
0001
0001
1001
,
1000
1000
1000
1001
,
0001
0001
0001
0001
,
0001
0001
1001
1001
,
0200
0310
0101
0000
,
0200
0310
0101
0000
,
0200
0310
1010
0000
,
0200
0310
1010
0000
,
2000
3001
0110
1000
,
2000
3001
0110
0110
,
0001
0001
1000
1000
,
0001
1001
1100
0000
,
0200
0310
1100
0000
,
0200
0310
1100
0000
,
0200
0310
0011
0000
,
0200
0310
0011
0000
,
0002
1003
0110
0001
,
0002
1003
0110
0110
,
1000
1000
0001
0001
,
1000
1001
0101
0000
,
0100
0000
0000
0000
;

//--------------- dance-single - Jenro (2021) ----------------
#NOTES:
     dance-single:
     Jenro (2021):
     Medium:
     9:
     0,0,0,0,0:
0000
0000
0000
0000
,
0000
0000
0000
0000
,
0000
0000
0000
0000
,
0000
0000
0000
0000
,
1000
0000
0010
0000
0001
0010
0100
0000
,
1000
0000
0100
0000
0010
1000
0010
0000
,
0001
0000
0100
0000
0000
0001
0010
0000
,
1000
0000
0100
0000
1000
0010
1000
0000
,
1001
0000
1000
0000
0001
0100
0010
0000
,
1000
0000
0001
0000
1000
0100
0010
0000
,
0001
0000
1000
0000
0000
0100
0010
0000
,
1000
0000
0001
0000
0000
0100
0010
0000
,
1000
0000
0100
0000
0000
1000
0010
0000
,
0001
0000
0100
0000
0000
0001
0010
0000
,
1000
0000
0100
0000
0000
1000
0010
0000
,
0001
0000
0100
0000
0001
0010
0001
0000
,
1001
0000
0000
0100
0000
0000
0100
0000
,
0100
0000
0000
0001
0000
0000
0010
0000
,
0100
0000
0000
0100
0000
0000
1000
0100
,
1000
0000
0000
0010
0000
0000
0010
0000
,
0100
0000
0000
0100
0000
0000
0001
0000
,
1000
0000
0000
0100
0000
0000
1000
0000
,
0001
0000
0000
0100
0000
0000
0010
0000
,
0100
0100
0100
0000
,
2001
0000
0000
3001
0100
0000
0000
0000
,
0002
0000
1003
0000
0010
0100
0000
0000
,
2001
0000
0000
3001
0010
0000
0000
0000
,
1100
0000
1100
0000
0001
0100
0000
0000
,
0120
0000
0000
1030
0001
0000
0000
0000
,
1000
0000
0100
0000
0001
0010
0000
0000
,
0001
0000
0100
0001
0000
0000
1100
0000
,
1000
0010
0100
0000
0110
0000
0001
0000
,
1002
0000
0000
1003
0100
0000
0000
0000
,
2000
0000
3001
0000
0010
0100
0000
0000
,
1002
0000
0000
1003
0010
0000
0000
0000
,
0101
0000
0101
0000
1000
0100
0000
0000
,
0120
0000
0000
0031
1000
0000
0000
0000
,
0001
0000
0100
0000
1000
0010
0000
0000
,
1000
0000
0100
1000
0000
0000
0101
0000
,
0001
0010
0100
0000
0110
0000
1000
0000
,
0001
0100
0010
0000
0010
1000
0100
0000
,
0100
0010
0001
0000
1000
0000
1000
0000
,
0010
0100
0001
0000
0001
0010
0100
0000
,
0100
1000
0010
0000
0010
0000
0010
0000
,
0100
0001
1000
0000
0100
0010
0001
0000
,
0100
0010
1000
0000
0001
0000
0001
0000
,
0001
0100
0010
0100
0001
0000
1000
0000
,
1000
0010
1000
0100
0010
0000
0010
0100
,
1001
0000
0000
0000
0000
0000
0000
0000
0100
0000
0000
0001
0000
0000
0010
0000
,
0100
0000
0000
1000
0000
0000
0010
0000
0100
0000
0000
0001
0000
0000
1000
0000
,
1001
0000
0000
0000
0000
0000
0000
0000
0010
0000
0000
1000
0000
0000
0100
0000
,
0010
0000
0000
0001
0000
0000
0100
0000
0010
0000
0000
1000
0000
0000
0001
0000
,
1001
0000
0000
0000
1000
0001
1000
0000
,
0010
0000
0010
0000
0001
1000
0001
0000
,
0100
0100
0010
0010
,
0200
0301
2000
3010
,
1001
0000
0000
0010
0000
0000
0010
0000
,
0010
0000
0000
1000
0000
0000
0100
0000
,
0010
0000
0000
0010
0000
0000
0001
0010
,
0001
0000
0000
0100
0000
0000
0100
0000
,
0010
0000
0000
0010
0000
0000
1000
0000
,
0001
0000
0000
0010
0000
0000
0001
0000
,
1000
0000
0000
0010
0000
0000
0100
0000
,
0010
0010
0010
0000
,
1002
1000
0013
0001
,
2001
0001
3010
1000
,
1002
0000
1000
0003
0100
0000
0001
0000
,
0001
0010
0001
0000
1000
0010
1000
0000
,
0010
0100
0001
0000
1000
0001
0100
0000
,
0010
1000
0100
0000
0001
1000
0100
0000
,
1000
0010
1000
0010
1000
0001
0100
0001
,
0100
0001
0100
0000
0110
0000
1000
0000
,
2001
0000
0000
3001
0010
0000
0000
0000
,
0002
0000
1003
0000
0100
0010
0000
0000
,
2001
0000
0000
3001
0100
0000
0000
0000
,
1010
0000
1010
0000
0001
0010
0000
0000
,
0210
0000
0000
1300
0001
0000
0000
0000
,
1000
0000
0010
0000
0001
0100
0000
0000
,
0001
0000
0010
0001
0000
0000
1010
0000
,
1000
0100
0010
0000
0110
0000
1000
0000
,
2001
0000
0000
3001
0010
0000
0000
0000
,
0002
0000
1003
0000
0100
0010
0000
0000
,
2001
0000
0000
3001
0100
0000
0000
0000
,
1010
0000
1010
0000
0001
0010
0000
0000
,
0210
0000
0000
1300
0001
0000
0000
0000
,
1000
0000
0010
0000
0001
0100
0000
0000
,
0001
0000
0010
0001
0000
0000
1010
0000
,
1000
0100
0010
0000
0110
0000
0000
0000
;

//--------------- dance-single - Jenro (2021) ----------------
#NOTES:
     dance-single:
     Jenro (2021):
     Hard:
     11:
     0,0,0,0,0:
0000
0000
0000
0000
,
0000
0000
0000
0000
,
0000
0000
0000
0000
,
0000
0000
0000
0000
,
2000
0000
3010
0100
0000
0001
0100
0000
,
0010
1000
0001
0100
1000
0100
0010
0001
,
0000
0000
1000
0100
0000
0010
0001
0000
,
1000
0001
1000
0001
1000
0100
0010
0000
,
0110
0000
0010
0001
0000
1000
0100
0000
,
1000
0010
1000
0010
0100
0001
0100
0010
,
0000
0000
1000
0100
0000
0010
0001
0000
,
0001
0010
0001
0010
0100
1000
0100
0010
,
0000
0000
0100
1000
0000
0001
0010
0000
,
0010
0100
0010
0100
1000
0001
1000
0001
,
0000
0000
0100
0010
0000
0000
1001
0000
,
0100
0000
0001
1000
0000
0000
0000
0000
,
0002
0000
0000
0103
0000
0010
1000
0000
,
2000
0000
0000
3100
0000
0010
0001
0000
,
2000
0000
0000
0000
0000
0000
3001
0000
0000
0000
0100
0000
0010
0000
0100
0010
,
2000
0000
0000
3010
0000
0000
0101
0000
,
2000
0000
0000
3100
0000
0010
0001
0000
,
0002
0000
0000
0103
0000
0010
1000
0000
,
0002
0000
0000
1003
0000
0100
0010
0000
,
0002
0000
0000
0013
0000
0000
1100
0000
,
1001
0000
0000
1000
0001
0000
0000
0000
,
0100
0010
0110
0000
0010
0100
0000
0000
,
1001
0000
0000
0001
1000
0000
0000
0000
,
0010
0100
0110
0000
0100
0010
0000
0000
,
2200
3300
0202
0303
,
0010
0101
1000
1001
,
1000
0010
0100
0001
1000
0100
0110
0000
,
0010
0010
0010
0001
0000
0001
0101
0000
,
1001
0000
0000
0001
1000
0000
0000
0000
,
0100
0010
0110
0000
0010
0100
0000
0000
,
1001
0000
0000
1000
0001
0000
0000
0000
,
0010
0100
0110
0000
0100
0010
0000
0000
,
0202
0303
2200
3300
,
0010
1100
0001
1001
,
0001
0010
0100
1000
0001
0100
0110
0000
,
0010
0010
0010
1000
0000
1000
1100
0000
,
1001
0100
0010
0001
0100
0001
0100
0010
,
1000
0100
0010
0100
1000
0001
0001
0000
,
1000
0010
0100
0001
0010
0100
1000
0010
,
0100
0001
0010
0100
1000
0010
0010
0000
,
0100
0001
0010
0100
1000
0010
0100
0001
,
0010
0100
1000
0010
0100
0010
0010
0000
,
0100
0001
0010
0100
1000
0010
0100
0001
,
0010
0100
1000
0010
0100
0001
0001
0000
,
1001
0010
0100
0000
1000
0001
1000
0001
,
0001
0100
0001
0010
0100
1000
1000
0000
,
0010
0100
0001
0010
0100
0010
0100
1000
,
0010
0100
0001
0010
0100
1000
1000
0000
,
0100
0010
0001
0100
0010
0100
0001
0010
,
0100
1000
0100
0010
0001
0100
0100
0000
,
0010
1000
0100
0010
0001
0100
0010
0100
,
0001
0010
0100
1000
0001
0100
0001
0001
,
2000
0000
0000
3010
0000
0100
0001
0000
,
0002
0000
0000
0013
0000
0100
1000
0000
,
0002
0000
0000
0000
0000
0000
1003
0000
0000
0000
0010
0000
0100
0000
0010
0100
,
0002
0000
0000
0103
0000
0000
1010
0000
,
0002
0000
0000
0013
0000
0100
1000
0000
,
2000
0000
0000
3010
0000
0100
0001
0000
,
2000
0000
0000
3001
0000
0010
0100
0000
,
2000
0000
0000
3100
0000
0000
0011
0000
,
1001
0001
1000
0001
1000
0100
1000
0000
,
1001
1000
0001
1000
0001
0100
0001
0000
,
1001
0001
1000
0001
1000
0001
1000
0100
,
0001
1000
0001
1000
0001
1000
0001
0100
,
1000
0010
0100
0001
0100
0000
0110
0000
,
0001
0010
0100
1000
0010
0000
0110
0000
,
1000
0001
0100
0001
1000
0001
1000
0100
,
0010
0100
0010
0001
0200
0000
0300
0000
,
1001
0000
0000
0001
1000
0000
0000
0000
,
0010
0100
0110
0000
0100
0010
0000
0000
,
1001
0000
0000
1000
0001
0000
0000
0000
,
0100
0010
0110
0000
0010
0100
0000
0000
,
0022
0033
2020
3030
,
0100
1010
0001
1001
,
0001
0100
0010
1000
0001
0010
0110
0000
,
0100
0100
0100
1000
0000
1000
1010
0000
,
1001
0000
0000
1000
0001
0000
0000
0000
,
0010
0100
0110
0000
0100
0010
0000
0000
,
1001
0000
0000
0001
1000
0000
0000
0000
,
0100
0010
0110
0000
0010
0100
0000
0000
,
2020
3030
0022
0033
,
0100
0011
1000
1001
,
1000
0100
0010
0001
1000
0010
0110
0000
,
0100
0100
0100
0001
0000
0001
0011
0000
;

//--------------- dance-double - Jenro (2021) ----------------
#NOTES:
     dance-double:
     Jenro (2021):
     Challenge:
     9:
     0,0,0,0,0:
00000000
00000000
00000000
00000000
,
00000000
00000000
00000000
00000000
,
00000000
00000000
00000000
00000000
,
00000000
00000000
00000000
00000000
,
00001000
00000000
00100000
00000000
00010000
00100000
01000000
00000000
,
00001000
00000000
01000000
00000000
00100000
10000000
00100000
00000000
,
00010000
00000000
01000000
00000000
00000000
00001000
00010000
00000000
,
00001000
00000000
00000100
00000000
00001000
00000010
00001000
00000000
,
00011000
00000000
00001000
00000000
00010000
01000000
00100000
00000000
,
00001000
00000000
00010000
00000000
00001000
01000000
00100000
00000000
,
00010000
00000000
00001000
00000000
00000000
01000000
00100000
00000000
,
00001000
00000000
00010000
00000000
00000000
01000000
00100000
00000000
,
00001000
00000000
01000000
00000000
00000000
00001000
00100000
00000000
,
00010000
00000000
01000000
00000000
00000000
00010000
00100000
00000000
,
00001000
00000000
01000000
00000000
00000000
00001000
00100000
00000000
,
00001000
00000000
00000100
00000000
00001000
00000010
00001000
00000000
,
00011000
00000000
00000000
01000000
00000000
00000000
01000000
00000000
,
01000000
00000000
00000000
00010000
00000000
00000000
00100000
00000000
,
00010000
00000000
00000000
00001000
00000000
00000000
00000100
00001000
,
00000100
00000000
00000000
00000010
00000000
00000000
00001000
00000000
,
00010000
00000000
00000000
01000000
00000000
00000000
00010000
00000000
,
00001000
00000000
00000000
00000100
00000000
00000000
00001000
00000000
,
00010000
00000000
00000000
01000000
00000000
00000000
00001000
00000000
,
00010000
00000100
00000100
00000000
,
00012000
00000000
00000000
00013000
01000000
00000000
00000000
00000000
,
00020000
00000000
00031000
00000000
00100000
01000000
00000000
00000000
,
00012000
00000000
00000000
00013000
00100000
00000000
00000000
00000000
,
01001000
00000000
01001000
00000000
00010000
01000000
00000000
00000000
,
01200000
00000000
00000000
10300000
00010000
00000000
00000000
00000000
,
00001000
00000000
00000100
00000000
00000001
00000010
00000000
00000000
,
00001000
00000000
01000000
00010000
00000000
00000000
01001000
00000000
,
00001000
00100000
01000000
00000000
01100000
00000000
00010000
00000000
,
00021000
00000000
00000000
00031000
01000000
00000000
00000000
00000000
,
00002000
00000000
00013000
00000000
00100000
01000000
00000000
00000000
,
00021000
00000000
00000000
00031000
00100000
00000000
00000000
00000000
,
01010000
00000000
01010000
00000000
00001000
01000000
00000000
00000000
,
00201000
00000000
00000000
00301000
00010000
00000000
00000000
00000000
,
00010000
00000000
01000000
00000000
00001000
00100000
00000000
00000000
,
00001000
00000000
01000000
00001000
00000000
00000000
01010000
00000000
,
00010000
00100000
01000000
00000000
01100000
00000000
00001000
00000000
,
00001000
00000010
00000100
00000000
00000100
00000001
00000010
00000000
,
00000010
00000100
00001000
00000000
00000001
00000000
00000001
00000000
,
00000100
00000010
00001000
00000000
00001000
00000100
00000010
00000000
,
00000010
00000001
00000100
00000000
00000100
00000000
00000100
00000000
,
00000010
00001000
00000001
00000000
00000010
00000100
00001000
00000000
,
00000010
00000100
00000001
00000000
00001000
00000000
00001000
00000000
,
00001000
00000010
00000100
00000010
00001000
00000000
00000001
00000000
,
00000001
00000100
00000001
00000010
00000100
00000000
00000100
00000010
,
00001001
00000000
00000000
00000000
00000000
00000000
00000000
00000000
00000010
00000000
00000000
00001000
00000000
00000000
00000100
00000000
,
00000010
00000000
00000000
00000001
00000000
00000000
00000100
00000000
00000010
00000000
00000000
00001000
00000000
00000000
00000001
00000000
,
00001001
00000000
00000000
00000000
00000000
00000000
00000000
00000000
00000100
00000000
00000000
00000001
00000000
00000000
00000010
00000000
,
00000100
00000000
00000000
00001000
00000000
00000000
00000010
00000000
00000100
00000000
00000000
00000001
00000000
00000000
00001000
00000000
,
00001001
00000000
00000000
00000000
00001000
00010000
00001000
00000000
,
00100000
00000000
00100000
00000000
00010000
00001000
00010000
00000000
,
01000000
01000000
00100000
00100000
,
02000000
03010000
00002000
00103000
,
00011000
00000000
00000000
00100000
00000000
00000000
00100000
00000000
,
00100000
00000000
00000000
10000000
00000000
00000000
01000000
00000000
,
00100000
00000000
00000000
00100000
00000000
00000000
00010000
00100000
,
00010000
00000000
00000000
01000000
00000000
00000000
01000000
00000000
,
00100000
00000000
00000000
00100000
00000000
00000000
00001000
00000000
,
00010000
00000000
00000000
00100000
00000000
00000000
00010000
00000000
,
00001000
00000000
00000000
00100000
00000000
00000000
01000000
00000000
,
00100000
00100000
00100000
00000000
,
00021000
10000000
00130000
00010000
,
00012000
00010000
00103000
00001000
,
00021000
00000000
00001000
00030000
01000000
00000000
00010000
00000000
,
00010000
00100000
00010000
00000000
00001000
00100000
00001000
00000000
,
00100000
01000000
00010000
00000000
10000000
00010000
01000000
00000000
,
00100000
10000000
01000000
00000000
00010000
10000000
01000000
00000000
,
10000000
00100000
10000000
00100000
10000000
00010000
01000000
00010000
,
01000000
00010000
01000000
00000000
01100000
00000000
10000000
00000000
,
00012000
00000000
00000000
00013000
00100000
00000000
00000000
00000000
,
00020000
00000000
00031000
00000000
01000000
00100000
00000000
00000000
,
00012000
00000000
00000000
00013000
01000000
00000000
00000000
00000000
,
00101000
00000000
00101000
00000000
00010000
00100000
00000000
00000000
,
02100000
00000000
00000000
03001000
00010000
00000000
00000000
00000000
,
00001000
00000000
00100000
00000000
00010000
01000000
00000000
00000000
,
00010000
00000000
00100000
00010000
00000000
00000000
00101000
00000000
,
00001000
01000000
00100000
00000000
01100000
00000000
00001000
00000000
,
00012000
00000000
00000000
00013000
00100000
00000000
00000000
00000000
,
00020000
00000000
00031000
00000000
01000000
00100000
00000000
00000000
,
00012000
00000000
00000000
00013000
01000000
00000000
00000000
00000000
,
00101000
00000000
00101000
00000000
00010000
00100000
00000000
00000000
,
02100000
00000000
00000000
03001000
00010000
00000000
00000000
00000000
,
00001000
00000000
00100000
00000000
00010000
01000000
00000000
00000000
,
00010000
00000000
00100000
00010000
00000000
00000000
00101000
00000000
,
00010000
00000100
00000010
00000000
00000110
00000000
00000000
00000000
;
