#TITLE:Ang Sarap Mabuhay;
#SUBTITLE:;
#ARTIST:Jopper Ril;
#TITLETRANSLIT:;
#SUBTITLETRANSLIT:;
#ARTISTTRANSLIT:;
#GENRE:;
#CREDIT:Jenro Jupitel (2024);
#MUSIC:Ang Sarap Mabuhay.ogg;
#BANNER:Ang Sarap Mabuhay-bn.png;
#BACKGROUND:Ang Sarap Mabuhay-bg.png;
#CDTITLE:cdtitle.png;
#SAMPLESTART:56.398;
#SAMPLELENGTH:12.000;
#SELECTABLE:YES;
#OFFSET:-0.898;
#BPMS:0.000=160.000;
#STOPS:;
#BGCHANGES:-1.898=Ang Sarap Mabuhay.mp4=1.000=1=0=0=StretchNoLoop==CrossFade==,
99999.000=-nosongbg-=1.000=0=0=0=StretchNoLoop====
;
#FGCHANGES:;

//--------------- dance-single - Jenro Jupitel (2024) ----------------
#NOTES:
     dance-single:
     Jenro Jupitel (2024):
     Beginner:
     2:
     0,0,0,0,0:
0000
0000
0000
0000
,
0000
0000
0000
0000
,
0000
0000
0000
0000
,
0000
0000
0000
0000
,
0000
0000
0000
0000
,
0001
0000
0100
0000
,
1000
0000
0001
0000
,
1000
0000
0001
0000
,
1000
0000
0001
0000
,
1000
0000
0100
0000
,
0001
0000
1000
0000
,
0001
0000
1000
0000
,
0001
0000
1000
0000
,
1000
0000
0010
0000
,
0001
0000
1000
0000
,
0001
0000
0100
0000
,
0100
0000
1000
0000
,
0001
0000
0010
0000
,
1000
0000
0001
0000
,
1001
0000
0000
0000
,
0000
0100
0000
0000
,
0001
0000
0100
0000
,
1000
0000
0001
0000
,
1000
0000
0010
0000
,
0001
0000
1000
0000
,
1000
0000
0010
0000
,
0001
0000
1000
0000
,
0001
0000
0100
0000
,
1000
0000
0001
0000
,
1000
0000
0010
0000
,
0010
0000
1000
0000
,
0001
0000
0010
0000
,
0000
0000
0001
0000
,
1000
0000
0100
0000
,
0001
0000
0100
0000
,
0001
0000
1000
0000
,
0001
0000
1000
0000
,
0001
0000
0010
0000
,
1000
0000
0100
0000
,
0001
0000
0100
0000
,
1000
0000
0010
0000
,
0010
0000
1000
0000
,
0001
0000
0100
0000
,
0010
0000
0001
0000
,
1000
0000
0100
0000
,
0001
0010
0100
0000
,
0010
0000
1000
0000
,
1000
0010
0100
0000
,
0010
0000
0100
0000
,
1000
0000
0100
0000
,
0001
0001
0000
0000
,
1000
0000
0000
0000
;

//--------------- dance-single - Jenro Jupitel (2024) ----------------
#NOTES:
     dance-single:
     Jenro Jupitel (2024):
     Easy:
     4:
     0,0,0,0,0:
0000
0000
0000
0000
,
0000
0000
0000
0000
,
0000
0000
0000
0000
,
0000
0000
0000
0000
,
0000
0000
0000
0000
,
0001
0010
0010
0100
,
1000
0000
0010
0001
,
0200
0000
0310
1000
,
0002
0000
1003
0000
,
0001
0001
0100
0001
,
1000
0000
0010
0100
,
0020
1000
1030
0000
,
0002
1000
0013
0000
,
1000
1000
0100
0001
,
0001
0010
0100
0100
,
0010
0001
2000
0000
,
3001
0000
0110
0010
,
0001
0100
0100
0010
,
1000
0100
0010
0010
,
0001
0000
0000
0000
,
0000
1000
0000
0000
,
0001
0010
0010
0100
,
1000
0000
0001
0010
,
0001
0100
0001
1000
,
1000
0100
2000
3000
,
0010
0010
0100
0100
,
0001
1000
0001
0001
,
0020
0000
0130
0000
,
2000
0000
3010
0000
,
1000
0100
0100
0010
,
1000
1000
0001
0100
,
0002
0000
0013
0000
,
1000
0001
0200
0300
,
0010
0100
0100
0010
,
0100
0001
0100
0010
,
2000
0000
3002
0000
,
2003
0000
0000
0000
3002
0003
0000
0000
,
0001
0010
0010
0100
,
1000
0010
0100
0100
,
0001
0010
0001
0100
,
0010
1000
0001
0000
,
1000
1000
0100
0001
,
0001
0010
0100
0010
,
0001
1000
0010
0100
,
0010
1000
1000
0000
,
0001
0010
0010
0100
,
1000
0001
1000
0010
,
1000
0001
0010
0000
,
0100
0100
0100
0010
,
0001
0100
0100
0010
,
1000
0100
0010
0010
,
0001
0000
0000
0000
;

//--------------- dance-single - Jenro Jupitel (2024) ----------------
#NOTES:
     dance-single:
     Jenro Jupitel (2024):
     Medium:
     10:
     0,0,0,0,0:
0000
0000
0000
0000
,
0000
0000
0000
0000
,
0000
0000
0000
0000
,
0000
0000
0000
0000
,
0000
0000
0000
0000
,
0100
0000
0001
0100
0010
0000
0010
0100
,
0010
0000
0010
0100
0001
0000
0001
1000
,
0100
0000
0100
0010
0100
0000
0100
1000
,
0001
0000
0001
1000
0001
0000
1000
0000
,
0001
0000
0001
0010
0100
0000
0100
1000
,
0100
0000
0100
0010
0100
0000
0100
0010
,
0100
0000
0010
0001
0100
0000
0010
0100
,
0010
0000
0100
0001
0100
0000
0001
0000
,
1000
0000
0100
1000
0100
0000
0001
1000
,
0010
0000
0010
0100
0001
0000
0001
1000
,
0010
0000
0010
1000
0100
0000
0100
1000
,
0100
0000
0100
1000
0100
0000
0010
0001
,
0100
0000
0100
0001
0100
0000
0100
0001
,
0010
0000
0010
0100
0010
0100
0010
0000
,
1001
0000
0000
0000
,
0000
0000
0100
0000
0000
0010
0000
1000
,
0001
0100
0001
0010
0000
0010
0100
0010
,
0000
0010
0100
0010
0000
0010
0100
1000
,
0001
1000
0100
0000
0100
0010
0000
0100
,
0100
0000
1000
0001
0000
0001
0010
0100
,
0000
0100
1000
0100
0000
0100
0010
0100
,
0000
0100
0010
0100
0000
0010
0001
0100
,
0010
0100
0010
0100
0000
0100
0001
0100
,
0001
1000
0001
1000
0000
0001
1000
0000
,
1000
0100
1000
0100
0000
0001
1000
0010
,
0100
0000
0000
0001
0000
0000
0001
0000
1000
0000
0000
0010
0000
0000
0010
0000
,
1000
0100
1000
0100
0000
0100
1000
0100
,
0010
0001
0100
0000
0100
0001
0000
0010
,
0000
0010
0000
0100
0010
0000
0010
0100
,
0010
0000
0000
0001
1000
0001
1000
0001
,
0200
0000
0000
0000
,
0000
0000
0000
0300
,
0100
0000
0001
0100
0010
0000
0010
0100
,
0010
0000
0010
0100
0001
0000
0001
1000
,
0100
0000
0100
0010
0100
0000
0100
1000
,
0001
0000
0001
1000
0001
0000
1000
0000
,
0001
0000
0001
0010
0100
0000
0100
1000
,
0100
0000
0100
0010
0100
0000
0100
0010
,
0100
0000
0010
0001
0000
0100
0000
0010
,
0100
0010
0100
0001
0100
0001
0001
1000
,
1000
0000
0100
1000
0100
0000
0001
1000
,
0010
0000
0010
0100
0001
1000
0001
1000
,
0010
0000
0010
1000
0100
0000
0100
1000
,
0100
0000
0100
1000
0100
0000
0010
0001
,
0100
0000
0100
0001
0100
0000
0100
0001
,
0010
0010
0000
0100
0010
0100
0000
0020
,
0000
0000
0000
0000
,
0030
0000
0000
0000
;

//--------------- dance-single - Jenro Jupitel (2024) ----------------
#NOTES:
     dance-single:
     Jenro Jupitel (2024):
     Hard:
     12:
     0,0,0,0,0:
0000
0000
0000
0000
,
0000
0000
0000
0000
,
0000
0000
0000
0000
,
0000
0000
0000
0000
,
0000
0000
0000
0000
,
1000
0001
0001
1000
0001
0010
0002
0000
,
0103
0000
0100
0010
2000
0000
3100
0010
,
0002
0000
1003
0100
0002
0000
0103
0001
,
0200
0310
2020
3030
,
0100
0001
0100
0100
0001
0010
0100
0100
,
1000
0000
0010
0100
0020
0000
0130
0001
,
0020
0000
0130
1000
0001
1000
1000
0001
,
0100
0010
1000
0001
0010
0010
0010
0000
,
0001
0010
0100
1000
0001
1000
0001
0001
,
0100
0010
1000
0001
1000
0001
0100
0010
,
0200
0000
0301
0010
0200
0000
1300
0010
,
0200
0000
0301
1000
1001
0000
0010
0001
,
0011
0000
0100
1000
1001
0000
0010
1000
,
1010
1000
0000
0002
0000
1003
0000
0000
,
0110
0000
0000
1000
0001
0000
0100
0000
0010
0000
1000
0000
1000
0001
0100
0001
,
0100
0000
0010
0000
0000
2000
0000
3001
,
0010
0100
0010
0001
0010
0100
1000
1000
,
0010
0100
0001
1000
1000
0001
0010
0010
,
0001
0100
0100
0010
0100
0001
1000
0100
,
0001
0100
2000
3001
0000
0100
0010
1000
,
0010
0010
0100
0001
0010
0010
0100
1000
,
0001
0001
0100
0001
1000
1000
0010
0100
,
0002
0000
0013
0000
0200
1300
0000
0010
,
0100
0001
1000
0002
0013
0000
1100
0000
,
0010
0001
0010
0001
1000
0100
1000
0100
,
0010
0001
1000
0010
0100
0100
0001
1000
,
1000
0010
0100
0001
0001
0010
0100
1000
,
1000
0001
1000
0002
0000
0000
1003
0000
,
0120
0000
0031
0000
0201
0000
0310
1000
,
2020
3030
0101
0000
,
1000
1000
1000
1000
1000
1000
1000
1000
,
1000
1000
1000
1000
1000
0100
1000
0100
,
1000
0001
0001
1000
0001
0010
0001
0100
,
0010
0100
0000
0010
2000
0000
3100
0010
,
0002
0000
1003
1000
0001
0000
0100
0001
,
0200
0000
0310
1000
0001
1000
0001
0100
,
0100
0001
0100
0100
0001
0010
0100
0100
,
1000
0000
0010
0100
0020
0000
0130
0001
,
0020
0000
0130
1000
0001
1000
1000
0001
,
0100
0010
1000
0001
0010
0010
0001
0010
,
0001
0010
0100
1000
0001
1000
0001
0001
,
0100
0010
1000
0001
1000
0001
0100
0010
,
0100
0001
0001
0010
0100
1000
1000
0010
,
0100
0001
0001
1000
0001
1000
0001
0010
,
0011
0000
0100
1000
1001
0000
0010
1000
,
1010
1010
0000
0001
0100
1000
0000
0000
,
0110
0000
0000
1000
0001
0000
0100
0000
0010
0000
1000
0000
1000
0001
0100
0001
,
0100
0000
0000
0000
;
