#TITLE:Ang Bayan Kong Sinilangan;
#SUBTITLE:;
#ARTIST:Asin;
#TITLETRANSLIT:;
#SUBTITLETRANSLIT:;
#ARTISTTRANSLIT:;
#GENRE:;
#CREDIT:;
#MUSIC:Ang Bayan Kong Sinilangan.ogg;
#BANNER:Ang Bayan Kong Sinilangan-bn.png;
#BACKGROUND:Ang Bayan Kong Sinilangan-bg.png;
#CDTITLE:cdtitle.png;
#SAMPLESTART:47.085;
#SAMPLELENGTH:14.838;
#SELECTABLE:YES;
#OFFSET:-0.084;
#BPMS:0.000=141.399
,2.000=130.469
,4.000=132.767
,6.000=139.425
,9.875=145.561
,14.000=141.308
,18.000=137.000
,20.000=143.937
,22.000=146.463
,26.000=142.000
,30.000=144.923
,34.000=142.572
,38.000=146.164
,42.000=152.393
,46.000=147.664
,50.000=143.875
,54.000=142.220
,58.000=146.220
,66.000=144.747
,78.000=150.341
,82.000=142.381
,84.000=145.649
,90.000=144.401
,98.000=144.836
,112.000=151.836
,113.000=144.566
,122.000=148.061
,126.000=145.000
,130.000=144.820
,134.000=147.213
,138.000=144.652
,142.000=145.849
,150.000=146.000
,154.000=144.820
,157.000=145.337
,162.000=147.937
,166.000=141.052
,168.000=148.260
,170.000=143.890
,174.000=149.856
,178.000=143.740
,182.000=145.641
,190.000=144.566
,190.750=147.566
,194.000=144.464
,198.000=147.863
,202.000=142.511
,206.000=147.401
,210.000=145.000
,214.000=148.327
,218.000=147.000
,222.000=143.539
,226.000=148.635
,230.000=145.689
,234.000=146.804
,238.000=142.082
,242.000=148.393
,246.000=143.393
,250.000=145.882
,278.000=142.595
,282.000=148.402
,286.000=144.102
,290.000=147.204
,294.000=115.455
,299.000=109.581
,301.000=93.581
,304.000=60.581
,305.000=48.581
,306.000=85.581
,307.000=74.581
,308.000=43.581
;
#STOPS:;
#BGCHANGES:;
#FGCHANGES:;

//--------------- dance-single - Jenro Jupitel (2024) ----------------
#NOTES:
     dance-single:
     Jenro Jupitel (2024):
     Beginner:
     2:
     0,0,0,0,0:
0000
0000
0000
0000
,
0000
0000
0000
0000
,
0000
0000
0000
0000
,
0000
0000
0000
0000
,
0000
0000
0001
0000
,
0000
0000
0100
0000
,
0000
0000
0010
0000
,
0000
0000
1000
0000
,
0000
0000
0010
0000
,
0000
0000
0001
0000
,
0000
0000
1000
0000
,
0100
0000
0001
0000
,
0010
0000
1000
0000
,
0100
0000
0100
0000
,
1000
0000
0010
0000
,
0010
0000
0001
0000
,
1000
0000
0100
0000
,
0001
0000
0010
0000
,
0001
0000
1000
0000
,
0010
0000
1000
0000
,
0001
0000
0100
0000
,
0001
0000
1000
0000
,
0100
0000
0010
0000
,
0010
0000
0100
0000
,
0100
0000
0001
0000
,
1000
0000
0001
0000
,
0010
0000
0001
0000
,
1000
0000
0100
0000
,
0010
0000
1000
0000
,
0001
0000
0100
0000
,
0010
0000
0100
0000
,
0001
0000
1000
0000
,
0010
0000
0010
0000
,
0001
0000
0010
0000
,
1000
0000
0100
0000
,
0001
0000
0100
0000
,
0001
0000
0010
0000
,
0010
0000
0001
0000
,
0001
0000
1000
0000
,
1000
0000
0100
0000
,
0001
0000
0010
0000
,
0100
0000
0001
0000
,
1000
0000
0100
0000
,
1000
0000
1000
0000
,
0010
0000
1000
0000
,
0001
0000
0100
0000
,
0001
0000
0010
0000
,
1000
0000
0001
0000
,
0100
0000
0001
0000
,
1000
0000
0100
0000
,
0010
0000
0001
0000
,
0001
0000
1000
0000
,
1000
0000
0100
0000
,
0001
0000
0010
0000
,
0100
0000
0010
0000
,
0010
0000
0001
0000
,
1000
0000
0100
0000
,
0100
0000
0010
0000
,
0001
0000
1000
0000
,
1000
0000
0100
0000
,
0100
0000
0001
0000
,
0001
0000
1000
0000
,
1000
0000
0001
0000
,
0010
0000
0010
0000
,
0001
0000
0100
0000
,
0001
0000
1000
0000
,
0100
0000
0010
0000
,
0010
0000
1000
0000
,
1000
0000
0001
0000
,
0100
0000
0001
0000
,
0010
0000
1000
0000
,
0100
0000
1000
0000
,
0010
0000
1000
0000
,
0001
0000
1000
0000
,
0000
0001
0000
0010
,
0000
0100
0000
0000
,
0000
0001
0000
0000
,
0000
1000
0000
0000
;

//--------------- dance-single - Jenro Jupitel (2024) ----------------
#NOTES:
     dance-single:
     Jenro Jupitel (2024):
     Easy:
     3:
     0,0,0,0,0:
0000
0000
0000
0000
,
0000
0000
0000
0000
,
0000
0000
0000
0000
,
0000
0000
0000
0000
,
0000
0000
1000
0000
,
0100
0000
1000
0000
,
0010
0000
0010
0000
,
0001
0000
1000
0000
,
0100
0000
0001
0000
,
0001
0000
0100
0000
,
1000
0000
1000
0000
,
0010
0000
0001
0000
,
1000
0000
0001
0000
,
0001
0000
0100
0000
,
0010
0000
1000
0000
,
1000
0000
0100
0000
,
0010
0000
0001
0000
,
1000
0000
0100
0000
,
0100
0000
1000
0000
,
0001
0000
0100
0000
,
0100
0000
0010
1000
,
0010
0000
0001
0010
,
0001
0000
1000
0001
,
0100
0000
0010
1000
,
0100
0000
0100
0001
,
0100
0000
0100
1000
,
0100
0000
0010
0000
,
0100
0000
1001
0000
,
0100
0000
0010
0001
,
1000
0000
0100
1000
,
0001
0000
1000
0010
,
0100
0000
0001
0100
,
0001
0000
0010
1000
,
0010
0000
0100
0010
,
0100
0000
0001
0000
,
1000
0000
0001
0000
,
0100
0000
0010
0000
,
0010
0000
0010
1000
,
0010
0000
0100
0001
,
0100
0000
1000
0000
,
0001
0000
0010
0000
,
0010
0000
0010
0000
,
0001
0000
0100
0000
,
0100
0000
0100
0000
,
1000
0000
0001
1000
,
0001
0000
1000
0010
,
0001
0000
0001
1000
,
0001
0000
0001
0100
,
1000
0000
0010
0000
,
0100
0000
0110
0000
,
0100
0000
0010
0001
,
1000
0000
0100
1000
,
0001
0000
0100
0100
,
0010
0000
1000
0001
,
1000
0000
0001
1000
,
0001
0000
0010
0001
,
0100
0000
0010
1000
,
0100
0000
0010
0010
,
0010
0000
0010
0001
,
1000
0000
0100
1000
,
0001
0000
0100
0010
,
1000
0000
0100
0010
,
0001
0000
1000
0001
,
0100
0000
0001
1000
,
0100
0000
0010
0000
,
0010
0000
0110
0000
,
0100
0000
0100
0100
,
0001
0000
0001
0001
,
1000
0000
1000
0010
,
1000
0000
0001
0010
,
0001
0000
1000
0001
,
0100
0010
1000
0001
,
0010
0001
0100
1000
,
0100
0010
0001
0000
,
0000
1000
0000
0001
,
0000
0100
0000
0000
,
0010
1000
0100
0001
,
1000
0100
0000
0000
;

//--------------- dance-single - Jenro Jupitel (2024) ----------------
#NOTES:
     dance-single:
     Jenro Jupitel (2024):
     Medium:
     6:
     0,0,0,0,0:
0000
0000
0000
0000
,
0000
0000
0000
0000
,
0000
0000
0000
0000
,
0000
0000
0000
0000
,
0000
0000
1000
0001
,
0100
0010
0100
0001
,
1000
0100
0010
0100
,
0001
0100
0001
1000
,
0100
1000
0010
0001
,
0100
0001
0010
1000
,
0100
1000
0010
0001
,
0100
0010
1000
0001
,
1001
0000
0100
0001
,
0101
0000
0010
1000
,
1010
0000
0010
0100
,
0110
0000
0100
0001
,
1001
1000
1100
0100
,
0010
0010
0001
1000
,
0100
0010
0010
0001
,
0100
0100
1000
0000
,
1001
0000
0100
0001
,
0100
0000
0010
1000
,
0010
0000
0100
0010
,
0100
0000
0010
0100
,
0010
0000
1000
1000
,
0001
0100
0100
0010
,
1000
1000
0001
0010
,
0100
1000
0100
1000
,
0001
0001
0001
0000
,
0101
0100
0010
0000
,
1010
1000
0100
0000
,
0110
0010
0001
0000
,
1001
1000
1001
0000
,
1001
0001
1001
0000
,
0100
0000
0010
0110
,
0100
0000
0010
0001
,
0100
0000
0010
1000
,
0001
0100
0010
0010
,
0001
0001
1000
0100
,
0010
0100
0100
1000
,
0001
0100
0010
0010
,
0001
1000
0001
0001
,
0100
0100
0001
0010
,
1000
0100
0010
0010
,
0001
1000
0001
0100
,
0010
0100
1000
0100
,
0010
0100
0001
1000
,
0010
0100
0001
0010
,
0001
1000
0100
0010
,
0001
1000
0010
0100
,
0001
0000
1000
1000
,
0001
1000
1000
0001
,
0100
0010
0010
0100
,
0110
0100
0001
1000
,
1001
0000
0100
0100
,
1000
1100
1000
0010
,
0110
0100
0001
0001
,
0001
0001
0010
0010
,
0010
0010
0100
1000
,
0100
1000
0010
1000
,
0010
1000
0001
0100
,
0001
0100
1000
0001
,
1000
0001
1000
0010
,
1000
0010
0001
0010
,
0001
0010
0100
0010
,
0100
0001
2000
0000
,
3001
0000
0010
0001
,
0100
0100
0010
1000
,
0100
0100
0010
0001
,
0010
0001
1000
0100
,
1000
0100
1000
0010
,
1000
0010
0100
0001
,
0100
0001
1000
0001
,
0010
0100
2000
0000
,
0000
3001
0000
0010
,
0000
0100
0000
0000
,
1000
0001
0001
0001
,
0100
0010
0000
0000
;

//--------------- dance-single - Jenro Jupitel (2024) ----------------
#NOTES:
     dance-single:
     Jenro Jupitel (2024):
     Hard:
     10:
     0,0,0,0,0:
0000
0000
0000
0000
,
0000
0000
0000
0000
,
0000
0000
0000
0000
,
0000
0000
0000
0000
,
0000
0000
0001
0010
,
0100
0000
1000
0100
1000
0000
0002
0000
,
0103
0000
0002
0000
0013
0000
0100
1000
,
0100
0000
1000
0010
1000
0000
0001
0100
,
0001
0000
0010
0100
1000
0000
0001
0000
,
1001
0000
0100
0010
1000
0000
0001
0000
,
1001
0000
0010
0001
0010
0000
0100
0000
,
1100
0000
0010
1000
0010
0000
0100
0000
,
0102
1003
0200
0320
,
0032
0010
2003
3100
,
0002
0103
2000
0010
,
0001
3100
0020
0100
,
1000
0000
0031
0000
1000
0000
0100
1000
,
0100
1000
0100
1000
0000
0001
0100
0001
,
0000
1000
0010
0000
0110
0000
0001
0010
,
0000
0100
1000
0100
0001
0000
1000
0000
,
0001
0001
1001
0000
1000
0000
0100
0000
,
0010
0000
0001
0010
0001
0000
2000
0000
,
3010
0000
2000
0000
3100
0000
0010
0001
,
0010
0000
0001
0100
0001
0000
1000
0010
,
1000
0000
0100
0010
0001
0000
1000
0000
,
1001
0000
0010
0100
0001
0000
1000
0000
,
1001
0000
0100
1000
0100
0000
0010
0000
,
0011
0000
0100
0001
0100
0000
0010
0000
,
2010
3001
0020
0230
,
2300
0100
3002
0013
,
2000
3010
0002
0100
,
1000
0013
0200
0010
,
0001
0000
1300
0000
0001
0000
0010
0001
,
0010
0001
0010
0001
1000
0010
1000
0000
,
0001
0100
0100
0000
0110
0000
1000
0100
,
0000
0010
0001
0010
1000
0000
0001
0000
,
1000
1000
1001
0000
0100
0000
0010
0100
,
0000
0000
0010
0000
0100
0000
0010
0000
1000
0000
0000
0001
1000
0000
0100
0000
,
0000
0100
0010
0000
0001
0000
0001
0000
1000
0000
0000
0100
0000
0000
1000
0000
,
0010
0100
0001
0100
0010
0010
1000
0010
,
0010
0100
0010
0010
1000
0000
0001
0000
,
0100
0000
0001
1000
0100
0000
0020
0000
,
0031
0000
0001
1000
0001
0000
2000
0000
,
3100
0000
1000
0010
1000
0000
0002
0000
,
0103
0010
0100
0001
,
1000
0100
0010
0001
,
1000
0010
0100
0001
,
1000
0100
0200
0000
,
0310
0001
1100
0001
,
0101
0000
0010
1000
0010
0000
0001
0010
,
0100
0000
0002
0000
0103
0000
0001
1000
,
0100
0000
1000
0010
1000
0000
0001
0100
,
0001
0010
0200
0310
,
0002
0013
0200
0310
,
2000
3001
0200
0310
,
0002
1003
0200
0310
,
0020
0000
0130
0000
1000
0000
0100
0010
,
0001
0100
0100
0001
0010
0000
1010
0000
,
0010
0000
0110
0000
0001
1000
0001
0100
,
0001
0000
1000
0100
1000
0000
0010
0100
,
0001
0000
0010
0010
0100
1000
0010
0010
,
0100
0001
1000
1000
0001
1000
0100
1000
,
0001
0010
0100
0000
0010
0001
0010
0001
,
1000
0100
1000
0100
1000
0010
0100
0010
,
0010
0010
0100
0001
1000
0001
1000
0100
,
0010
0001
1000
0100
0010
0001
0100
0010
,
0100
0001
1000
0000
0100
1000
0100
1000
,
0010
0100
0010
0100
0001
0010
0001
0100
,
0001
1000
0100
0010
0100
1000
0001
0100
,
0001
1000
0001
0100
0010
0100
0001
1000
,
0100
0010
0100
1000
0001
0100
0010
0100
,
0001
1000
0100
0010
0100
1000
0001
0100
,
0010
0100
0001
1000
0100
0010
0100
0010
,
0100
0010
0001
0100
0001
0000
0000
0000
,
0000
1000
0000
0100
,
0000
1000
0000
0000
,
0010
0000
1000
1000
0100
0000
0010
0000
,
0001
1001
0000
0000
;
