#TITLE:Alab;
#SUBTITLE: ;
#ARTIST:SB19;
#TITLETRANSLIT:;
#SUBTITLETRANSLIT:;
#ARTISTTRANSLIT:;
#GENRE:;
#CREDIT:Jenro Jupitel;
#MUSIC:Alab.ogg;
#BANNER:Alab-bn.png;
#BACKGROUND:Alab-bg.png;
#CDTITLE:;
#SAMPLESTART:41.361;
#SAMPLELENGTH:16.503;
#SELECTABLE:YES;
#OFFSET:-0.353;
#BPMS:0.000=119.978;
#STOPS:;
#BGCHANGES:;
#FGCHANGES:;

//--------------- dance-single - Jenro Jupitel (2020) ----------------
#NOTES:
     dance-single:
     Jenro Jupitel (2020):
     Beginner:
     1:
     0,0,0,0,0:
0000
0000
0000
0000
,
0000
0000
0000
0000
,
0000
0000
0000
0000
,
0000
0000
0000
0000
,
0000
0000
0000
0100
,
0000
0000
0000
0000
,
0000
0010
0001
0100
,
0000
0000
0000
0000
,
0010
1000
0000
0100
,
0000
0000
0000
0001
,
0000
0000
0000
1000
,
0000
0001
0000
0010
,
0000
0100
0100
0100
,
0000
1000
0000
0100
,
0000
0001
0000
0010
,
0000
1000
0000
0010
,
0000
0001
0000
1000
,
0000
0000
0000
0001
,
0000
0000
0000
1000
,
0000
0000
0000
0001
,
0000
1001
0000
0010
,
0000
0000
0000
0100
,
0000
0100
0000
1001
,
0000
0000
0000
0010
,
0000
0010
0000
1000
,
1000
1000
0000
0001
,
0001
0001
0000
0010
,
0000
0010
0000
1001
,
0000
0100
0000
2000
,
0000
3000
0000
0002
,
0000
0003
0000
0200
,
0000
0300
0000
0010
,
0000
0010
0000
2000
,
0000
3000
0000
0002
,
0000
0003
0000
0200
,
0000
0300
0000
0010
,
0010
0010
0000
0000
,
0000
0000
0000
0000
,
0000
0010
0000
0000
,
0000
0100
0000
0100
,
0000
1001
0000
0000
,
0000
0010
0000
0010
,
0000
1000
1000
1000
,
0000
0001
0001
0001
,
0000
0010
0000
0010
,
0000
0010
0000
0100
,
0000
1000
0000
0100
,
0000
0001
0000
0100
,
0000
1000
0000
0010
,
0000
0001
0000
0010
,
0000
1000
0000
0100
,
0000
0001
0000
0100
,
0000
0010
0000
0010
,
0000
1001
0000
0010
;

//--------------- dance-single - Jenro Jupitel (2020) ----------------
#NOTES:
     dance-single:
     Jenro Jupitel (2020):
     Easy:
     3:
     0,0,0,0,0:
0000
0000
0000
0000
,
0000
0000
0000
0000
,
0000
0000
0000
0000
,
0000
0000
0000
0000
,
0000
0000
0000
0010
,
0000
0001
0010
1001
,
0000
0100
0100
1000
,
0001
1000
0001
0100
,
0010
1000
0100
0001
,
1000
0010
0000
1000
,
0001
0100
0000
0010
,
0000
0010
0000
0100
,
0100
0100
1000
0002
,
0000
0013
0000
0100
,
1000
1100
0000
2000
,
0000
3010
0000
0001
,
0100
0001
0100
1000
,
1000
1000
1010
0001
,
0001
0001
0011
1000
,
1001
0001
1001
0010
,
0100
0010
0000
1000
,
0100
1000
0001
0010
,
0010
0010
0010
0001
,
0100
0001
1000
0010
,
0010
0010
0010
0100
,
0001
1000
1000
1000
,
0100
0001
0001
0010
,
1001
0100
1001
1000
,
0001
0100
0000
0010
,
1001
0000
0000
0100
,
0000
0000
0000
1000
,
0000
0000
0000
0001
,
0000
0010
0000
1000
,
1000
1000
0000
0001
,
0001
0001
0000
0100
,
0010
1000
0001
0100
,
1010
0001
0100
0010
,
0000
0000
0000
0000
,
0000
1000
1000
1000
,
0001
0011
1100
1001
,
0100
0010
0010
0010
,
0010
1010
0101
1001
,
0100
0010
0001
0100
,
0000
0010
1000
0100
,
0000
1000
0001
1000
,
0001
0100
0100
0100
,
0100
0010
0000
0010
,
0000
0100
0100
1000
,
1000
0010
0000
0100
,
0100
0001
0001
0010
,
1001
0100
0100
1000
,
1000
0010
0010
0001
,
0001
0010
0000
0010
,
0000
0100
0001
1000
,
0100
0001
0000
0000
;

//--------------- dance-single - Jenro Jupitel (2020) ----------------
#NOTES:
     dance-single:
     Jenro Jupitel (2020):
     Medium:
     6:
     0,0,0,0,0:
0000
0000
0000
0000
,
0000
0000
0000
0000
,
0000
0000
0000
0000
,
0000
0000
0000
0000
,
0000
0000
0000
0100
,
0100
0100
0100
0101
,
1100
0002
1003
0010
,
0010
0010
0010
1010
,
0011
2000
3001
0002
,
0203
0320
1030
0002
,
0203
2300
3200
0310
,
0001
1000
0001
0100
,
0100
0100
0100
0002
,
0000
1003
0000
2000
,
0000
3010
0000
0020
,
0000
0130
0000
0200
,
0000
0301
0000
1001
,
0000
0100
0000
1001
,
0000
0010
0000
0100
,
0100
0100
0100
0101
,
1100
1001
0000
2000
,
0010
0001
3010
0011
,
1000
0101
0001
0002
,
0100
1000
0103
1100
,
0001
1010
1000
0200
,
0000
1300
1001
0002
,
0000
0103
1001
2001
,
3100
1002
0103
0220
,
0000
0000
0000
0000
0000
0000
0000
0000
0330
0000
0000
0000
0001
0000
0000
1000
,
0000
0000
0100
0000
0000
0000
0000
0000
0000
0000
0000
0000
1000
0000
0000
0001
,
0000
0000
0010
0000
0000
0000
0000
0000
0000
0000
0000
0000
0100
0000
0000
1000
,
0000
0001
0000
0000
0000
0000
0010
0010
,
0100
0100
0000
1001
0000
0000
0002
0000
,
0000
1000
0103
2000
,
0000
0001
3100
0100
,
0100
0000
0100
0000
0100
0000
0001
0100
,
0001
1000
0100
0000
0010
0200
0000
0000
,
0000
0000
0000
0300
,
0000
2000
0010
0001
,
3010
0011
1000
0101
,
0001
0002
0100
1000
,
0103
1100
0001
1010
,
0000
0000
0100
0010
0100
0000
1000
0000
,
0100
0000
0100
0010
0100
0000
0001
0000
,
0100
2001
3100
1002
,
0103
0000
0000
0000
0110
0000
0000
0110
0000
0000
0220
0000
0000
0000
0000
0000
,
0330
2000
0000
3001
,
0101
0002
0000
1003
,
1100
0020
0000
0130
,
1001
0100
1001
0010
,
1001
0002
0000
1003
,
1010
2000
0000
3001
,
0011
2001
3100
1002
,
0103
0220
0000
0000
,
0330
0000
0000
0000
;

//--------------- dance-single - Jenro Jupitel (2021) ----------------
#NOTES:
     dance-single:
     Jenro Jupitel (2021):
     Hard:
     11:
     0,0,0,0,0:
0000
0000
0000
0000
,
0000
0000
0000
0000
,
0000
0000
0000
0000
,
0000
0000
0000
0000
,
0000
0000
0000
0001
,
0100
0001
0100
0101
,
0110
0000
0001
0100
0110
0000
1000
0000
,
0100
1000
0100
1100
,
0110
0000
1000
0100
0110
0000
1000
0001
,
1000
0100
2000
0000
3001
0000
0001
1000
,
0001
0100
0001
1000
1001
0000
0110
0001
,
0110
0000
1000
0100
0110
0100
2000
0000
,
3001
0002
1003
0020
,
0000
0000
0130
0000
0101
0000
0000
0000
0000
0000
0000
0000
1000
0000
0000
0001
,
0000
0000
1000
0000
0100
1000
0000
0000
0000
0000
0000
0000
0200
0000
0000
0000
,
0000
0000
0310
0000
1100
0000
0000
0000
0000
0000
0000
0000
0001
0000
0000
1000
,
0000
0001
0000
0000
0100
0000
0001
0000
0011
0000
0000
0000
0010
0000
0100
0000
,
1000
0000
0100
1000
0000
0000
0000
0000
0000
0000
0000
0000
0100
0000
1000
0000
,
0010
0000
0100
0001
0000
0000
0000
0000
0000
0000
0000
0000
1001
0000
0000
0000
,
0011
0000
1001
0000
1010
0000
0001
0010
,
1000
0010
1001
0000
0000
0000
1000
0100
,
0010
0000
0100
0000
1000
0000
0100
0000
0010
0000
0001
0000
1000
0000
0000
0001
,
0000
1000
0001
0100
0110
0000
0001
0100
,
0010
0100
0001
0100
0010
1000
0001
1000
,
0001
1000
0000
0001
0000
0000
0100
0000
0010
0000
0010
0000
1000
0000
0001
0000
,
0100
0010
1000
0001
0101
0000
0001
1000
,
0100
0000
0010
0000
0001
0000
1000
0000
1100
0000
0000
0000
0001
0000
0000
1001
,
0000
0000
1100
0000
1000
0000
0000
1001
0000
0000
0101
0000
0100
0010
0100
0010
,
0100
0010
0100
0010
0100
0010
0100
0010
0200
0000
0000
0000
0301
0000
0000
0010
,
0000
0000
1000
0000
0002
0000
0000
0000
1003
0000
0000
0000
1000
0000
0000
0010
,
0000
0000
0001
0000
2000
0000
0000
0000
3001
0000
0000
0000
0100
0000
0000
0010
,
0000
1000
0001
1000
0100
1000
0110
0011
,
0110
0000
0000
1001
0000
0000
0000
0000
0000
1100
0000
0000
0000
0000
0000
0000
0000
0000
0001
0000
0010
0000
0100
0000
,
1000
0100
1000
0010
0000
0000
0101
0000
0000
1000
0010
0100
,
0001
0000
0000
0000
0100
0000
0000
0000
0001
0000
0000
0000
0010
0000
0000
0000
0000
0000
0000
0000
0000
0000
0000
0000
1100
0000
0000
0000
0000
0000
0000
0000
0000
0000
0000
0000
0001
0000
0000
0000
0000
0000
0000
0000
0000
1000
0000
0000
,
0001
0000
0000
1000
0001
0000
0000
1000
0001
0000
0000
0100
0010
0000
1000
0000
,
0001
0100
0010
0000
1000
2002
0000
0000
,
0000
0000
0000
0000
,
3003
0000
1000
0010
0100
0010
1000
0010
,
0100
0000
0001
0000
1000
0000
0000
0001
0000
0000
1000
0000
0001
0010
0100
0000
,
0110
0000
0001
0010
0100
0010
0001
0010
,
0100
0000
1000
0000
0001
0000
1000
0000
0001
1000
0000
0001
0000
0000
0010
0000
,
0100
0000
0100
0000
1000
0000
0000
0000
0100
0000
0000
1100
0000
0000
0001
0000
,
0001
0000
0000
0000
0001
0000
0000
0000
0010
0000
0000
0011
0000
0000
1000
0000
,
1000
0000
0000
0000
0001
0000
0000
1001
0000
0000
1010
0000
1000
0000
0000
1001
,
0000
0000
0011
0000
0010
0100
0010
0100
0010
0100
0010
0100
0010
0100
0010
0100
,
0020
0000
0000
0000
0031
0000
0000
0001
1000
0000
0100
0000
1000
0000
0010
0000
,
0100
0000
0000
0000
1000
0000
0000
1000
0001
0000
0100
0000
0001
0000
0010
0000
,
0100
0000
0000
0000
1000
0000
0000
1000
0001
0000
0010
0000
0001
0000
0100
0000
,
0010
0000
0000
0000
1001
0000
0000
0001
0000
1000
0000
0000
1000
0000
0010
0000
,
0100
0000
0001
0000
0001
0000
0000
0001
1000
0000
0100
0000
1000
0000
0010
0000
,
0100
0000
0000
0000
1000
0000
0000
1000
0001
0000
0100
0000
0001
0000
0010
0000
,
0100
0000
0000
0000
0001
0000
0000
1001
0000
0000
1010
0000
1000
0000
0000
1001
,
0000
0101
0001
0100
1000
0100
0001
0100
,
1000
0200
0000
0000
0000
0000
0000
0000
,
0000
0300
0000
0000
;

//--------------- dance-double - Jenro Jupitel (2021) ----------------
#NOTES:
     dance-double:
     Jenro Jupitel (2021):
     Challenge:
     9:
     0,0,0,0,0:
00000000
00000000
00000000
00000000
,
00000000
00000000
00000000
00000000
,
00000000
00000000
00000000
00000000
,
00000000
00000000
00000000
00000000
,
00000000
00000000
00000000
00010000
,
00000010
00000010
00001000
00010000
,
00001000
00001000
00100000
00010000
,
01000000
10000000
01000000
20000000
,
30000000
01010000
00110000
00001000
,
00010000
00000100
00000010
00000100
,
00000100
00000000
00000001
00000000
00000002
00000000
00000013
00000010
,
00000010
00000100
00001001
00010000
,
00001000
00200000
00320000
00032000
,
00003000
00000000
00011000
00000000
00000000
00000000
00100000
00010000
,
00100000
00010000
10000000
10000000
01010000
00000000
00002000
00000000
,
00000000
00000000
00013000
00000000
00000000
00000000
00000010
00001000
,
00000010
00001000
00000001
00000001
00001100
00000000
00010000
00001000
,
00100000
00000000
00001000
00000000
00010000
00000000
00001000
00010000
,
00000010
00010000
00001000
00011000
,
00011000
00000000
00001100
00000000
00001100
00000000
00000001
00000001
,
00000010
00000010
00001001
00000000
00000110
00000000
00000001
00000010
,
00000001
00000010
00000100
00001000
00000100
00000010
00000100
00001000
,
00000100
00000100
00001000
00001000
00011000
00000000
00010000
00100000
,
00010000
00100000
01000000
10000000
01000000
00100000
01000000
10000000
,
01000000
01000000
00010000
00010000
00011000
00000000
00110000
00000000
,
10000000
01000000
10000000
01000000
00010000
00000000
00011000
00000000
,
00001000
00000100
00000001
00000100
00000001
00000000
00001000
00010000
,
00010100
00000000
00001000
00010000
01001000
00000000
00100000
00100000
,
00100000
00100000
00100000
00100000
10010000
00000000
10000000
00010000
,
10000000
01000000
00020000
00000000
00030000
00000000
00100000
10000000
,
00010000
10000000
02000000
00000000
03000000
00000000
00100000
00010000
,
00100000
00010000
00001000
00001000
00010000
00010000
00012000
00000000
,
00003000
00000000
00000000
00010000
00000000
00000000
00000000
00000000
00000000
00001000
00000000
00000000
00000000
00000000
00000000
00000000
00000000
00000000
00010000
00000000
00001000
00000000
01000000
00000000
,
00001000
01000000
00010000
00100000
00000000
00000000
01010000
00000000
00000000
10000000
00100000
01000000
,
00010000
00000000
01000000
00000000
00010000
00000000
00100000
00000000
00000000
00000000
00000000
00000000
00011000
00000000
00000000
00000000
00000000
00000000
00001000
00000000
00000000
00000100
00000000
00000000
,
00001000
00000100
00010000
00001000
00010000
00001000
00010000
00100000
,
00010000
00100000
00010000
00100000
01000000
20020000
00000000
00000000
,
00000000
00000000
00000000
00000000
00000000
00000000
00000000
30030000
,
00000000
00000000
10000000
01000000
10000000
01000000
00100000
00010000
,
00100000
01000000
00100000
00010000
00100000
00100000
00010000
00010000
,
00011000
00000000
00001000
00000100
00001000
00000100
00000010
00000001
,
00000010
00000100
00000010
00000001
00000010
00000010
00001000
00001000
,
00011000
00000000
00001100
00000000
00000001
00000010
00000001
00000010
,
00001000
00000000
00011000
00000000
00010000
00100000
10000000
00100000
,
10000000
00000000
00010000
00001000
00101000
00000000
00010000
00001000
,
00010010
00000000
00000100
00000100
00000100
00000100
00000100
00000100
,
00001001
00000000
00000010
00000001
00000010
00000000
00000001
00000100
,
00001000
00000000
00001000
00100000
00001000
00000000
00010000
01000000
,
10000000
00000000
10000000
00100000
10000000
00000000
10000000
01000000
,
00010000
00000000
00010000
00001000
00000010
00000000
00001000
00000100
,
00000001
00000000
00000100
00000001
00000100
00000000
00000001
00000010
,
00001000
00000000
00001000
01000000
00001000
00000000
00010000
00100000
,
10000000
00000000
10000000
01000000
10000000
00000000
10000000
00100000
,
00010000
00000000
00010000
00001000
00000100
00000000
00001000
00000010
,
00000002
00000003
00000000
00000000
;
