#TITLE:Ako Si M16;
#SUBTITLE:;
#ARTIST:Junior Kilat;
#TITLETRANSLIT:;
#SUBTITLETRANSLIT:;
#ARTISTTRANSLIT:;
#GENRE:;
#CREDIT:Jenro;
#MUSIC:Ako Si M16.ogg;
#BANNER:Ako Si M16-bn.png;
#BACKGROUND:Ako Si M16-bg.png;
#CDTITLE:;
#SAMPLESTART:20.938;
#SAMPLELENGTH:10.846;
#SELECTABLE:YES;
#OFFSET:-0.433;
#BPMS:0.000=181.000
,15.000=187.000
,16.000=181.000
,59.000=203.500
,60.000=181.000
,75.000=151.500
,76.000=181.000
,78.000=150.500
,79.000=176.872
,91.000=173.622
,92.000=181.000
,98.000=178.250
,99.000=181.000
,105.000=171.250
,106.000=179.572
,111.000=188.572
,112.000=174.700
,127.000=179.417
,128.000=178.591
,151.000=207.591
,152.000=180.258
,159.000=184.091
,160.000=181.382
,191.000=184.882
,192.000=179.341
,223.000=201.341
,224.000=183.089
,255.000=170.089
,256.000=179.183
,287.000=187.683
,288.000=181.681
,303.000=187.681
,304.000=184.262
,311.000=193.262
,312.000=163.798
,316.000=142.143
,319.000=97.143
,319.500=121.143
;
#STOPS:;
#BGCHANGES:;
#FGCHANGES:;

//--------------- dance-single - Jenro Jupitel (2020) ----------------
#NOTES:
     dance-single:
     Jenro Jupitel (2020):
     Beginner:
     4:
     0,0,0,0,0:
0000
0000
0000
0000
,
0000
0000
0000
0000
,
0000
0000
0000
0000
,
0000
0000
0000
0000
,
2000
0000
3000
0000
,
0000
0001
1000
0001
,
2000
0000
3000
0000
,
0000
0010
0200
0300
,
0002
0000
0003
0000
,
0000
0001
1000
0001
,
2000
0000
3000
0000
,
0000
0010
0200
0300
,
0002
0000
0000
0003
,
0000
0001
1000
0001
,
2000
0000
3000
0000
,
0002
0000
0003
0000
,
1000
0000
0001
0000
,
1000
0000
0001
0000
,
1000
1000
0001
0000
,
1000
0001
1000
0000
,
0001
0000
1000
0000
,
0001
0000
1000
0000
,
0001
0001
1000
0000
,
0001
1000
0001
0000
,
0001
0000
1000
0000
,
0001
0000
1000
0000
,
0001
0001
1000
0000
,
0001
1000
0001
0000
,
1000
0000
0001
0000
,
1000
0000
0001
0000
,
1000
1000
0001
0000
,
1000
0001
1000
0000
,
0010
0010
0010
0010
,
0010
0010
0010
0010
,
0010
0010
0010
0010
,
0010
0010
0010
0000
,
0100
0100
0100
0100
,
0100
0100
0100
0100
,
0100
0100
0100
0100
,
0100
0100
0100
0000
,
0001
0001
0001
0001
,
0001
0001
0001
0001
,
0001
0001
0001
0001
,
0001
0001
0001
0000
,
1000
1000
1000
1000
,
1000
1000
1000
1000
,
1000
1000
1000
1000
,
1000
0000
0000
0000
,
0001
0100
0010
1000
,
0000
0000
0000
0000
,
1000
0100
0010
0001
,
0000
1000
1000
0000
,
0001
0010
0100
1000
,
0000
0000
0000
0000
,
1000
0010
0100
0001
,
0000
1000
1000
0000
,
1000
0100
0010
0001
,
0000
0000
0000
0000
,
0001
0100
0010
1000
,
0000
0001
0001
0000
,
1000
0010
0100
0001
,
0000
0000
0000
0000
,
0001
0010
0100
1000
,
0000
0001
0001
0000
,
1000
0000
0001
0000
,
1000
0000
0001
0000
,
1000
1000
0001
0000
,
1000
0001
1000
0000
,
0001
0000
1000
0000
,
0001
0000
1000
0000
,
0001
0001
1000
0000
,
0001
1000
0001
0000
,
0001
0000
1000
0001
,
0001
0000
1000
0001
,
0001
0000
1000
0001
,
0001
0000
1000
0001
,
0001
0000
1000
0000
,
0001
0000
1000
0001
,
0001
0000
1000
0001
,
0001
0000
0000
0000
;

//--------------- dance-single - Jenro Jupitel (2020) ----------------
#NOTES:
     dance-single:
     Jenro Jupitel (2020):
     Easy:
     6:
     0,0,0,0,0:
0000
0000
0000
0000
,
0000
0000
0000
0000
,
0000
0000
0000
0000
,
0000
0000
0000
0000
,
2020
0000
3030
0000
,
0000
1000
0100
0001
,
2002
0000
3003
0000
,
0000
0110
0202
0303
,
0022
0000
0033
0000
,
0000
0001
0100
1000
,
2002
0000
3003
0000
,
0000
0110
2200
3300
,
0010
0100
0001
1000
,
0000
1000
0100
0001
,
2002
0000
3003
0000
,
0220
0000
0330
0000
,
1000
0100
0001
0100
,
1000
0100
0001
0100
,
1000
1000
0001
0001
,
1000
0001
1000
0000
,
0001
0010
1000
0010
,
0001
0010
1000
0010
,
0001
0001
1000
1000
,
0001
1000
0001
0000
,
0001
0100
1000
0100
,
0001
0100
1000
0100
,
0001
0001
1000
1000
,
0001
1000
0001
0000
,
1000
0010
0001
0010
,
1000
0010
0001
0010
,
1000
1000
0001
0001
,
1000
0001
1000
0000
,
0010
0010
0010
0010
,
0010
0010
0010
0010
,
0010
0010
0010
0010
,
0010
0010
0010
0000
,
0100
0100
0100
0100
,
0100
0100
0100
0100
,
0100
0100
0100
0100
,
0100
0100
0100
0000
,
0001
0001
0001
0001
,
0001
0001
0001
0001
,
0001
0001
0001
0001
,
0001
0001
0001
0000
,
1000
1000
1000
1000
,
1000
1000
1000
1000
,
1000
1000
1000
1000
,
1001
0000
0000
0000
,
0001
0100
0010
1000
,
0010
1000
0001
0100
,
1000
0100
0010
0001
,
1000
1010
1001
0000
,
0001
0010
0100
1000
,
0100
1000
0001
0010
,
1000
0010
0100
0001
,
1000
1100
1001
0000
,
1000
0100
0010
0001
,
0010
0001
1000
0100
,
0001
0100
0010
1000
,
0001
0011
1001
0000
,
1000
0010
0100
0001
,
0100
0001
1000
0010
,
0001
0010
0100
1000
,
0001
0101
1001
0000
,
1000
0100
0001
0100
,
1000
0100
0001
0100
,
1000
1000
0001
0001
,
1000
0001
1001
0000
,
0001
0010
1000
0010
,
0001
0010
1000
0010
,
0001
0001
1000
1000
,
0001
1000
1001
0000
,
0001
0100
1000
0001
,
0001
0100
1000
0001
,
0001
0100
1000
0001
,
0001
0100
1000
0001
,
0001
0100
1000
0000
,
0001
0100
1000
0001
,
0001
0100
1000
0001
,
0001
0100
1000
0000
;

//--------------- dance-single - Jenro Jupitel (2020) ----------------
#NOTES:
     dance-single:
     Jenro Jupitel (2020):
     Medium:
     10:
     0,0,0,0,0:
0000
0000
0000
0000
,
0000
0000
0000
0000
,
0000
0000
0000
0000
,
0000
0000
0000
0000
,
0001
0100
1000
0100
,
0000
0000
1000
0001
1000
0000
0100
0000
,
0001
0100
1000
0100
,
0001
1000
0101
0000
,
1000
0010
0001
0010
,
0000
0000
0001
1000
0001
0000
0010
0000
,
1000
0010
0001
0010
,
1000
0001
1010
0000
,
0001
0100
1000
0100
,
0000
0001
0010
0100
1000
0000
0100
0000
,
0011
0000
0000
0000
,
0011
0000
0000
0000
0000
1000
0001
0100
,
0001
0000
0100
0000
1000
0000
0001
0100
,
0001
0100
1000
0001
,
0110
1000
1001
0000
,
1001
0000
1000
0000
1000
0001
1000
0010
,
1000
0000
0010
0000
0001
0000
1000
0010
,
1000
0010
0001
1000
,
0110
0001
1001
0000
,
1001
0000
0001
0000
0001
1000
0001
0010
,
0001
0000
0010
0000
1000
0000
0001
0010
,
0001
0010
1000
0001
,
0110
1000
1001
0000
,
1001
0000
1000
0000
1000
0001
1000
0100
,
1000
0000
0100
0000
0001
0000
1000
0100
,
1000
0100
0001
1000
,
0110
0001
1001
0000
,
1001
0001
0001
0000
,
0010
0010
0010
0010
,
0010
0000
0010
0000
0010
0001
0010
0000
,
0010
0010
0010
0010
,
0010
0010
0110
0000
,
0100
0100
0100
0100
,
0100
0000
0100
0000
0100
1000
0100
0000
,
0100
0100
0100
0100
,
0100
0100
0110
0000
,
0001
0001
0001
0001
,
0001
0000
0001
0000
0001
0010
0001
0000
,
0001
0001
0001
0001
,
0001
0001
1001
0000
,
1000
1000
1000
1000
,
1000
0000
1000
0000
1000
0100
1000
0000
,
1000
1000
1000
1000
,
1001
0000
0000
0000
,
0001
0000
0100
0010
1000
0000
0100
0000
,
0000
0001
0100
0010
1000
0000
0100
0000
,
1000
0000
0100
0010
0001
0000
0100
0000
,
0010
1000
0010
0000
0101
0000
0000
0000
,
1000
0000
0010
0100
0001
0000
0010
0000
,
0000
1000
0010
0100
0001
0000
0010
0000
,
0001
0000
0010
0100
1000
0000
0010
0000
,
0100
0001
0100
0000
1010
0000
0000
0000
,
0001
0000
0010
0100
1000
0000
0010
0000
,
0000
0001
0010
0100
1000
0000
0010
0000
,
1000
0000
0010
0100
0001
0000
0010
0000
,
0100
1000
0100
0000
0011
0000
0000
0000
,
1000
0000
0010
0100
0001
0000
0010
0000
,
0000
1000
0010
0100
0001
0000
0010
0000
,
0001
0000
0010
0100
1000
0000
0010
0000
,
0100
0001
0100
0000
1010
1000
0001
0100
,
0001
0000
0100
0000
1000
0000
0001
0100
,
0001
0100
1000
0001
,
0110
1000
1001
0000
,
1001
0000
1000
0000
1000
0001
1000
0010
,
1000
0000
0010
0000
0001
0000
1000
0010
,
1000
0010
0001
1000
,
0110
0001
1001
0000
,
1001
0000
0001
0000
0001
1000
0001
0010
,
0001
0000
0010
0000
0001
1000
0001
0010
,
0001
0000
0010
0000
0001
1000
0001
0010
,
0001
0000
0010
0000
0001
1000
0001
0010
,
0001
0000
0010
0000
0001
1000
0001
0010
,
0001
0010
0001
0000
,
0001
0000
0010
0000
0001
1000
0001
0010
,
0001
0000
0010
0000
0001
1000
0001
0010
,
0001
0010
0001
0000
;

//--------------- dance-single - Jenro Jupitel (2020) ----------------
#NOTES:
     dance-single:
     Jenro Jupitel (2020):
     Hard:
     10:
     0,0,0,0,0:
0000
0000
0000
0000
,
0000
0000
0000
0000
,
0000
0000
0000
0000
,
0000
0000
0000
0000
,
1000
0000
0001
0100
0001
0000
1000
0000
,
0000
0010
0100
1000
0100
0000
1000
0000
,
0100
1000
0100
0001
,
0000
0201
1300
0000
,
0001
0000
1000
0100
1000
0000
0001
0000
,
0000
0010
0100
0001
0100
0000
0001
0000
,
0100
0001
0100
1000
,
0000
1200
0301
0000
,
0001
0000
1000
0010
1000
0000
0001
0000
,
0000
1000
0001
1000
0001
0000
0100
0000
,
0110
0000
0000
0000
,
1000
0000
0001
1000
0001
0000
1000
0000
0001
0000
0100
0000
0010
0000
1000
0000
,
1000
0000
0100
0000
0010
0000
0001
0010
,
0100
0000
0010
0000
0010
0001
1000
0100
,
0010
0010
0100
1000
,
0001
0100
0001
0100
0001
0000
1000
0000
,
0001
0000
0010
0000
0100
0000
1000
0100
,
0010
0000
0100
0000
0100
1000
0001
0010
,
0100
0100
0010
0001
,
1000
0010
1000
0010
1000
0000
0000
0000
,
0001
0000
0100
0000
0010
0000
1000
0010
,
0100
0000
0010
0000
0010
1000
0001
0100
,
0010
0010
0100
0001
,
1000
0100
1000
0100
1000
0000
0001
0000
,
1000
0000
0010
0000
0100
0000
0001
0100
,
0010
0000
0100
0000
0100
0001
1000
0010
,
0100
0100
0010
1000
,
0001
0010
0001
0010
0001
0000
0000
0000
,
1000
1000
1000
1000
1000
0000
1000
0000
,
1000
1000
1000
1000
1000
0000
1000
0000
,
1000
0000
1000
1000
1000
0000
1000
0000
,
1000
1000
1000
1000
1000
0000
0000
0000
,
0001
0001
0001
0001
0001
0000
0001
0000
,
0001
0001
0001
0001
0001
0000
0001
0000
,
0001
0000
0001
0001
0001
0000
0001
0000
,
0001
0001
0001
0001
0001
0000
0000
0000
,
0100
0100
0100
0100
0100
0000
0100
0000
,
0100
0100
0100
0100
0100
0000
0100
0000
,
0100
0000
0100
0100
0100
0000
0100
0000
,
0100
0100
0100
0100
0100
0000
0000
0000
,
0010
0010
0010
0010
0010
0000
0010
0000
,
0010
0010
0010
0010
0010
0000
0010
0000
,
0010
0010
0010
0010
0010
0010
0010
0010
,
0010
0000
0000
0000
,
1000
0000
0001
0100
0001
0000
1000
0000
,
0000
0010
0100
1000
0100
0000
1000
0000
,
0100
1000
0100
0001
,
0000
0201
1300
0000
,
0001
0000
1000
0100
1000
0000
0001
0000
,
0000
0010
0100
0001
0100
0000
0001
0000
,
0100
0001
0100
1000
,
0000
1200
0301
0000
,
1000
0000
0001
0010
0001
0000
1000
0000
,
0000
0100
0010
1000
0010
0000
1000
0000
,
0010
1000
0010
0001
,
0000
0021
1030
0000
,
0001
0000
1000
0010
1000
0000
0001
0000
,
0000
0100
0010
0001
0010
0000
0001
0000
,
0010
0000
0000
0000
,
0000
0000
0000
0000
0001
0100
0010
1000
,
1000
0000
0100
0000
0010
0000
0001
0010
,
0100
0000
0010
0000
0010
0001
1000
0100
,
0010
0010
0100
1000
,
0001
0100
0001
0100
0001
0000
1000
0000
,
0001
0000
0010
0000
0100
0000
1000
0100
,
0010
0000
0100
0000
0100
1000
0001
0010
,
0100
0100
0010
0001
,
1000
0010
1000
0010
1000
0001
0100
0010
,
1000
0000
0001
0000
1000
0001
0100
0010
,
1000
0000
0001
0000
1000
0001
0100
0010
,
1000
0000
0001
0000
1000
0001
0100
0010
,
1000
0000
0001
0000
1000
0001
0100
0010
,
1000
0001
1000
0000
,
1000
0000
0001
0000
1000
0001
0100
0010
,
1000
0000
0001
0000
1000
0001
0100
0010
,
1000
0001
1000
0000
;

//--------------- dance-double - Jenro Jupitel (2021) ----------------
#NOTES:
     dance-double:
     Jenro Jupitel (2021):
     Challenge:
     13:
     0,0,0,0,0:
00000000
00000000
00000000
00000000
,
00000000
00000000
00000000
00000000
,
00000000
00000000
00000000
00000000
,
00000000
00000000
00000000
00000000
,
00000001
00001000
00000100
00010000
,
00000000
00001000
01000000
00010000
10000000
00000000
10000000
00000000
,
01000000
00000000
10000000
01000000
10000000
00000000
01000000
00000000
,
00100000
00110000
00011000
00000000
,
10000000
00010000
01000000
00001000
,
00000000
00010000
00000100
00001000
00000001
00000000
00000001
00000000
,
00000100
00000000
00000001
00000100
00000001
00000000
00000100
00000000
,
00000010
00001010
00011000
00000000
,
01000000
00100000
10000000
00010000
00100000
00000000
00110000
00000000
,
00000000
00010000
00000100
00000010
00001000
00000000
00010000
00000000
,
00011000
00000000
00000000
00000000
,
00011000
00000000
00011000
00000000
00011000
00010000
00100000
01000000
,
00010000
00000000
00010000
00000000
10000000
00000000
10000000
01000000
,
00100000
00000000
01000000
00000000
10000000
00010000
01000000
00010000
,
01000000
00010000
00000000
10000000
01000000
00000000
00000000
10000000
,
10000000
10000000
00100000
00100000
00010000
00001000
00000010
00000100
,
00001000
00000000
00001000
00000000
00000001
00000000
00000001
00000100
,
00000010
00000000
00000100
00000000
00000001
00001000
00000100
00001000
,
00000100
00001000
00000000
00000001
00000100
00000000
00000000
00000001
,
00000001
00000001
00000010
00000010
00001000
00001000
00010000
00001000
,
00010000
00000000
01000000
00000000
10000000
00000000
10000000
01000000
,
00010000
00000000
00010000
00000000
00011000
00001000
00000010
00001000
,
00000100
00001000
00000000
00000001
00000010
00000000
00000000
00000010
,
00000100
00000100
00010000
00001000
00010000
00010000
00001000
00010000
,
00001000
00000000
00000100
00000000
00000001
00000000
00000001
00000100
,
00001000
00000000
00001000
00000000
00011000
00010000
00100000
00010000
,
01000000
00010000
00000000
10000000
00100000
00000000
00000000
00100000
,
01000000
01000000
00001000
00010000
00001000
00000000
00000000
00000000
,
00010000
00010000
00010000
00010000
00010000
00010000
00010000
00010000
,
00001000
00001000
00001000
00001000
00001000
00001000
00001000
00001000
,
00010000
00010000
00010000
00010000
00010000
00010000
00010000
00010000
,
00001000
00001000
00001000
00001000
00001000
00000000
00000000
00000000
,
00000010
00000010
00000010
00000010
00000010
00000010
00000010
00000010
,
00001000
00001000
00001000
00001000
00001000
00001000
00001000
00001000
,
00010000
00010000
00010000
00010000
00010000
00010000
00010000
00010000
,
01000000
01000000
01000000
01000000
01000000
00000000
00000000
00000000
,
00100000
00100000
00100000
00100000
00100000
00100000
00100000
00100000
,
00010000
00010000
00010000
00010000
00010000
00010000
00010000
00010000
,
00001000
00001000
00001000
00001000
00001000
00001000
00001000
00001000
,
00000100
00000100
00000100
00000100
00000100
00000000
00000000
00000000
,
00000001
00000010
00000100
00001000
00000100
00001000
00010000
00001000
,
00010000
00100000
01000000
10000000
01000000
10000000
01000000
00000000
,
10000000
00100000
01000000
00010000
01000000
00010000
00001000
00010000
,
00001000
00000000
00000000
00000000
,
00000001
00000010
00000001
00000010
00001000
00000010
00001000
00000010
,
00001000
00000100
00000010
00000001
00001000
00000100
00000010
00000001
,
00001000
00000010
00000100
00000001
00000100
00001000
00000100
00000001
,
00000100
00001000
00000001
00001000
00000001
00001000
00000010
00000000
,
10000000
00100000
10000000
00100000
00010000
00100000
00010000
00100000
,
00010000
01000000
00100000
10000000
00010000
01000000
00100000
10000000
,
00010000
00100000
01000000
10000000
01000000
00010000
01000000
10000000
,
01000000
00010000
10000000
00010000
10000000
00010000
00100000
00000000
,
00001000
00010000
00001000
00000100
00001000
00000100
00010000
00001000
,
00000100
00000010
00000001
00000100
00000001
00000100
00001000
00000100
,
00000001
00001000
00000001
00001000
00000010
00000100
00000001
00001000
,
00000100
00000010
00000001
00000000
00002002
00000000
00003003
00000000
,
00010000
00001000
00010000
01000000
00010000
01000000
00001000
00010000
,
01000000
00100000
10000000
01000000
10000000
01000000
00010000
01000000
,
10000000
00010000
10000000
00010000
00100000
01000000
10000000
00010000
,
01000000
00100000
10000000
00000000
01000000
00010000
00100000
01000000
,
00010000
00000000
00010000
00000000
10000000
00000000
10000000
01000000
,
00100000
00000000
01000000
00000000
10000000
00010000
01000000
00010000
,
01000000
00010000
00000000
10000000
01000000
00000000
00000000
10000000
,
10000000
10000000
00100000
00100000
00010000
00001000
00000010
00000100
,
00001000
00000000
00001000
00000000
00000001
00000000
00000001
00000100
,
00000010
00000000
00000100
00000000
00000001
00001000
00000100
00001000
,
00000100
00001000
00000000
00000001
00000100
00000000
00000000
00000001
,
00000001
00000001
00000010
00000010
00001000
00000000
00011000
00000000
,
01010000
00000000
00010000
01000000
00010000
00000000
10000000
00000000
,
11000000
00000000
10000000
01000000
10000000
00000000
00010000
00000000
,
01010000
00000000
00010000
01000000
00010000
00000000
10000000
00000000
,
11000000
00000000
10000000
01000000
10000000
00000000
00010000
00000000
,
00011000
00001100
00001010
00000000
,
00011000
01010000
00110000
01000000
,
00011000
00010100
00001010
00000100
,
00011000
00000000
01001000
00000000
00110000
00000000
00000000
10000000
,
10000000
10000000
10000000
10000000
10000000
10000000
10000000
20000000
,
00000000
30000000
00000000
00000000
00000000
00000000
00000000
00000000
;
