#TITLE:APATHY!;
#SUBTITLE:;
#ARTIST:Childlike Wonder;
#TITLETRANSLIT:;
#SUBTITLETRANSLIT:;
#ARTISTTRANSLIT:;
#GENRE:Electronic;
#CREDIT:;
#MUSIC:APATHY!.ogg;
#BANNER:APATHY!-bn.jpg;
#BACKGROUND:APATHY!-bg.jpg;
#CDTITLE:;
#SAMPLESTART:28.778;
#SAMPLELENGTH:17.888;
#SELECTABLE:YES;
#OFFSET:-0.452;
#BPMS:0.000=161.000
,10.000=322.000
,12.000=161.000
;
#STOPS:10.000=0.047
,10.250=0.047
,10.500=0.047
,10.750=0.047
,11.000=0.047
,11.250=0.047
,11.500=0.047
,11.750=0.047
;
#DISPLAYBPM:161.000;
#BGCHANGES:;
#FGCHANGES:;

//--------------- dance-single - Jenro (2021) ----------------
#NOTES:
     dance-single:
     Jenro (2021):
     Beginner:
     3:
     0,0,0,0,0:
0000
0000
0000
0000
,
0000
0000
0000
0000
,
0000
0000
0000
0000
,
0000
0000
0020
0030
,
0000
0000
1000
0000
,
0000
0000
0020
0030
,
0000
0000
1000
0000
,
0000
0000
0020
0030
,
0000
0000
0020
0030
,
0000
0000
0020
0030
,
0000
0000
0020
0030
,
0000
0000
2000
3000
,
0000
0000
0200
0300
,
0000
0000
2000
0000
,
3000
0000
0200
0000
,
0300
0000
2000
0000
,
3000
0000
0200
0000
,
0300
0000
2000
0000
,
0000
0000
3001
0000
,
1000
0000
0001
0000
,
1000
0000
0001
0000
,
1000
0000
0001
0000
,
0020
0000
0030
0000
,
0001
0000
1000
0000
,
0001
0000
1000
0000
,
0001
0000
1000
0000
,
0020
0000
0030
0000
,
1000
0000
0000
0000
,
1000
0000
0000
0000
,
1000
0000
0000
0000
,
1000
0000
0000
0000
,
0100
0000
0000
0000
,
1000
0000
0000
0000
,
0100
0000
0000
0000
,
1000
0000
1001
0000
,
0000
0000
0020
0030
,
0000
0000
0002
0003
,
0000
0000
0020
0030
,
0000
0000
0002
0003
,
0000
0000
0020
0030
,
0000
0000
0020
0030
,
0000
0000
0020
0030
,
0000
0000
0020
0030
,
0000
0000
0200
0000
,
0300
0000
0002
0000
,
0003
0000
0200
0000
,
0300
0000
0002
0000
,
0003
0000
0200
0000
,
0300
0000
0002
0000
,
0003
0000
0200
0000
,
0000
0000
0301
0000
,
1000
0000
0001
0000
,
1000
0000
0001
0000
,
1000
0000
0001
0000
,
0010
0010
0010
0000
,
0001
0000
1000
0000
,
0001
0000
1000
0000
,
0001
0000
1000
0000
,
0010
0010
0010
0000
,
0100
0000
0100
0000
,
0100
0100
0100
0000
,
0100
0000
0100
0000
,
0100
0100
0100
0000
,
0100
0000
0100
0000
,
0100
0100
0100
0000
,
0100
0000
0100
0000
,
0100
0100
0100
0000
,
0100
0010
0100
0010
,
0100
0100
0100
0000
,
0100
0010
0100
0010
,
0100
0100
0100
0000
,
0100
0010
0100
0010
,
0100
0100
0100
0100
,
0001
0100
0001
0000
;

//--------------- dance-single - Jenro (2021) ----------------
#NOTES:
     dance-single:
     Jenro (2021):
     Easy:
     9:
     0,0,0,0,0:
0000
0000
0000
0000
,
0000
0000
0000
0000
,
0000
0000
0000
0000
,
0001
0001
0200
0300
,
0020
1030
0020
1030
,
1000
0100
0002
0003
,
1000
0100
0002
0103
,
0010
0020
1000
0130
,
0020
1000
0130
0000
,
0002
1003
0001
1000
,
2000
0001
3100
0000
,
0011
0101
0011
1000
,
0004
0000
0000
0003
,
2000
0100
0001
3100
,
0002
0010
1000
0013
,
1000
0100
0100
0001
,
1000
0100
0001
0000
,
0010
0000
0010
0000
,
0010
0000
0110
0000
,
0001
0100
1001
1000
,
0100
1001
0001
0100
,
1001
1000
0100
1001
,
2000
0001
0001
3001
,
1000
0010
1001
0001
,
0010
1001
1000
0010
,
1001
0001
0010
1001
,
0002
1000
1000
1003
,
0100
0100
0100
0100
,
0100
0100
0100
0100
,
0400
0000
0000
0000
,
0000
0000
0000
0300
,
0100
0100
0100
1000
,
0100
0100
0100
1000
,
0100
0100
0100
0100
,
0100
0100
0220
0330
,
1001
0000
0011
0000
,
1000
0001
0011
0000
,
1000
1000
0100
0100
,
1000
1000
0020
0001
,
0230
0000
0301
1000
,
0200
0300
1000
0001
,
0200
0300
0001
1000
,
0200
1300
0001
0200
,
0310
1001
0010
0100
,
0002
2000
0003
3020
,
0200
0330
1000
0100
,
0001
0001
2000
0010
,
3001
0010
0102
1000
,
0103
2010
0100
0100
,
3001
2000
3001
0001
,
2000
3200
0020
0330
,
0001
0010
1002
1003
,
0010
2001
3001
0010
,
1002
1003
0010
1001
,
2000
0000
0001
0000
0001
0001
3001
0000
,
1000
0100
2001
3001
,
0100
1002
1003
0100
,
2001
3001
0100
1001
,
0002
0000
1000
0000
1000
1000
1003
0000
,
0010
0110
0100
0110
,
0010
0110
0120
0130
,
0010
0110
0100
0110
,
0010
0110
0120
0130
,
0010
0110
0100
0110
,
0001
0110
0120
0130
,
0010
0110
0100
0110
,
1000
0110
0120
0130
,
2001
3010
0012
0103
,
2100
3010
0102
0013
,
0210
0310
2001
3100
,
0102
1003
2010
3100
,
1002
0103
2100
3010
,
0012
0103
2010
3100
,
0120
0130
1001
0000
,
0000
0000
0001
0000
;

//--------------- dance-single - Jenro (2021) ----------------
#NOTES:
     dance-single:
     Jenro (2021):
     Medium:
     9:
     0,0,0,0,0:
0000
0000
0000
0000
,
0000
0000
0000
0000
,
0000
0000
0000
0000
,
0010
0020
1000
0130
,
0002
0010
0100
1003
,
0002
1000
0100
1003
,
2000
0001
0010
3001
,
0001
0100
0010
0100
,
0010
0100
1000
0001
,
1001
0010
0100
0010
,
0100
0010
0001
1000
,
1001
0020
0001
0130
,
2000
0010
0100
3001
,
2000
0001
0100
3001
,
0002
1000
0010
1003
,
1000
0010
0100
0010
,
0100
0010
0001
1000
,
1001
0100
0010
0100
,
0010
0100
1001
1001
,
0100
0000
0001
0001
0000
0000
0100
0000
,
1000
1000
0000
0000
0100
0000
0001
0001
,
0000
0000
0010
0000
1000
1000
0000
0000
,
0100
0010
1000
0101
,
0010
0000
1000
1000
0000
0000
0010
0000
,
0001
0001
0000
0000
0010
0000
1000
1000
,
0000
0000
0100
0000
0001
0001
0000
0000
,
0010
0100
0001
0110
,
0001
0000
0001
0000
,
0001
0000
0100
0000
,
0002
0010
0010
0010
,
0010
0013
0100
0100
,
0100
0000
1000
0000
,
0100
0000
0001
0000
,
0002
0010
1000
1000
,
0010
1000
1003
0100
,
0110
0100
1100
1000
,
0001
0000
0001
0010
0000
1000
0000
0001
,
0000
1000
1000
0000
0100
0000
0001
0000
,
0010
0000
0001
1000
0000
0100
0000
0001
,
0000
0010
0100
0000
0010
0000
0100
0010
,
0000
0010
0001
0100
,
1000
0010
0100
0010
,
0100
0000
0010
0000
1000
0001
1000
0001
,
1000
0001
0100
1000
,
0100
0000
0001
0000
1000
0000
0000
0010
,
0000
1000
1000
0100
,
1000
0000
0010
0000
0001
0000
0000
0010
,
0000
0100
1000
0100
,
0001
0100
1000
0010
,
0012
0000
0013
0000
0100
0010
0100
0010
,
0100
1000
1001
0000
,
1000
0000
0100
0001
0100
0000
1000
0000
,
0100
0001
0100
0000
1000
0000
0100
0001
,
0100
0000
1000
0000
0100
0001
0000
0001
,
1000
0001
1000
0001
1000
0100
1000
0100
,
0001
0000
0100
1000
0100
0000
0001
0000
,
0100
1000
0100
0000
0001
0000
0100
1000
,
0100
0000
0001
0000
0100
1000
0000
0001
,
1000
0001
1000
0001
1000
0010
1000
0010
,
0001
0000
0001
0010
0010
0000
0100
0000
,
0110
0110
0220
0330
,
1000
0000
0001
0010
0010
0000
0100
0000
,
0110
0110
0220
0330
,
1000
0000
0001
0010
0010
0000
0100
0000
,
0110
0110
0220
0330
,
1000
0000
0001
0010
0010
0000
0100
0000
,
0110
0110
0220
0330
,
0002
1003
0200
0310
,
0110
0110
0110
1001
,
0002
1003
0200
0310
,
0110
0110
0110
1001
,
0002
1003
0200
0310
,
0110
0110
0110
1001
,
0001
1000
0202
0303
,
0000
0000
0000
0001
;

//--------------- dance-single - Jenro (2021) ----------------
#NOTES:
     dance-single:
     Jenro (2021):
     Hard:
     12:
     0,0,0,0,0:
0000
0000
0000
0000
,
0000
0000
0000
0000
,
0000
0000
0000
0000
,
0010
1000
0010
1000
0001
0000
0000
0100
,
0001
1000
0100
0010
0100
0010
0100
1000
,
0002
0000
0103
0010
1010
0000
0000
0100
,
1000
0001
0001
0010
0001
0000
0110
0000
,
0100
0001
0100
0001
2000
0000
3000
0010
,
1000
0001
0010
0100
0010
0100
0010
0001
,
2000
0000
3010
0100
0101
0000
0000
0010
,
0001
1000
1000
0100
1000
0000
0110
0000
,
1000
0001
1000
0001
1000
0200
0000
0310
,
0100
1000
0001
0010
0100
0010
0001
0000
,
1001
0000
1000
0100
1000
0010
0100
0001
,
0001
0001
0001
1000
0010
0100
1000
0100
,
0001
1000
0001
1000
0001
0020
0000
0130
,
0010
0001
1000
0100
0010
0100
1000
0000
,
1001
0000
0001
0010
0001
0100
0010
1000
,
1000
1000
1000
0001
0100
0010
0100
0000
,
0001
0100
0001
0010
0000
0010
0100
0010
,
0100
1000
0000
1000
0010
1000
0100
0010
,
0100
0010
0100
0010
0001
0100
0010
0000
,
0001
1000
0001
1000
0010
1000
0001
0100
,
0001
0010
0001
0100
0000
0100
0010
0100
,
0010
1000
0000
1000
0100
1000
0010
0100
,
0010
0100
0010
0100
0001
0010
0100
0000
,
0001
1000
0001
1000
0100
1000
0001
0010
,
0100
0100
0100
0100
,
0100
0100
0100
0100
,
0100
0100
0100
0100
0100
0100
0100
0100
,
0100
0100
0100
0100
0100
0100
0100
0100
,
0100
0100
0100
0100
,
0100
0100
0100
0100
,
0100
0100
0100
0100
0100
0100
0100
0100
,
0100
0100
0100
0100
0110
0000
1001
1000
,
1001
0000
0100
0001
2000
0000
3000
0010
,
1000
0001
0010
0100
0010
0100
0010
0001
,
2000
0000
3010
0100
0101
0000
0000
0010
,
0001
1000
1000
0100
1000
0000
0110
0000
,
0010
1000
0010
1000
0002
0000
0003
0100
,
0001
1000
0100
0010
0100
0010
0100
1000
,
0002
0000
0103
0010
1010
0000
0000
0100
,
1000
0001
0001
0010
0001
0000
0110
0000
,
0001
1000
0001
1000
0001
0010
0000
0100
,
0010
0001
1000
0100
0010
0100
1000
0000
,
1001
0000
0001
0010
0001
0100
0010
1000
,
1000
1000
1000
0001
0100
0010
0001
0010
,
1000
0001
1000
0001
1000
0100
0000
0010
,
0100
1000
0001
0010
0100
0010
0001
0000
,
1001
0000
1000
0100
1000
0010
0100
0001
,
0001
0001
0001
1000
0101
0000
0000
0000
,
1000
0010
1000
0010
0100
0001
0010
0100
,
1000
0001
1000
0001
0010
0100
0010
0001
,
1000
0100
1000
0100
1000
0010
0100
0001
,
0010
0100
0010
0100
0010
0001
1000
0100
,
0110
0010
0100
0010
0001
0100
0010
1000
,
0001
1000
0001
1000
0100
0001
0100
1000
,
0010
1000
0010
1000
0010
0001
0010
1000
,
0001
0010
0100
1000
0001
0010
0100
1000
,
1001
1100
1001
0011
,
0010
0100
0010
0100
0010
1000
0001
0000
,
1001
1100
1001
0011
,
0010
0100
0010
0100
0010
1000
0001
0000
,
1001
1100
1001
0011
,
0010
0100
0010
0100
0010
1000
0001
0000
,
1001
1100
1001
0011
,
0010
0100
0010
0100
0010
1000
0001
0000
,
1000
0100
0010
0001
1000
0100
0010
0001
,
1000
0010
0100
0010
0100
0001
0100
0000
,
1000
0100
0010
0001
1000
0100
0010
0001
,
1000
0010
0100
0010
0100
0001
0100
0000
,
1000
0100
0010
0001
1000
0100
0010
0001
,
1000
0010
1000
0000
0001
0010
0001
0000
1000
0001
1000
0000
0100
0000
0000
0000
,
0101
0110
1100
1000
,
0000
0000
0000
0000
1000
0000
0000
0000
0001
0100
0001
0100
0001
0000
0000
0000
;

//--------------- dance-double - Jenro (2021) ----------------
#NOTES:
     dance-double:
     Jenro (2021):
     Challenge:
     9:
     0,0,0,0,0:
00000000
00000000
00000000
00000000
,
00000000
00000000
00000000
00000000
,
00000000
00000000
00000000
00000000
,
00001000
00200000
00010000
01300000
,
00010000
00100000
01000000
00001000
,
00020000
00001000
00000100
00030001
,
00002000
00000100
00000010
00003100
,
00010000
01000000
00100000
01000000
,
00100000
01000000
10000000
00010000
,
00011000
00000010
00000100
00000010
,
00000100
00000010
00000001
00001000
,
00011000
00200000
00010000
01300000
,
20000000
00100000
01000000
30010000
,
00002000
00010000
01000000
00013000
,
00020000
00001000
00000010
00031000
,
00001000
00100000
01000000
00100000
,
01000000
00100000
00010000
00001000
,
00011000
00000100
00000010
00000100
,
00000010
00000100
00011000
00011000
,
01000000
00000000
00010000
00010000
00000000
00000000
01000000
00000000
,
10000000
10000000
00000000
00000000
01000000
00000000
00010000
00010000
,
00000000
00000000
00000010
00000000
00001000
00001000
00000000
00000000
,
00000100
00000010
00001000
00000101
,
00010000
00000000
00001000
00001000
00000000
00000000
00100000
00000000
,
00010000
00010000
00000000
00000000
00100000
00000000
10000000
10000000
,
00000000
00000000
01000000
00000000
00010000
00010000
00000000
00000000
,
00001000
00000100
00010000
00011000
,
00010000
00000000
00010000
00000000
,
00010000
00000000
00001000
00000000
,
00020000
00100000
00000010
00100000
,
00000010
00130000
00001000
00010000
,
00001000
00000000
10000000
00000000
,
01000000
00000000
00010000
00000000
,
00020000
00100000
10000000
10000000
,
00100000
00001000
00031000
00010000
,
00011000
01000000
00010100
00001000
,
00010000
00000000
00010000
00100000
00000000
00001000
00000000
00010000
,
00000000
00001000
00001000
00000000
00000100
00000000
00010000
00000000
,
00000010
00000000
00010000
00001000
00000000
01000000
00000000
00010000
,
00000000
00100000
01000000
00000000
00100000
00000000
01000000
00100000
,
00000000
00100000
00010000
00000100
,
00000001
00000010
00010000
00001000
,
01000000
00000000
00100000
00000000
10000000
00010000
10000000
00010000
,
10000000
00010000
01000000
00001000
,
00000100
00000000
00010000
00000000
10000000
00000000
00000000
00100000
,
00000000
10000000
00010000
00000100
,
00010000
00000000
00001000
00000000
00010000
00000000
00000000
00100000
,
00000000
01000000
10000000
01000000
,
00010000
01000000
10000000
00100000
,
00120000
00000000
00130000
00000000
01000000
00100000
01000000
00100000
,
01000000
00001000
00011000
00000000
,
10000000
00000000
01000000
00010000
01000000
00000000
10000000
00000000
,
01000000
00010000
01000000
00000000
10000000
00000000
01000000
00010000
,
01000000
00000000
10000000
00000000
01000000
00010000
00000000
00010000
,
10000000
00010000
10000000
00010000
10000000
01000000
10000000
01000000
,
00001000
00000000
00000010
00000001
00000010
00000000
00001000
00000000
,
00000010
00000001
00000010
00000000
00001000
00000000
00000010
00000001
,
00000010
00000000
00001000
00000000
00000010
00000001
00000000
00001000
,
00000001
00001000
00000001
00001000
00000001
00000100
00000001
00000100
,
00001000
00000000
00010000
00100000
00100000
00000000
01000000
00000000
,
01100000
00011000
00000220
00000330
,
00001000
00000000
00010000
00100000
00100000
00000000
01000000
00000000
,
01100000
00011000
00000220
00000330
,
00001000
00000000
00010000
00100000
00100000
00000000
01000000
00000000
,
01100000
00011000
00000220
00000330
,
00001000
00000000
00010000
00100000
00100000
00000000
01000000
00000000
,
01100000
00011000
00000220
00000330
,
00020000
00031000
02000000
03100000
,
01100000
00011000
00000110
00011000
,
00020000
00031000
02000000
03100000
,
01100000
00011000
00000110
00011000
,
00020000
00031000
02000000
03100000
,
01100000
00011000
00000110
00011000
,
00010000
00001000
02020000
03030000
,
00000000
00000000
00000000
00010000
;
