#TITLE:2Mambling;
#SUBTITLE:;
#ARTIST:K and the Boxers;
#TITLETRANSLIT:;
#SUBTITLETRANSLIT:;
#ARTISTTRANSLIT:;
#GENRE:;
#CREDIT:Jenro Jupitel (2024);
#MUSIC:2Mambling.ogg;
#BANNER:2Mambling-bn.png;
#BACKGROUND:2Mambling-bg.png;
#CDTITLE:cdtitle.png;
#SAMPLESTART:70.284;
#SAMPLELENGTH:15.014;
#SELECTABLE:YES;
#OFFSET:-0.141;
#BPMS:0.000=127.881;
#STOPS:;
#BGCHANGES:;
#FGCHANGES:;

//--------------- dance-single - Jenro Jupitel (2024) ----------------
#NOTES:
     dance-single:
     Jenro Jupitel (2024):
     Beginner:
     3:
     0,0,0,0,0:
0000
0000
0000
0000
,
0000
0000
0000
0000
,
0000
0000
0000
0000
,
0000
0000
0000
0000
,
0100
0000
0001
0000
,
0010
0000
0010
0000
,
0010
0000
0001
0000
,
0100
0000
0100
0000
,
0100
0000
1000
0000
,
0010
0000
0010
0000
,
0010
0000
1000
0000
,
0100
0000
0100
0000
,
0010
0000
0000
0000
,
0010
0000
0000
0000
,
0100
0000
1000
0000
,
0010
0000
0100
0000
,
1000
0000
0010
0000
,
0010
0000
0010
0000
,
0100
0000
0001
0000
,
0010
0000
0100
0000
,
0001
0000
0010
0000
,
0010
0000
0010
0000
,
1000
1000
1000
0000
,
0001
0000
0001
0000
,
0001
0000
0001
0000
,
0001
0000
0001
0000
,
1000
1000
1000
1000
,
1000
1000
1000
0000
,
0010
0000
0100
0000
,
0010
0000
0100
0000
,
0001
0001
0001
0000
,
1000
1000
1000
0000
,
0001
0001
0010
0000
,
1000
1000
0100
0000
,
0001
0001
0001
0010
,
1000
1000
1000
0100
,
0001
0001
0010
1000
,
1000
0100
0000
0000
,
0100
1000
0010
0000
,
0100
1000
0010
0000
,
0010
0010
0100
0000
,
0001
0010
0100
0000
,
0001
0010
0010
0000
,
1000
1000
1000
0000
,
0001
0001
0001
0000
,
1000
1000
1000
0000
,
0100
1000
0010
0000
,
0100
1000
0010
0000
,
0010
0010
0100
0000
,
0001
0010
0100
0000
,
0001
0010
0010
0000
,
1000
1000
1000
1000
,
0001
0001
0001
0001
,
1000
1000
1000
1000
,
0100
0100
0001
0001
,
0010
0010
0010
0010
,
0010
0010
0001
0001
,
0100
0100
0100
0100
,
0100
0100
1000
1000
,
0010
0010
0010
0010
,
0010
0010
1000
1000
,
0100
0100
0100
0100
;

//--------------- dance-single - Jenro Jupitel (2024) ----------------
#NOTES:
     dance-single:
     Jenro Jupitel (2024):
     Easy:
     5:
     0,0,0,0,0:
0000
0000
0000
0000
,
0000
0000
0000
0000
,
0000
0000
0000
0000
,
0000
0000
0000
0000
,
0010
0100
0100
0010
,
0010
0001
1000
0001
,
0100
0001
0100
0100
,
0010
1000
0001
1000
,
0010
0100
0100
0010
,
0010
1000
0001
1000
,
0100
1000
0100
0100
,
0010
0001
1000
0001
,
0010
0000
0000
0000
,
0010
0000
0000
0000
,
0000
0001
0000
1000
,
0000
0001
0000
0100
,
0000
1000
0000
0001
,
0000
1000
0000
0100
,
1000
1000
0100
0001
,
0001
0010
1000
1000
,
1000
0100
0001
0100
,
1000
0010
0001
0010
,
0001
1000
0001
0100
,
1000
0001
1000
0000
,
1000
0001
1000
0100
,
0001
1000
0001
0000
,
0010
0100
0100
0010
,
0010
0001
1000
0001
,
0100
0010
0010
0100
,
0100
1000
0001
1000
,
0010
0100
0010
0100
,
0010
0001
1000
0001
,
0100
0001
0100
0001
,
0010
1000
0001
1000
,
0010
0100
0010
0100
,
0010
1000
0001
1000
,
0100
1000
0100
1000
,
0010
0001
1000
0001
,
0001
0001
1001
1000
,
0001
0100
0100
0001
,
1000
1000
1001
0001
,
1000
0100
0100
1000
,
1000
0100
0001
0001
,
0010
1000
1000
1000
,
0100
0001
0100
1000
,
0010
0001
0010
0001
,
1000
0001
0110
1000
,
0001
1000
0100
1000
,
0001
1000
0110
0001
,
1000
0001
0100
0010
,
0100
0100
0010
0010
,
0001
1000
0001
0100
,
0010
0010
0100
0100
,
1000
0001
1000
0000
,
0010
0100
0100
0010
,
0010
0001
1000
0001
,
0100
0001
0100
0100
,
0010
1000
0001
1000
,
0010
0100
0100
0010
,
0010
1000
0001
1000
,
0100
1000
0100
0100
,
0010
0001
1000
0001
;

//--------------- dance-single - Jenro Jupitel (2024) ----------------
#NOTES:
     dance-single:
     Jenro Jupitel (2024):
     Medium:
     8:
     0,0,0,0,0:
0000
0000
0000
0000
,
0000
0000
0000
0000
,
0000
0000
0000
0000
,
0000
0000
0000
0000
,
0010
0010
1000
0000
0100
0100
0001
0000
,
0010
0100
1000
0001
0100
0010
0100
0000
,
0001
0001
0010
0000
1000
1000
0100
0000
,
1000
0001
0100
0010
0100
0010
0100
0000
,
0001
0100
0001
0000
1000
0001
0100
0000
,
1000
0100
1000
0001
0001
0010
0100
0000
,
0010
0001
0100
0000
0010
1000
0100
0000
,
0100
0010
0100
0010
0100
0010
0100
1000
,
0001
0100
0001
0100
,
0001
0010
0010
0001
,
1000
0010
0010
1000
0000
0100
0000
0001
,
0000
0100
0000
1000
0000
0100
0000
0001
,
0000
0001
0000
0010
0000
0100
0000
1000
,
0000
0100
0000
0100
0000
0010
0000
0100
,
0000
0010
0000
0001
0000
0010
0000
0001
,
0000
0100
0000
0100
0000
0100
0000
1000
,
0000
1000
0000
0010
0000
0010
0000
0100
,
0001
1000
0001
0000
0001
0010
0001
0000
,
0100
0010
1000
0000
0001
0100
0010
0000
,
0000
0100
0001
0010
0000
0100
1000
0001
,
0000
1000
0001
0010
0000
0100
0001
1000
,
0000
0100
1000
0100
0000
0010
0001
0100
,
0000
0010
1000
0001
0000
0010
0001
1000
,
0000
0100
1000
0100
0000
0100
0010
0001
,
0000
0001
0100
0010
0000
0010
1000
0100
,
1000
1001
1100
1010
,
1000
0100
0001
0100
,
1000
0100
0001
0100
,
0010
0001
0100
0000
0010
1000
0100
0000
,
0001
0010
0100
0110
,
1000
0001
0010
0000
0001
1000
0010
0000
,
0100
0100
0100
0100
,
0001
1000
0100
0000
1000
0001
0100
0000
,
0010
0100
0010
0000
0010
0000
0010
0000
,
1000
0010
0010
1000
0100
0010
0001
0000
,
0100
0010
1000
0000
0100
1000
0001
0000
,
0001
1000
0010
0000
0100
0001
1000
0000
,
0100
1000
0100
0000
0010
0001
0100
0000
,
0010
1000
0001
0000
0010
1000
0001
0000
,
0100
0001
0001
0100
0000
0100
0010
1000
,
0000
1000
0100
0010
0000
0100
0000
0010
,
0001
1000
0001
0100
0001
0010
0001
0100
,
0100
0010
1000
1000
0001
0100
0010
1000
,
0000
0100
0010
0001
0100
0001
1000
0000
,
1000
0001
0010
0000
0100
1000
0001
0000
,
0100
0001
0100
0000
0010
1000
0100
0000
,
0010
0001
1000
0000
0010
0001
1000
0000
,
0100
1000
0100
0000
0100
0010
0001
0000
,
0001
0100
0010
0000
0010
1000
0100
0000
,
1000
0001
1000
0100
1000
0010
1000
0000
,
0010
0010
1000
0000
0100
0100
0001
0000
,
0010
0100
1000
0001
0100
0010
0100
0000
,
0001
0001
0010
0000
1000
1000
0100
0000
,
1000
0001
0100
0010
0100
0010
0100
0000
,
0001
0100
0001
0000
1000
0001
0100
0000
,
1000
0100
1000
0001
0001
0010
0100
0000
,
0010
0001
0100
0000
0010
1000
0100
0000
,
0100
0010
0100
0010
0100
0010
0100
1000
;

//--------------- dance-single - Jenro Jupitel (2024) ----------------
#NOTES:
     dance-single:
     Jenro Jupitel (2024):
     Hard:
     10:
     0,0,0,0,0:
0000
0000
0000
0000
,
0000
0000
0000
0000
,
0000
0000
0000
0000
,
0000
0000
0000
0000
,
0100
0100
0001
0000
0100
0010
1000
0000
,
1000
0001
0100
0001
0000
0000
0000
0000
,
0010
0100
0001
0000
0100
1000
0001
0000
,
0100
0100
1000
0001
0000
0000
0010
0000
,
0010
1000
0100
0000
0001
0100
1000
0000
,
0001
0100
0100
0001
0000
0000
0000
0000
,
1000
0010
1100
0000
0001
0010
0101
0000
,
0100
0010
1000
0001
0100
0010
0100
0001
,
1000
0100
0010
0001
,
1000
0100
0010
0001
,
1000
0100
0010
0001
0000
0000
0101
0000
,
0011
0100
1000
0100
0000
1000
1000
1000
,
0000
0001
0001
0001
0000
0001
0010
0001
,
0000
0001
0001
0001
0000
1000
1000
1000
,
0000
0010
0100
0001
0000
0001
1000
1000
,
0000
0100
0010
1000
0000
1000
0001
0001
,
1000
0001
0100
0001
,
1000
0010
0100
0001
,
0011
0100
1000
0100
,
1010
0100
0001
0100
,
0000
0001
1000
1000
0000
0001
0100
0100
,
0000
0001
0010
0010
0000
0100
0010
0100
,
1000
1100
0110
0011
,
0100
1010
0110
0101
,
1000
0001
0100
0001
1000
0100
1000
0001
,
0100
0100
0010
0100
0100
0010
0100
0100
,
0001
0100
0100
0001
0100
0010
1000
0000
,
1000
0001
0100
0001
1000
0000
0010
0100
,
0001
0000
0100
1000
0001
0000
0100
0100
,
1000
0001
1000
0001
1000
0010
0100
0001
,
0010
0000
0010
1000
0100
0000
0001
0100
,
1000
0001
0100
0100
0001
0000
0010
0000
,
1100
0010
0101
0100
,
0100
0010
1000
0001
0100
0010
0100
0001
,
1000
0100
0010
0000
0001
0100
0001
0001
,
0000
1000
1000
0100
1000
1000
1000
0000
,
0001
0001
0001
0001
0100
0001
0010
0001
,
0000
0001
0001
0001
1000
0100
1000
1000
,
0001
0010
0100
1000
0100
0001
1000
1000
,
0000
0100
0010
1000
0000
1000
0001
0001
,
1000
0001
0100
0001
1000
0010
0100
0001
,
0000
0010
0000
0100
0100
1000
0100
0100
,
0010
0001
0100
0000
0010
1000
0100
0010
,
0000
0001
0100
0001
0100
0001
0100
0000
,
0001
0001
1000
1000
0001
0001
0100
0100
,
0000
0001
0010
0010
0100
0100
0010
0100
,
1000
0100
0010
0001
0010
0100
1000
0010
,
0000
0100
0001
0100
0001
1000
0100
1000
,
1000
0001
0100
0001
1000
0100
1000
0001
,
0100
0100
0010
0100
0100
0010
0100
0100
,
0100
0100
0001
0000
0100
0010
1000
0000
,
1000
0001
0100
0001
0010
0000
0110
0000
,
0010
0100
0001
0000
0100
1000
0001
0000
,
0100
0100
1000
0001
0100
0000
0101
0000
,
0010
1000
0100
0000
0001
0100
1000
0000
,
0001
0100
0100
0001
0100
0000
1010
0000
,
1000
0010
1100
0000
0001
0010
0101
0000
,
0100
0010
1000
0002
0000
0000
0000
0000
,
0000
0000
0000
0000
0000
0003
0000
0000
;

//--------------- dance-single - Jenro Jupitel (2024) ----------------
#NOTES:
     dance-single:
     Jenro Jupitel (2024):
     Challenge:
     14:
     0,0,0,0,0:
0000
0000
0000
0000
,
0000
0000
0000
0000
,
0000
0000
0000
0000
,
0000
0000
0000
0000
0000
0000
0000
0000
0000
0000
0000
0000
0000
0000
0000
0000
0000
0000
0000
0000
0000
0000
0000
0000
0000
0000
0000
0000
0000
0000
0000
0001
,
0100
0000
0000
0001
0100
0000
0000
0000
0010
0000
0000
0000
0000
0000
0000
1000
0100
0000
0000
1000
0100
0000
0000
0000
0010
0000
0000
0000
0000
0000
0000
0001
,
1000
0000
0000
1000
0001
0000
0000
0000
0100
0000
0000
0000
0010
0000
0010
0000
0000
0000
0100
0000
0001
0000
0000
0000
0001
0000
0010
0000
0000
0000
0000
0100
,
0001
0000
0000
0100
0001
0000
0000
0000
0010
0000
0000
0000
0000
0000
0000
0100
1000
0000
0000
0100
1000
0000
0000
0000
0010
0000
0000
0000
0000
0000
0000
0100
,
0010
0000
0000
0010
0100
0000
0000
0000
0001
0000
0000
0000
1000
0000
0010
0000
0000
0000
1000
0000
0100
0000
0000
0000
0100
0000
1000
0000
0000
0000
0000
0001
,
0010
0000
0000
0001
0010
0000
0000
0000
0100
0000
0000
0000
0000
0000
0000
1000
0010
0000
0000
1000
0010
0000
0000
0000
0100
0000
0000
0000
0000
0000
0000
0001
,
1000
0000
0000
1000
0001
0000
0000
0000
0010
0000
0000
0000
0100
0000
0100
0000
0000
0000
0010
0000
0001
0000
0000
0000
0001
0000
0100
0000
0000
0000
0000
0010
,
0001
0000
0000
0010
0001
0000
0000
0000
0100
0000
0000
0000
0000
0000
0000
0010
1000
0000
0000
0010
1000
0000
0000
0000
0100
0000
0000
0000
0000
0000
0000
0010
,
0100
0000
0000
0100
0010
0000
0000
0000
0001
0000
0000
0000
1000
0000
0100
0000
0000
0000
1000
0000
0010
0000
0000
0000
0010
0000
1000
0000
0000
0000
0000
0000
,
0001
0010
0001
0100
0001
1000
0001
0100
,
0001
0010
0001
0100
0001
1000
0001
0100
,
0001
0000
0010
0000
0001
0000
0100
0000
0010
0100
0010
0000
1000
0000
0100
0000
,
0010
0100
0010
0000
0001
0000
0100
0000
0010
0100
0001
0000
1000
0000
0100
0000
,
0010
0100
1000
0000
0001
0000
0100
0000
0010
0100
0001
0000
1000
0000
0100
0000
,
1000
0010
1000
0000
0001
0000
0100
0000
0001
0010
0001
0000
1000
0000
0100
0000
,
0001
0100
0001
0100
0010
1000
0100
1000
,
0100
0010
0001
0100
1000
0100
0010
0001
,
0100
0010
0100
0000
1000
0000
0100
0000
0010
0100
0010
0000
0001
0000
0100
0000
,
0010
0100
0001
0000
1000
0100
0010
0000
0001
0010
0100
0000
1000
0100
0010
0000
,
0001
0000
0101
0000
0001
0000
0010
0000
0001
1000
0001
0000
1000
0000
0100
0000
,
1000
0001
1000
0000
0001
0000
0100
0000
0001
1000
0001
0000
1000
0000
0100
0000
,
1000
0010
0100
0000
0100
0000
0001
0000
0001
0010
0100
0000
0100
0000
1000
0000
,
1000
0100
1000
0000
0001
0000
0001
0000
0001
0100
0001
0000
1000
0000
1000
0000
,
1000
0010
0100
0100
0001
0001
0010
0100
,
0100
1000
1000
0100
1000
0001
0100
0001
,
1000
0010
0100
0000
0001
0010
0100
0000
1000
0100
1000
0000
0001
0100
0001
0000
,
1000
0001
1000
0000
0001
1000
0001
0000
1000
0001
1000
0000
0001
1000
0001
0000
,
0001
0100
0001
0100
0010
1000
0100
1000
,
0100
0010
0001
1000
1000
0001
0100
0010
,
0010
0100
0001
0011
0000
0001
0001
0101
,
0000
1000
1000
0101
0000
0001
0001
0101
,
1000
0100
1000
0100
0010
0001
0100
0001
,
0100
0010
1000
0001
0001
1000
0100
0010
,
0010
0100
1000
0101
0000
1000
1000
0101
,
0001
0010
0100
1000
0010
0100
0001
0010
0100
1000
0010
0100
0001
0010
0100
1000
,
0100
1000
0100
1000
0010
0000
0100
0000
0100
0001
0100
0001
0010
0000
0100
0000
,
0000
0001
0011
0001
0101
0001
0101
0001
,
0100
0001
0100
0001
0010
0000
0100
0000
0100
1000
0100
1000
0010
0000
0100
0000
,
0001
1000
0001
0000
0100
0000
1000
0001
1000
0000
0100
0000
0001
1000
0001
0000
,
0100
0001
0100
0001
0010
0000
0100
0000
0100
1000
0100
1000
0010
0000
0100
0000
,
0001
0010
0001
0000
1000
0010
1000
0000
0001
0010
0001
0000
1000
0010
1000
0000
,
0001
0010
0001
0100
0001
1000
0001
0100
,
0000
0011
0100
1000
0001
0010
0100
1000
,
0001
0100
0001
0100
0001
0000
0010
0000
1000
0100
1000
0100
1000
0000
0010
0000
,
0001
0000
1000
0001
1000
0000
0100
0000
0001
1000
0001
0000
0100
0000
1000
0001
,
1000
0100
1000
0100
1000
0000
0010
0000
0001
0100
0001
0100
0001
0000
0010
0000
,
0100
0000
0100
0010
0100
0000
0001
1000
0001
0000
0100
0010
0100
0000
0010
0000
,
0001
0100
0001
0100
0001
0100
0001
0000
0010
0000
1000
0100
1000
0000
0010
0000
,
0100
0001
0100
0101
0100
0001
0100
0001
,
1000
0010
0100
0000
0001
0010
0100
0000
1000
0100
1000
0000
0001
0100
0001
0000
,
1000
0000
0001
0000
1000
0000
0000
0000
0001
0000
1000
0000
0001
0000
0000
0000
1000
0000
0001
0000
1000
0000
0000
0000
1000
0000
0000
0000
0001
0000
0000
0001
,
0100
0000
0000
0001
0100
0000
0000
0000
0010
0000
0000
0000
0000
0000
0000
1000
0100
0000
0000
1000
0100
0000
0000
0000
0010
0000
0000
0000
0000
0000
0000
0001
,
1000
0000
0000
1000
0001
0000
0000
0000
0100
0000
0000
0000
0010
0000
0010
0000
0000
0000
0100
0000
0001
0000
0000
0000
0001
0000
0010
0000
0000
0000
0000
0100
,
0001
0000
0000
0100
0001
0000
0000
0000
0010
0000
0000
0000
0000
0000
0000
0100
1000
0000
0000
0100
1000
0000
0000
0000
0010
0000
0000
0000
0000
0000
0000
0100
,
0010
0000
0000
0010
0100
0000
0000
0000
0001
0000
0000
0000
1000
0000
0010
0000
0000
0000
1000
0000
0100
0000
0000
0000
0100
0000
1000
0000
0000
0000
0000
0001
,
0010
0000
0000
0001
0010
0000
0000
0000
0100
0000
0000
0000
0000
0000
0000
1000
0010
0000
0000
1000
0010
0000
0000
0000
0100
0000
0000
0000
0000
0000
0000
0001
,
1000
0000
0000
1000
0001
0000
0000
0000
0010
0000
0000
0000
0100
0000
0100
0000
0000
0000
0010
0000
0001
0000
0000
0000
0001
0000
0100
0000
0000
0000
0000
0010
,
0001
0000
0000
0010
0001
0000
0000
0000
0100
0000
0000
0000
0000
0000
0000
0010
1000
0000
0000
0010
1000
0000
0000
0000
0100
0000
0000
0000
0000
0000
0000
0010
,
0100
0000
0000
0100
0010
0000
0000
0000
0001
0000
0000
0000
1000
0000
0100
0000
0000
0000
1000
0000
0010
0000
0000
0000
0010
0000
1000
0000
0000
0000
0000
0000
,
0002
0000
0000
0000
0000
0003
0000
0000
;
