#VERSION:0.81;
#TITLE:What You Waiting For?;
#SUBTITLE:;
#ARTIST:Gwen Stefani;
#TITLETRANSLIT:;
#SUBTITLETRANSLIT:;
#ARTISTTRANSLIT:;
#GENRE:Electro-Pop;
#ORIGIN:;
#CREDIT:;
#BANNER:What You Waiting For-jacket.png;
#BACKGROUND:What You Waiting For-bg.png;
#PREVIEWVID:;
#JACKET:What You Waiting For-jacket.png;
#CDIMAGE:;
#DISCIMAGE:;
#LYRICSPATH:;
#CDTITLE:;
#MUSIC:What You Waiting For.mp3;
#OFFSET:-0.080;
#SAMPLESTART:40.620;
#SAMPLELENGTH:15.000;
#SELECTABLE:YES;
#DISPLAYBPM:136.000;
#BPMS:0.000=136.070;
#STOPS:;
#DELAYS:;
#WARPS:;
#TIMESIGNATURES:0.000=4=4;
#TICKCOUNTS:0.000=4;
#COMBOS:0.000=1;
#SPEEDS:0.000=1.000=0.000=0;
#SCROLLS:0.000=1.000;
#FAKES:;
#LABELS:0.000=Song Start;
#BGCHANGES:-0.500=What You Waiting For.avi=1.000=0=0=0=StretchNoLoop====,
99999=-nosongbg-=1.000=0=0=0 // don't automatically add -songbackground-
;
#KEYSOUNDS:;
#ATTACKS:
;

//---------------dance-single - ----------------
#NOTEDATA:;
#CHARTNAME:;
#STEPSTYPE:dance-single;
#DESCRIPTION:;
#CHARTSTYLE:;
#DIFFICULTY:Hard;
#METER:10;
#RADARVALUES:0.542,0.450,0.484,0.212,0.025,365.000,57.000,25.000,0.000,0.000,0.000,0.000,0.000,0.542,0.450,0.484,0.212,0.025,365.000,57.000,25.000,0.000,0.000,0.000,0.000,0.000;
#CREDIT:RIME;
#DISPLAYBPM:136.000;
#NOTES:
1100
0011
0101
1010
,
1001
0011
1100
1001
,
0200
2300
3020
0032
,
0103
0000
0110
0000
1000
0010
1000
0100
,
0010
0001
0100
0001
0010
0100
1000
0100
,
0010
0001
0100
1000
0100
0010
1000
0001
,
0100
0001
0000
0011
0000
0000
0000
1000
,
0010
0010
0100
0001
0010
0010
0100
1000
,
0001
0001
0100
0010
1000
0000
0000
0001
,
0010
0100
0000
0010
0000
0011
0000
0101
,
0000
1100
0000
1010
0000
1001
0000
0100
,
1000
0010
1000
0010
0100
0001
0100
0001
,
0010
0100
1000
0001
0000
0100
0100
0100
,
0010
1000
0010
0001
0010
1000
0010
0001
,
1000
0100
0010
1000
1100
0000
0000
0000
,
0011
1001
1100
0110
,
1100
0110
0022
0033
,
2000
0000
0000
0000
0000
3100
0000
2000
,
0000
0000
0000
0000
,
3001
0000
0001
1000
0001
1000
0100
1000
,
0100
1000
0010
1000
0010
1000
0001
1000
,
0001
1000
0100
1000
0010
0100
0000
0002
,
2000
0000
0000
3003
,
1001
0000
1000
0001
1000
0001
0100
0001
,
0100
0001
0010
0001
0010
0001
1000
0001
,
1000
0001
0100
0001
0010
0100
0000
2000
,
0000
0000
0000
0002
0000
0000
3003
0000
,
1100
0011
2000
3001
,
0101
1010
0002
1003
,
0002
0010
1003
2000
,
0100
0000
3001
0000
1001
0000
0000
0010
,
1000
0100
1000
1000
0100
0001
0100
0100
,
0010
0001
0010
0010
0000
0000
0000
1000
,
0001
0010
0100
1000
0010
1000
0100
0001
,
0100
1000
0001
0010
0100
0010
0010
0001
,
1000
0000
0000
0100
0000
0000
0001
0000
0000
0000
0101
0000
0000
0000
1100
0000
,
0000
1000
0000
0001
0000
1001
0000
0010
,
1000
0010
0010
0010
1000
1000
0100
0100
,
0001
0100
0001
0100
0000
0000
0000
0010
,
0100
1000
0001
0100
0010
1000
0001
0100
,
0010
1000
0001
1000
0010
0100
1001
0000
,
1000
1100
0100
0101
,
0011
0000
1010
0000
0011
0010
1000
0000
,
0002
0000
0000
0000
0000
0103
0000
0002
,
0000
0000
0000
0000
0000
1000
0000
1000
,
0103
0010
0100
0010
0001
1000
0000
1000
,
0100
0010
0100
0000
0011
0000
0011
0000
,
1000
0100
0001
0000
0101
0001
0100
0000
,
0010
0010
0100
0000
2000
0000
3001
0000
,
0010
0010
1000
0000
0100
0001
0100
0100
,
0010
0100
0010
0000
0100
0000
0001
0000
0100
0000
0000
0000
1000
0000
0000
0000
,
0001
0100
1000
0000
1100
1000
0100
0000
,
0001
0010
0100
1000
1001
0000
0110
0000
,
0001
1000
0001
1000
0001
0100
0001
0100
,
0001
1000
0001
1000
0001
0010
0001
0010
,
0001
1000
0001
0100
0010
1000
0000
0100
,
2010
0000
0001
0000
0001
3000
0101
0000
,
1000
0100
1000
0100
0010
0001
0010
0001
,
0001
0100
0001
0100
0010
1000
0010
1000
,
1000
0100
0010
0001
0010
0100
1000
0001
,
2001
0010
0100
3100
,
0101
0000
0000
0000
1000
0000
0010
1000
0000
1000
0010
0000
0000
0000
0000
0000
,
1100
0000
0000
0000
0001
0000
0010
0001
0000
0001
0010
0000
0000
0000
0000
0000
,
1100
0101
1100
0011
,
1010
1001
0220
0330
,
2002
0000
0000
0000
,
0000
3003
0000
0000
;

//---------------dance-double - ----------------
#NOTEDATA:;
#CHARTNAME:;
#STEPSTYPE:dance-double;
#DESCRIPTION:;
#CHARTSTYLE:;
#DIFFICULTY:Hard;
#METER:10;
#RADARVALUES:0.435,0.441,0.322,0.093,0.008,310.000,38.000,11.000,0.000,0.000,0.000,0.000,0.000,0.435,0.441,0.322,0.093,0.008,310.000,38.000,11.000,0.000,0.000,0.000,0.000,0.000;
#CREDIT:;
#DISPLAYBPM:136.000;
#NOTES:
01000000
00100000
01000000
00100000
,
00100000
01000000
00100000
01000000
,
00010000
10000000
00010000
10000000
,
01000000
00010000
00001000
00000100
,
00000001
00000010
00002000
00003000
,
00010000
00100000
00010000
01000000
00010000
10000000
00010000
00000000
,
10000000
01000000
00000000
01000000
00000000
00000000
00000000
00100000
,
00010000
00001000
00010000
00001000
00000010
00001000
00000010
00000000
,
00001000
00001000
00010000
00000100
00010000
00000000
00000000
00100000
,
01000000
00100000
00000000
01000000
00000000
10000000
00000000
11000000
,
00000000
01010000
00000000
00011000
00000000
00001001
00000000
00000000
,
00000100
00000010
00000001
00000000
00000100
00000010
00001000
00000000
,
00000001
00001000
00000001
00001000
00000000
00001000
00000010
00001000
,
00010000
00001000
00010000
00001000
00000010
00001000
00000010
00001000
,
00010000
00001000
00010000
00001000
00011000
00000000
00000000
00000000
,
11000000
01100000
00110000
00011000
,
00001100
00000110
00000011
00000000
,
00000020
00000000
00000000
00000000
00000000
00001000
00000000
00200000
,
00000000
00000000
00000000
00300030
,
10000000
00010000
10000000
00010000
01000000
00010000
01000000
00010000
,
10000000
00010000
10000000
00010000
00100000
00010000
00100000
00010000
,
10000000
00010000
10000000
00010000
01000000
00100000
00000000
00020000
,
00000000
00000000
00000000
00030000
,
00001000
00000001
00001000
00000001
00001000
00000100
00001000
00000100
,
00001000
00000001
00001000
00000001
00001000
00000010
00001000
00000010
,
00001000
00000001
00001000
00000001
00000100
00000010
00000000
00002000
,
00000000
00000000
00000000
00020000
00000000
00000000
00033000
00000000
,
00100000
01000000
00100000
01100000
,
01000000
00100000
01000000
01100000
,
10000000
01000000
00100000
00010000
,
00000010
00000001
00000100
00000000
,
00001000
00000010
00001000
00000000
00000001
00000010
00000001
00000000
,
00000100
00001000
00000100
00001000
00000000
00000000
00000000
00000000
,
00010000
00100000
00010000
00000000
10000000
00100000
10000000
00000000
,
00010000
01000000
00010000
01000000
10000000
00000000
00000000
01000000
,
00010000
00000000
00000000
01000000
00000000
00000000
00100000
00000000
00000000
00000000
00010000
00000000
00000000
00000000
01000000
00000000
,
00000000
10000000
00000000
00010000
00000000
00001000
00000000
00000000
,
00000010
00000000
00001100
00000000
00000010
00001000
00000010
00000000
,
00001000
00010000
00001000
00010000
00000000
00000000
00000000
00100000
,
00100000
00010000
00010000
00001000
00001000
00010000
00010000
00100000
,
00100000
01000000
10000000
01000000
00100000
00000000
00000000
00000000
,
00110000
00011000
00001010
00011000
,
01010000
01010000
00002200
00003300
,
00002000
00000000
00000000
00000000
00000000
00010000
00000000
00010000
,
00100000
00000000
00000000
00000000
00000000
00010000
00000000
00010000
,
00103000
00010000
00100000
00010000
00001000
00010000
00001000
00000000
,
00000010
00001000
00000010
00001000
00010000
00001000
00010000
00000000
,
00010000
00100000
00010000
00100000
,
01000000
00010000
01000000
00010000
,
10000000
01000000
00100000
00010000
00100000
01000000
10000000
00000000
,
00010000
00001000
00010000
00000000
00001000
00000000
01000000
00000000
00001000
00000000
00000000
00000000
01001000
00000000
00000000
00000000
,
00011000
01001000
00011000
00000000
,
00011000
00010100
00011000
00100010
,
00010000
00100000
00010000
00000000
00100000
01000000
00100000
00000000
,
01000000
10000000
01000000
00000000
10000000
00010000
10000000
00000000
,
00010000
00100000
01000000
10000000
01000000
00100000
00000000
00020000
,
00000000
00000000
00000000
00030000
,
00001000
00000010
00001000
00000000
00000010
00000100
00000010
00000000
,
00000100
00001000
00000100
00000000
00000001
00001000
00000001
00000000
,
00000001
00000010
00000100
00001000
00000100
00000010
00000001
00002000
,
00000000
00000000
00000000
00013000
00000000
00000000
00000000
00010000
,
00100000
00000000
00000000
00000000
00000000
00000000
00000000
00001000
,
00000001
00000000
00000000
00000000
,
11000000
01010000
11000000
01010000
,
00110000
10100000
00110000
00000000
,
00011000
00000000
00000000
00000000
;

//---------------dance-double - ----------------
#NOTEDATA:;
#CHARTNAME:;
#STEPSTYPE:dance-double;
#DESCRIPTION:;
#CHARTSTYLE:;
#DIFFICULTY:Easy;
#METER:6;
#RADARVALUES:0.188,0.193,0.059,0.000,0.000,148.000,7.000,0.000,0.000,0.000,0.000,0.000,0.000,0.188,0.193,0.059,0.000,0.000,148.000,7.000,0.000,0.000,0.000,0.000,0.000,0.000;
#CREDIT:;
#DISPLAYBPM:136.000;
#NOTES:
00000000
00000000
00000000
00000000
,
00000000
00000000
00000000
00000000
,
00000000
00000000
00000000
00000000
,
00010000
00001000
00010000
00001000
,
00100000
00100000
00100000
00000000
,
01000000
00000000
00010000
00000000
,
00100000
01000000
00100000
00000000
,
00001000
00000000
00000100
00000000
,
00000010
00000100
00000010
00000000
,
00000001
00000000
00001000
00000000
,
00001000
00000000
00010000
00000000
,
00010000
00000000
10000000
00000000
,
10000000
00010000
10000000
00000000
,
10000000
00000000
00010000
00000000
,
00010000
00000000
00001000
00000000
,
00001000
00000100
00000010
00000000
,
00000010
00000001
00000100
00000000
,
00000110
00000000
00000000
00000000
,
00000110
00000000
00000000
00000000
,
00001000
00000000
00001000
00000001
,
00000001
00000000
00000001
00001000
,
00001000
00000010
00000010
00000100
,
00000100
00000000
00000000
00000000
,
00001000
00000000
00001000
00010000
,
00010000
00000000
00010000
00001000
,
00001000
00010000
00010000
00100000
,
00100000
00000000
00000000
00000000
,
10000000
01000000
00100000
01000000
,
10000000
01000000
00100000
01000000
,
00010000
00000000
00010000
00000000
,
00001000
00001000
00001000
00000000
,
00000010
00000000
00000000
00000000
,
00000100
00000000
00000000
00000000
,
00001000
00000000
00000000
00000000
,
00010000
00000000
00000000
00000000
,
10000000
00000000
00000000
00000000
,
01000000
00000000
00000000
00000000
,
00001000
00000000
00000000
00000000
,
00000100
00000000
00000000
00000000
,
00000001
00000010
00000001
00000100
,
00000001
00001000
00000001
00000000
,
00010000
00010000
00001000
00001000
,
00010000
00001000
00010000
00000000
,
00011000
00000000
00000000
00000000
,
00011000
00000000
00000000
00000000
,
00100000
00000000
00100000
00000000
,
00100000
01000000
00100000
01000000
,
00100000
00000000
00100000
00000000
,
00100000
01000000
00100000
01000000
,
00010000
00000000
00001000
00000000
,
00010000
00001000
00010000
00001000
,
00010000
00000000
00001000
00000000
,
00010000
00001000
00010000
00001000
,
00000010
00000100
00000010
00000000
,
00000100
00000010
00000100
00000000
,
00000001
00000001
00001000
00001000
,
00001001
00000000
00000000
00000000
,
00000100
00000010
00000100
00000000
,
00000100
00000010
00000100
00000000
,
00000001
00001000
00000001
00001000
,
00001001
00000000
00000000
00000000
,
00010000
00000000
00000000
00000000
,
10000000
00000000
00000000
00000000
,
00001000
00000000
00000000
00000000
,
00000001
00000000
00000000
00000000
,
00011000
00000000
00000000
00000000
;

//---------------dance-double - ----------------
#NOTEDATA:;
#CHARTNAME:;
#STEPSTYPE:dance-double;
#DESCRIPTION:;
#CHARTSTYLE:;
#DIFFICULTY:Medium;
#METER:8;
#RADARVALUES:0.285,0.358,0.093,0.161,0.000,205.000,11.000,19.000,0.000,0.000,0.000,0.000,0.000,0.285,0.358,0.093,0.161,0.000,205.000,11.000,19.000,0.000,0.000,0.000,0.000,0.000;
#CREDIT:;
#DISPLAYBPM:136.000;
#NOTES:
00000000
00000000
00000000
00000000
,
00000000
00000000
00000000
00000000
,
00000000
00000000
00000000
00000000
,
01000000
00010000
00001000
00000100
,
00000010
00000001
00000010
00000000
,
00001000
00010000
00001000
00010000
,
00100000
00010000
00100000
00000000
00001000
00000000
00000000
00000000
,
00010000
00001000
00010000
00001000
,
00000010
00001000
00000010
00000000
00001000
00000000
00000000
00000000
,
10000000
00010000
01000000
00100000
,
00001000
00000000
00001000
00000000
,
00000001
00001000
00000100
00000010
,
00010000
00000000
00000000
00100000
,
00100000
00000000
01000000
00000000
00010000
01000000
00010000
00000000
,
00001000
00001000
00002020
00003030
,
00000001
00000010
00000100
00001000
,
00010000
01000000
10000000
00000000
,
00011000
00000000
00000000
00000000
,
00011000
00000000
00000000
00000000
,
10000000
00000000
00100000
10000000
00100000
00000000
00000000
00000000
,
00010000
00000000
00100000
00010000
00100000
00000000
00000000
00000000
,
00001000
00000000
00000010
00001000
00000010
00000000
00000000
00000000
,
00002002
00000000
00000000
00003003
,
00010000
00100000
00010000
00100000
00010000
00000000
00000000
00000000
,
00001000
00000010
00001000
00000010
00001000
00000000
00000000
00000000
,
00010000
01000000
00010000
01000000
00001000
00000000
00000000
00000000
,
00002200
00000000
00000000
00003300
,
00000001
00000100
00001000
00000010
,
00000001
00000100
00001000
00000010
,
00001000
00000000
00000001
00000000
,
00001000
00000001
00001001
00000000
,
00010000
00100000
00010000
00100000
,
01000000
01000000
00100000
01000000
00000000
00000000
00000000
00000000
,
00010000
00001000
00010000
00001000
,
00000100
00000100
00000010
00000100
00001000
00000000
00000000
00000000
,
00010000
00001000
00010000
00001000
,
00000010
00000010
00002020
00003030
,
00010000
00000000
00001000
00000000
00010000
00001000
00010000
00000000
,
00100000
00010000
00100000
00010000
00000000
00000000
00000000
00001000
,
00002000
00003200
00020300
02030000
,
03002000
00000000
00003200
00000300
01000100
00000000
00000000
00000000
,
10000000
00100000
01000000
00010000
,
00001000
00000100
00000001
00000000
,
00011000
00000000
00000000
00000000
,
00011000
00000000
00000000
00000000
,
00200000
00000000
00000000
00000000
,
00010000
00010000
00010000
00310000
,
00000100
00000010
00000100
00000000
,
00000020
00001000
00001030
00000000
,
00200000
00000000
00000000
00000000
,
00010000
00010000
00310000
00000000
,
00000100
00000010
00000100
00000000
,
00000020
00001000
00001030
00000000
,
10000000
00000000
01000000
00000000
00010000
00000000
01000000
00010000
,
01000000
00000000
10000000
00000000
01000000
00000000
00010000
01000000
,
00010000
00001000
00001000
00000010
,
00000002
00000000
00000000
00000003
,
00000001
00000000
00000100
00000000
00001000
00000000
00000100
00001000
,
00000100
00000000
00000001
00000000
00000100
00000000
00001000
00000100
,
00001000
00010000
00010000
00100000
,
01000000
00000000
00000000
00000000
,
00000001
00000000
00000000
00000000
,
00010000
00000000
00000000
00000000
,
10000000
10000000
00010000
00010000
,
00001000
00001000
00000001
00000000
,
00001001
00000000
00000000
00000000
;

//---------------dance-single - ----------------
#NOTEDATA:;
#CHARTNAME:;
#STEPSTYPE:dance-single;
#DESCRIPTION:;
#CHARTSTYLE:;
#DIFFICULTY:Beginner;
#METER:1;
#RADARVALUES:0.074,0.081,0.017,0.102,0.000,47.000,2.000,12.000,0.000,0.000,0.000,0.000,0.000,0.074,0.081,0.017,0.102,0.000,47.000,2.000,12.000,0.000,0.000,0.000,0.000,0.000;
#CREDIT:;
#DISPLAYBPM:136.000;
#NOTES:
0000
0000
0000
0000
,
0000
0000
0000
0000
,
0000
0000
0000
0000
,
0000
0000
0000
0000
,
0000
0000
0000
0000
,
1000
0000
0000
0000
,
0000
0000
0000
0000
,
0100
0000
0000
0000
,
0000
0000
0000
0000
,
0010
0000
0000
0000
,
0000
0000
0000
0000
,
0001
0000
0000
0000
,
0000
0000
0000
0000
,
0010
0000
0000
0000
,
0000
0000
0000
0000
,
0100
0000
0000
0000
,
0000
0000
0000
0000
,
1000
0000
0000
0000
,
0001
0000
0000
0000
,
2000
0000
0000
3000
,
0002
0000
0000
0003
,
0010
0000
0000
0000
,
0100
0000
0000
0000
,
0002
0000
0000
0003
,
2000
0000
0000
3000
,
0010
0000
0000
0000
,
0100
0000
0000
0000
,
1001
0000
0000
0000
,
0000
0000
0000
0000
,
0110
0000
0000
0000
,
0000
0000
0000
0000
,
0001
0000
0000
0000
,
0000
0000
0000
0000
,
0100
0000
0000
0000
,
0000
0000
0000
0000
,
0010
0000
0000
0000
,
0000
0000
0000
0000
,
1000
0000
0000
0000
,
0000
0000
0000
0000
,
0100
0000
0000
0000
,
0000
0000
0000
0000
,
0010
0000
0000
0000
,
0000
0000
0000
0000
,
0001
0000
0000
0000
,
1000
0000
0000
0000
,
0002
0000
0000
0003
,
2000
0000
0000
3000
,
0010
0000
0000
0000
,
0100
0000
0000
0000
,
2000
0000
0000
3000
,
0002
0000
0000
0003
,
0010
0000
0000
0000
,
0100
0000
0000
0000
,
0020
0000
0000
0030
,
0200
0000
0000
0300
,
1000
0000
0000
0000
,
0001
0000
0000
0000
,
0020
0000
0000
0030
,
0200
0000
0000
0300
,
0001
0000
0000
0000
,
1000
0000
0000
0000
,
0001
0000
0000
0000
,
0001
0000
0000
0000
,
1000
0000
1000
0000
,
1000
0000
0000
0000
;

//---------------dance-single - Blank----------------
#NOTEDATA:;
#CHARTNAME:;
#STEPSTYPE:dance-single;
#DESCRIPTION:Blank;
#CHARTSTYLE:;
#DIFFICULTY:Medium;
#METER:8;
#RADARVALUES:0.372,0.414,0.221,0.229,0.000,254.000,26.000,27.000,0.000,0.000,0.000,0.000,0.000,0.372,0.414,0.221,0.229,0.000,254.000,26.000,27.000,0.000,0.000,0.000,0.000,0.000;
#CREDIT:RIME;
#DISPLAYBPM:136.000;
#NOTES:
1000
0010
2000
3001
,
0001
0010
0002
1003
,
1000
0100
0001
0010
,
0100
0000
0100
0000
0010
0100
0010
0100
,
0010
0100
1000
0001
0100
0010
1000
0100
,
0010
0001
0100
0001
,
1000
0001
0000
0010
0000
0000
0000
0000
,
0010
0100
1000
0010
,
0100
0001
0010
0100
1000
0000
0000
0001
,
1000
0000
0000
0001
0000
0001
0000
1000
,
0000
0010
0000
1000
0000
0010
0000
0000
,
1000
0100
1000
0000
0001
1000
0001
0000
,
0010
0001
0010
0001
0000
0000
0100
0000
,
0010
1000
0100
0000
1000
0001
0100
0000
,
0010
1000
0001
0000
0100
0000
0000
0000
,
0010
1010
1000
1100
,
0100
0101
0100
0000
,
0020
0000
0000
0000
0000
0130
0000
0010
,
0000
0000
0000
0000
,
2200
0000
0000
3300
,
0022
0000
0000
0000
0000
0033
0010
0100
,
1000
0010
1000
0010
,
0100
0001
0100
0001
,
0202
0000
0000
0303
,
2020
0000
0000
0000
0000
3030
0010
0100
,
0001
0010
0001
0010
,
0100
1000
0100
1000
,
0010
1010
1000
1100
,
0100
0101
0001
0011
,
0010
0001
0100
1000
,
0010
0001
0100
0000
,
0010
0010
1000
1000
,
0001
1000
0000
1000
0000
0000
0000
0100
,
1000
0010
0100
0010
,
1000
0100
0010
0100
1000
0000
0000
0000
,
0001
0000
1001
0000
,
1000
0000
2020
3030
,
1000
0100
0010
0001
,
1000
0001
0010
0100
0000
0000
0000
1000
,
0100
1000
0100
0010
0001
0010
0001
0100
,
0001
0100
0001
1000
0010
0010
0010
0000
,
0110
1001
0110
1001
,
0001
0010
1000
0010
,
0210
0000
0000
0000
0000
0310
0000
0200
,
0000
0000
0000
0000
0000
0010
0000
0310
,
2200
0000
0000
0000
3300
0010
0000
0010
,
0100
0001
0100
0000
0001
0000
0010
0000
,
0100
1000
0100
1000
,
0001
0010
0001
0010
,
0202
0000
0000
0000
0303
0001
0100
0010
,
1000
0100
1000
0100
0010
0000
0110
0000
,
0100
1000
0100
1000
,
0001
0010
0001
0010
,
0022
0000
0000
0033
,
2200
0000
0000
0000
0000
3300
0100
0010
,
0001
0010
0001
0010
,
0100
1000
0100
1000
,
2020
0000
0000
3030
,
0202
0000
0000
0000
0000
0303
0100
0010
,
1000
0100
1000
0100
,
0010
0001
0010
0001
,
1000
0000
0010
1000
0010
1000
0000
0000
,
0001
0000
0010
0001
0010
0001
0000
0000
,
1000
0100
0001
0010
,
1000
0100
0001
0000
,
1001
0000
0000
0000
;

//---------------dance-single - Blank----------------
#NOTEDATA:;
#CHARTNAME:;
#STEPSTYPE:dance-single;
#DESCRIPTION:Blank;
#CHARTSTYLE:;
#DIFFICULTY:Easy;
#METER:6;
#RADARVALUES:0.281,0.331,0.178,0.034,0.000,207.000,21.000,4.000,0.000,0.000,0.000,0.000,0.000,0.281,0.331,0.178,0.034,0.000,207.000,21.000,4.000,0.000,0.000,0.000,0.000,0.000;
#CREDIT:RIME;
#DISPLAYBPM:136.000;
#NOTES:
// measure 0
1000
0001
1000
0001
,  // measure 1
1000
0001
1000
0001
,  // measure 2
0010
0100
0010
0100
,  // measure 3
1000
0010
0100
0001
,  // measure 4
0010
0100
1000
0000
,  // measure 5
0001
0000
0001
0000
,  // measure 6
1000
0100
1000
0000
,  // measure 7
0010
0010
1000
0100
,  // measure 8
0010
0010
0001
0100
,  // measure 9
0010
0000
0110
0000
,  // measure 10
0100
0000
0110
0000
,  // measure 11
0010
1000
0100
0001
,  // measure 12
0100
0010
0001
0100
,  // measure 13
0100
0010
0010
1000
,  // measure 14
0100
0001
0100
0000
,  // measure 15
0010
0001
1000
0100
,  // measure 16
0010
0100
1000
0000
,  // measure 17
1001
0000
0000
0000
0000
0100
0000
1001
,  // measure 18
0000
0000
0010
0010
,  // measure 19
1000
0100
1000
0001
,  // measure 20
1000
0100
1000
0001
,  // measure 21
1000
0010
1000
0001
,  // measure 22
0002
0000
0000
0003
,  // measure 23
0001
1000
0001
0100
,  // measure 24
0001
1000
0001
0100
,  // measure 25
0001
0010
0001
1000
,  // measure 26
2000
0000
3100
0000
,  // measure 27
0010
0100
0010
0100
,  // measure 28
0001
1000
0001
1000
,  // measure 29
0100
0010
0001
1000
,  // measure 30
0100
0010
0001
0000
,  // measure 31
1000
0000
1010
0000
,  // measure 32
1000
0001
1000
0000
,  // measure 33
0001
0000
0011
0000
,  // measure 34
0001
1000
0001
0000
,  // measure 35
1000
0010
0001
1000
,  // measure 36
0100
0001
1000
0000
,  // measure 37
0001
0010
1000
0001
,  // measure 38
0100
1000
0001
0000
,  // measure 39
1000
1000
0001
0001
,  // measure 40
1000
0100
0001
0010
,  // measure 41
1000
0001
1000
0001
,  // measure 42
0010
0010
0010
0000
,  // measure 43
0110
0000
0000
0000
0000
1000
0000
0110
,  // measure 44
0000
0000
0000
0000
0000
0001
0000
0001
,  // measure 45
0000
0000
0000
0000
0000
1000
0000
1000
,  // measure 46
0010
0010
0010
0000
,  // measure 47
0110
1001
0110
0000
,  // measure 48
1001
0110
1001
0000
,  // measure 49
0011
1100
0011
0000
,  // measure 50
1010
0101
1010
0000
,  // measure 51
1000
0100
0001
0010
,  // measure 52
1000
0100
0001
0000
,  // measure 53
0001
0010
0001
1000
,  // measure 54
0001
0010
0001
1000
,  // measure 55
0001
0100
0001
1000
,  // measure 56
2000
0000
0000
3000
,  // measure 57
1000
0010
1000
0001
,  // measure 58
1000
0010
1000
0001
,  // measure 59
1000
0100
1000
0001
,  // measure 60
0002
0000
0000
0000
,  // measure 61
0103
0000
0000
0000
0000
0000
0000
0100
,  // measure 62
0010
0000
0000
0000
0000
0000
0000
0010
,  // measure 63
1000
0000
0000
0000
0000
0000
0000
1000
,  // measure 64
0001
0000
0000
0000
,  // measure 65
1001
0000
0000
0000
;
