#VERSION:0.81;
#TITLE:Rock 'n Roll (Will Take You to the Mountain);
#SUBTITLE:;
#ARTIST:Skrillex;
#TITLETRANSLIT:;
#SUBTITLETRANSLIT:;
#ARTISTTRANSLIT:;
#GENRE:Modern Dubstep;
#ORIGIN:;
#CREDIT:;
#BANNER:Rock 'n Roll (Will Take You to the Mountain)-jacket.png;
#BACKGROUND:Rock 'n Roll (Will Take You to the Mountain)-bg.png;
#PREVIEWVID:;
#JACKET:Rock 'n Roll (Will Take You to the Mountain)-jacket.png;
#CDIMAGE:;
#DISCIMAGE:;
#LYRICSPATH:;
#CDTITLE:;
#MUSIC:Rock 'n Roll (Will Take You to the Mountain).mp3;
#OFFSET:-0.040;
#SAMPLESTART:37.580;
#SAMPLELENGTH:15.000;
#SELECTABLE:YES;
#BPMS:0.000=127.850;
#STOPS:;
#DELAYS:;
#WARPS:;
#TIMESIGNATURES:0.000=4=4;
#TICKCOUNTS:0.000=4;
#COMBOS:0.000=1;
#SPEEDS:0.000=1.000=0.000=0;
#SCROLLS:0.000=1.000;
#FAKES:;
#LABELS:0.000=Song Start;
#BGCHANGES:;
#KEYSOUNDS:;
#ATTACKS:
;

//---------------dance-single - ----------------
#NOTEDATA:;
#CHARTNAME:;
#STEPSTYPE:dance-single;
#DESCRIPTION:;
#CHARTSTYLE:;
#DIFFICULTY:Hard;
#METER:14;
#RADARVALUES:0.787,0.825,0.514,0.820,0.681,423.000,52.000,83.000,0.000,0.000,0.000,0.000,0.000,0.787,0.825,0.514,0.820,0.681,423.000,52.000,83.000,0.000,0.000,0.000,0.000,0.000;
#CREDIT:RIME;
#NOTES:
1000
0100
0000
0100
0010
0000
0000
0010
0001
0000
0001
0100
0000
0000
0000
0010
,
1000
0010
1000
0010
0100
0000
0001
0000
0010
0000
0010
0100
0000
0000
0000
0000
,
1000
0100
0000
0100
0010
0000
0000
0010
0001
0000
0001
0100
0000
0000
0000
0010
,
0100
0010
0100
0010
0100
0000
0001
0000
0010
0000
0100
1000
0000
0000
0000
0000
,
0001
0010
0000
0010
0100
0000
0000
0100
1000
0000
1000
0010
0000
0000
0000
0100
,
0001
0100
0001
0100
0010
0000
1000
0000
0100
0000
0100
0010
0000
0000
0000
0000
,
0001
0010
0000
0010
0100
0000
0000
0100
1000
0000
1000
0010
0000
0000
0000
0010
,
0100
0010
0100
0010
0100
0000
0001
0000
0010
0000
0100
1000
0000
0000
0000
0000
,
1000
0001
0000
1000
0001
0000
0000
0001
0010
0000
0010
0100
0000
0000
0000
0100
,
1000
0010
1000
0010
1000
0000
0001
0000
0010
0000
0010
0100
0000
0000
0000
0000
,
0001
1000
0000
0001
1000
0000
0000
1000
0010
0000
0010
0100
0000
0000
0000
0100
,
0010
0100
0010
0100
0010
0000
1000
0000
0100
0000
0010
0001
0000
0000
1000
0000
,
1100
0000
0100
0010
0000
0000
1000
0000
1100
0000
0100
0010
0100
0000
0100
0010
,
0100
0000
0010
0001
0000
0000
1000
0000
0100
0000
0010
0001
0010
0001
0100
0000
,
0010
0000
1000
0100
0000
0000
1000
0000
0010
1000
0100
0000
0010
1000
0100
0000
,
1000
0000
0001
0100
0000
0000
0001
0000
1000
0100
0010
0100
1000
0001
0100
0001
,
0100
0001
0010
0001
0010
0100
0010
0100
1000
0100
1000
0100
1000
0001
1000
0001
,
0200
0320
0230
0320
2030
3002
2003
3002
,
0023
0000
0230
0000
0320
0000
0230
0000
1300
0100
1000
0000
1000
0100
0010
0001
,
1000
0000
0100
1000
0010
0100
0001
0010
0100
0000
0100
1000
0000
0100
0000
0000
,
0010
0000
0001
0010
0100
0000
0010
0000
0220
0000
0330
0000
0220
0000
0330
0000
,
1000
0000
0100
1000
0100
0000
1000
0000
0010
0100
0001
0100
0220
0000
0330
0000
,
0010
0000
0100
0001
0010
0000
0100
0000
2200
0000
3300
0000
2200
0000
3300
0000
,
0010
0000
0001
0000
0010
0000
0100
1000
0000
1000
0000
1000
0000
0000
0001
0000
,
0100
0000
0010
1000
0010
0000
0100
0000
0202
0000
0303
0000
0202
0000
0303
0000
,
0001
0000
0010
0100
1000
0000
0001
0000
1000
0100
1000
0100
0220
0000
0330
0000
,
0010
0000
0001
0010
0100
0010
0001
0000
0022
0000
0033
0000
0022
0000
0033
0000
,
0001
0000
0010
0000
0001
0000
0100
0001
0000
0001
0000
0001
0000
0001
1000
0000
,
0100
0000
0010
0100
1000
0000
0001
0000
0202
0000
0303
0000
0202
0000
0303
0000
,
0001
0000
1000
0100
0010
0000
0110
0000
0010
0100
1000
0001
0202
0000
0303
0000
,
0001
0000
0010
0001
1000
0001
0010
0000
0220
0000
0330
0000
0220
0000
0330
0000
,
0010
0000
0100
0000
1000
0000
0010
1000
0000
1000
0000
1000
0000
1000
0002
0000
,
1003
0000
1000
0001
0010
0000
0100
0000
2200
0000
3300
0000
2200
0000
3300
0000
,
1000
0000
0001
0100
0001
0000
0010
0000
0100
1000
0100
1000
0100
0000
0000
0000
,
1000
0000
0000
0000
0000
0000
0100
0000
0000
0010
0000
0000
0001
0000
0000
0000
0100
0000
0000
0000
0001
0000
0000
0000
0022
0000
0000
0000
0000
0000
0033
0000
0000
0000
0000
0000
0010
0000
0001
0000
0010
0000
0001
0000
0010
0000
0001
0000
,
2002
0000
0000
3003
,
1010
0000
1000
0000
1010
0000
1000
0000
0001
0010
0100
0000
0001
0010
0100
0000
,
1100
0000
1000
0000
1100
0000
1000
0000
0100
0010
0022
0033
0022
0033
0022
0033
,
0022
0033
0220
0330
0000
0000
0000
0000
0022
0033
0220
0330
0000
0000
0000
0000
,
0010
0001
1000
0100
1000
0000
0000
0000
0000
0000
0001
1000
0010
1000
0001
0100
,
0101
0000
0001
0000
0101
0000
0001
0000
1000
0100
0010
0000
1000
0100
0010
0000
,
0011
0000
0001
0000
0011
0000
0001
0000
0001
1000
2020
3030
2020
3030
2020
3030
,
2020
3030
0220
0330
0000
0000
0000
0000
2020
3030
0220
0330
0000
0000
0000
0000
,
2002
3003
0000
0000
0001
0000
1000
0000
0010
0000
0010
0000
0100
0000
0010
0000
,
0110
0000
0010
0100
0000
0000
0000
0000
0101
0000
0001
0100
0000
0000
0000
0000
,
0110
0000
0100
0010
0000
0000
0000
0000
1010
0000
1000
0010
0000
0000
0000
0000
,
1001
0000
1000
0001
0000
0000
0000
0000
0011
0000
0001
0010
0000
0000
0000
0000
,
0001
0010
0001
0000
0001
0010
0001
0000
0010
0001
0010
0000
0010
0001
0010
0000
,
0022
0000
0000
0000
,
0000
0000
0000
0000
,
0000
0000
0000
0000
,
0000
0000
0000
0000
,
0000
0000
0000
0033
0000
0000
0000
0000
0000
0000
0000
0000
0000
0000
0000
0000
;

//---------------dance-single - ----------------
#NOTEDATA:;
#CHARTNAME:;
#STEPSTYPE:dance-single;
#DESCRIPTION:;
#CHARTSTYLE:;
#DIFFICULTY:Easy;
#METER:5;
#RADARVALUES:0.234,0.261,0.227,0.346,0.000,108.000,23.000,35.000,0.000,0.000,0.000,0.000,0.000,0.234,0.261,0.227,0.346,0.000,108.000,23.000,35.000,0.000,0.000,0.000,0.000,0.000;
#CREDIT:;
#NOTES:
0000
0000
0000
0000
,
0000
0000
0000
0000
,
0000
0000
0000
0000
,
0000
0000
0000
0000
,
0000
0000
0000
0000
,
0000
0000
0000
0000
,
0000
0000
0000
0000
,
0000
0000
0000
0000
,
1000
0000
1000
0000
,
0010
0010
0010
0000
,
0001
0000
0001
0000
,
0010
0010
0010
0000
,
0101
0000
1010
0000
,
0101
0000
1010
0000
,
1100
0000
0011
0000
,
1100
0000
0011
0000
,
1001
0000
0110
0000
,
1001
0000
0110
0000
,
1000
0000
0010
0000
,
0001
0000
0200
0000
,
0310
0000
0010
0000
0020
0030
0020
0030
,
0000
0000
1000
0000
2000
3000
2000
3000
,
0000
0000
0001
0000
0002
0003
0002
0003
,
1000
0010
0100
0001
,
0000
0000
1000
0000
2000
3000
2000
3000
,
0000
0000
0100
0000
0200
0300
0200
0300
,
0000
0000
0010
0000
0020
0030
0020
0030
,
0001
0100
0010
1000
,
0000
0000
0001
0000
0200
0300
0002
0003
,
0000
0000
1000
0000
0200
0300
2000
3000
,
0000
0000
0010
0000
0200
0300
0020
0030
,
0100
0010
1000
0001
,
0000
0000
1000
0000
0020
0030
2000
3000
,
0000
0000
0001
0000
0020
0030
0002
0003
,
0000
0000
1000
0000
0002
0003
2000
3000
,
0002
0000
2000
3003
,
1000
1000
0100
0100
,
0010
0001
0010
0001
,
0200
0300
0020
0030
,
0220
0000
0000
0330
,
0001
0001
0100
0100
,
0010
1000
0010
1000
,
0002
0003
2000
3000
,
2002
0000
0000
3003
,
1100
0000
0011
0000
,
0101
0000
1010
0000
,
1100
0000
0011
0000
,
0101
0000
1010
0000
,
1001
0000
0000
0000
;

//---------------dance-single - Blank----------------
#NOTEDATA:;
#CHARTNAME:;
#STEPSTYPE:dance-single;
#DESCRIPTION:Blank;
#CHARTSTYLE:;
#DIFFICULTY:Medium;
#METER:10;
#RADARVALUES:0.487,0.521,0.277,0.444,0.178,272.000,28.000,45.000,0.000,0.000,0.000,0.000,0.000,0.487,0.521,0.277,0.444,0.178,272.000,28.000,45.000,0.000,0.000,0.000,0.000,0.000;
#CREDIT:RIME;
#NOTES:
1000
0000
0000
0000
1000
0000
0000
0000
0010
0000
0000
0100
0000
0000
0000
0000
,
0001
0000
0100
0000
1000
0000
0100
0000
0001
0000
0000
0010
0000
0000
0000
0000
,
0001
0000
0000
0000
0001
0000
0000
0000
0010
0000
0000
0100
0000
0000
0000
0000
,
1000
0000
0100
0000
0001
0000
0100
0000
1000
0000
0000
0010
0000
0000
0000
0000
,
1000
0000
0000
0000
1000
0000
0000
0000
0100
0000
0000
0010
0000
0000
0000
0000
,
0001
0000
0010
0000
1000
0000
0010
0000
0001
0000
0000
0100
0000
0000
0000
0000
,
0001
0000
0000
0000
0001
0000
0000
0000
0100
0000
0000
0010
0000
0000
0000
0000
,
1000
0010
0001
0010
0100
0000
0000
0000
,
0010
0000
0000
0000
0010
0000
0000
0000
1000
0000
0000
0001
0000
0000
0000
0000
,
0001
0000
0010
0000
0001
0000
0100
0000
0001
0000
0000
0100
0000
0000
0000
0000
,
0100
0000
0000
0000
0100
0000
0000
0000
0001
0000
0000
1000
0000
0000
0000
0000
,
1000
0000
0010
0000
1000
0000
0100
0000
1000
0000
0000
0001
0000
0000
0000
0000
,
0001
0000
0000
0010
0000
0000
0100
0000
2000
0000
3000
0000
2000
0000
3000
0000
,
0001
0000
0000
0100
0000
0000
0010
0000
1000
0000
0001
0000
2000
0000
3000
0000
,
0100
0000
0000
0010
0000
0000
0001
0000
2000
0000
3000
0000
2000
0000
3000
0000
,
0010
0000
0000
0010
0000
0000
0100
0000
0001
0000
1000
0000
0001
0000
1000
0000
,
0100
0010
0100
0010
0001
1000
0010
1000
,
0001
0010
0001
0100
0010
1000
0100
0010
,
0001
0100
0010
1000
0001
1000
0001
1000
,
0010
0100
0010
0100
0002
0000
0000
0000
,
1003
0100
1000
0100
2200
3300
2200
3300
,
0100
0010
0100
0010
0001
0100
0202
0303
,
0001
1000
0100
0010
0022
0033
0022
0033
,
0001
0000
0100
0000
0001
0000
0000
1000
0000
1000
0000
1000
0000
0000
0000
0000
,
0001
0100
0001
0100
0202
0303
0202
0303
,
0100
0010
0100
0010
1000
0100
2200
3300
,
0100
0010
0001
0010
0022
0033
0022
0033
,
1000
0000
1000
0000
0000
0000
0000
0001
0000
0001
0000
0001
0000
0000
0100
0000
,
0010
1000
0100
0010
0220
0330
0220
0330
,
0100
0001
0100
1000
0010
0100
0202
0303
,
0001
0010
0001
0010
0220
0330
0220
0330
,
0100
0000
1000
0000
0000
0000
0000
0001
0000
0100
0000
0001
0000
0000
0010
0000
,
0100
1000
0010
0001
2002
3003
2002
3003
,
0001
1000
0100
0010
1000
0001
2002
3003
,
1000
0000
0000
0001
1000
0001
2000
0000
0000
3010
1000
0010
,
2000
0000
0002
3003
,
1000
1000
0100
0000
0100
0100
0010
0000
,
0010
0010
0001
0000
1000
0001
1000
0001
,
0010
0001
0000
0000
0010
0001
0000
0000
,
1000
0100
0010
0000
0000
1000
0100
0010
,
0001
0001
0100
0000
0100
0100
0010
0000
,
0010
0010
1000
0000
0000
0100
0100
1000
,
0010
0100
0000
0000
0010
0100
0000
0000
,
0101
0000
0001
0010
0100
1000
0010
0100
,
0001
0000
0000
0101
0000
0000
0000
0000
1000
0000
0000
1100
0000
0000
0000
0000
,
0100
0000
0000
0110
0000
0000
0000
0000
0010
0000
0000
0110
0000
0000
0000
0000
,
1000
0000
0000
0011
0000
0000
0000
0000
0001
0000
0000
1010
0000
0000
0000
0000
,
1000
0000
0000
0101
0000
0000
0000
0000
0001
0000
0000
1100
0000
0000
0000
0000
,
1001
0000
0000
0000
;

//---------------dance-single - Blank----------------
#NOTEDATA:;
#CHARTNAME:;
#STEPSTYPE:dance-single;
#DESCRIPTION:Blank;
#CHARTSTYLE:;
#DIFFICULTY:Beginner;
#METER:3;
#RADARVALUES:0.158,0.166,0.119,0.000,0.000,100.000,12.000,0.000,0.000,0.000,0.000,0.000,0.000,0.158,0.166,0.119,0.000,0.000,100.000,12.000,0.000,0.000,0.000,0.000,0.000,0.000;
#CREDIT:RIME;
#NOTES:
// measure 0
0000
0000
0000
0000
,  // measure 1
0000
0000
0000
0000
,  // measure 2
0000
0000
0000
0000
,  // measure 3
0000
0000
0000
0000
,  // measure 4
1000
0000
1000
0000
,  // measure 5
0001
0001
0001
0000
,  // measure 6
0100
0000
0100
0000
,  // measure 7
0010
0010
0010
0000
,  // measure 8
1000
0000
1000
0000
,  // measure 9
0100
0100
0100
0000
,  // measure 10
0010
0000
0010
0000
,  // measure 11
0001
0001
0001
0000
,  // measure 12
1001
0000
0000
0000
,  // measure 13
0110
0000
0000
0000
,  // measure 14
1001
0000
0000
0000
,  // measure 15
0110
0000
0000
0000
,  // measure 16
1001
0000
1000
0000
,  // measure 17
0001
0000
1000
0000
,  // measure 18
0110
0000
0100
0000
,  // measure 19
0010
0000
0100
0000
,  // measure 20
0001
0001
0001
0000
,  // measure 21
1000
0000
1000
0000
,  // measure 22
0010
0010
0010
0000
,  // measure 23
0100
0000
0100
0000
,  // measure 24
1000
1000
1000
0000
,  // measure 25
0001
0000
0001
0000
,  // measure 26
0100
0100
0100
0000
,  // measure 27
0010
0000
0010
0000
,  // measure 28
1000
1000
0001
0000
,  // measure 29
0001
0000
1000
0000
,  // measure 30
0100
0100
0010
0000
,  // measure 31
0010
0000
0100
0000
,  // measure 32
0001
0001
1000
0000
,  // measure 33
1000
0000
0001
0000
,  // measure 34
0010
0010
0100
0000
,  // measure 35
0110
0000
0000
0000
,  // measure 36
0100
0100
0100
0000
,  // measure 37
0010
0010
0010
0010
,  // measure 38
0010
0000
0100
0000
,  // measure 39
0010
0100
0010
0000
,  // measure 40
1000
1000
1000
0000
,  // measure 41
0001
0001
0001
0001
,  // measure 42
0001
0000
1000
0000
,  // measure 43
0001
1000
0001
0000
,  // measure 44
1001
0000
0000
0000
,  // measure 45
0110
0000
0000
0000
,  // measure 46
1001
0000
0000
0000
,  // measure 47
0110
0000
0000
0000
,  // measure 48
1001
0000
0000
0000
;
