#VERSION:0.81;
#TITLE:Poker Face;
#SUBTITLE:;
#ARTIST:Lady Gaga;
#TITLETRANSLIT:;
#SUBTITLETRANSLIT:;
#ARTISTTRANSLIT:;
#GENRE:Pop;
#ORIGIN:;
#CREDIT:;
#BANNER:Poker Face-jacket.png;
#BACKGROUND:Poker Face-bg.png;
#PREVIEWVID:;
#JACKET:Poker Face-jacket.png;
#CDIMAGE:;
#DISCIMAGE:;
#LYRICSPATH:;
#CDTITLE:;
#MUSIC:Poker Face.mp3;
#OFFSET:-0.011;
#SAMPLESTART:52.420;
#SAMPLELENGTH:15.000;
#SELECTABLE:YES;
#BPMS:0.000=119.000,
100.000=59.500,
102.000=119.000;
#STOPS:;
#DELAYS:;
#WARPS:;
#TIMESIGNATURES:0.000=4=4,
100.000=2=4,
102.000=4=4;
#TICKCOUNTS:0.000=4;
#COMBOS:0.000=1;
#SPEEDS:0.000=1.000=0.000=0;
#SCROLLS:0.000=1.000;
#FAKES:;
#LABELS:0.000=Song Start;
#BGCHANGES:-0.250=Poker Face.avi=1.000=0=0=0=StretchNoLoop====,
99999=-nosongbg-=1.000=0=0=0 // don't automatically add -songbackground-
;
#KEYSOUNDS:;
#ATTACKS:
;

//---------------dance-single - ----------------
#NOTEDATA:;
#CHARTNAME:;
#STEPSTYPE:dance-single;
#DESCRIPTION:;
#CHARTSTYLE:;
#DIFFICULTY:Hard;
#METER:10;
#RADARVALUES:0.483,0.408,0.230,0.064,0.013,241.000,18.000,5.000,0.000,0.000,0.000,0.000,0.000,0.483,0.408,0.230,0.064,0.013,241.000,18.000,5.000,0.000,0.000,0.000,0.000,0.000;
#CREDIT:RIME;
#OFFSET:-0.011;
#BPMS:0.000=119.000
,100.000=59.500
,102.000=119.000
;
#STOPS:;
#DELAYS:;
#WARPS:;
#TIMESIGNATURES:0.000=4=4
;
#TICKCOUNTS:0.000=4
;
#COMBOS:0.000=1
;
#SPEEDS:0.000=1.000=0.000=0
;
#SCROLLS:0.000=1.000
;
#FAKES:;
#LABELS:0.000=Song Start
;
#DISPLAYBPM:119.000;
#NOTES:
1000
0100
1000
0100
0010
0100
0010
0100
,
1000
0100
1000
0100
0001
0100
0001
0100
,
0001
1000
0001
1000
0001
1000
0001
1000
,
0001
1000
0001
1000
0010
0100
0010
0100
,
0001
1000
0001
1000
0001
1000
0001
1000
,
0001
1000
0001
1000
0100
0010
0100
0010
,
0001
0000
0101
0000
1000
1000
1100
0000
,
0001
0001
0011
0000
1000
0010
1000
0010
,
0100
0000
0101
0000
0100
0100
1100
0000
,
0010
0010
1010
0000
0001
0010
0001
0010
,
0100
1000
0010
1000
0100
0010
0001
0100
,
0001
0100
0010
1000
0100
0000
0110
0000
,
1000
0100
0010
0100
1000
0100
0001
0100
,
0010
0001
0010
0001
0011
0001
0100
0100
,
0010
1000
0100
0010
0100
0100
0010
0100
,
0001
0100
0010
0001
0100
0000
0000
0010
,
1000
0010
0100
0001
0010
0100
1000
0010
,
0001
0010
1000
0010
0100
0000
0110
0000
,
1002
0000
0000
0100
0010
0000
1003
0000
,
2001
0000
0000
0100
0010
0100
3010
0000
,
1000
0100
1000
0100
0010
0000
0000
1000
,
0100
1000
0100
0010
0000
0000
0000
0000
,
1002
0000
0000
0010
0100
0000
1003
0000
,
2001
0000
0000
0010
0100
0010
3100
0000
,
0001
0100
0001
0100
0010
0000
0000
1000
,
0200
1000
0010
0301
0000
0000
0000
0000
1000
0000
0010
0000
1000
0000
0100
0000
,
0000
0010
1000
0100
0000
0010
1000
0100
,
0001
0000
1000
0000
1001
0000
0001
1001
,
0000
0000
0000
0000
1000
0000
1000
0010
,
0100
0001
0100
0000
0001
0010
0001
0100
,
0000
0010
0001
0100
0000
0010
0001
0100
,
1000
0000
0001
0000
1001
0000
1000
1001
,
0000
0000
0000
0000
0001
0000
0001
0010
,
0100
1000
0100
0000
0100
1000
1000
1000
,
0100
1000
0100
1000
1000
1000
0100
1000
,
0000
0010
0010
0010
0100
0001
0001
0001
,
0100
0001
0100
0001
0001
0001
0100
0001
,
0000
0010
0010
0010
0110
0000
0000
0000
;

//---------------dance-single - Blank----------------
#NOTEDATA:;
#CHARTNAME:;
#STEPSTYPE:dance-single;
#DESCRIPTION:Blank;
#CHARTSTYLE:;
#DIFFICULTY:Easy;
#METER:5;
#RADARVALUES:0.243,0.216,0.230,0.051,0.000,111.000,18.000,4.000,0.000,0.000,0.000,0.000,0.000,0.243,0.216,0.230,0.051,0.000,111.000,18.000,4.000,0.000,0.000,0.000,0.000,0.000;
#CREDIT:;
#OFFSET:-0.011;
#BPMS:0.000=119.000
,100.000=59.500
,102.000=119.000
;
#STOPS:;
#DELAYS:;
#WARPS:;
#TIMESIGNATURES:0.000=4=4
;
#TICKCOUNTS:0.000=4
;
#COMBOS:0.000=1
;
#SPEEDS:0.000=1.000=0.000=0
;
#SCROLLS:0.000=1.000
;
#FAKES:;
#LABELS:0.000=Song Start
;
#NOTES:
0000
0000
0000
0000
,
0000
0000
0000
0000
,
1000
0000
1000
0000
,
0001
0000
0002
0000
,
0103
0000
0100
0000
,
0010
0000
0020
0030
,
1010
0000
1000
0000
,
0001
0000
0002
0000
,
0103
0110
0010
0000
,
0010
0110
0200
0300
,
0001
1000
0100
1000
,
0001
0100
0001
0000
,
1000
0001
0100
0001
,
1000
0100
1000
0000
,
0010
1000
0100
0010
,
0001
0100
1000
0000
,
0010
0001
1000
0100
,
0010
1000
0100
0000
,
0110
0000
1001
0000
,
0011
0000
1100
0000
,
1000
0100
0001
0000
,
1000
0010
0001
0000
,
0110
0000
1001
0000
,
1010
0000
0101
0000
,
0001
0010
1000
0000
,
0001
0100
1000
0000
1001
0000
1000
0000
,
1001
0001
1000
0100
,
0010
0001
1000
0000
,
1010
0000
0001
0010
,
0100
1000
1001
0001
,
1001
1000
0100
0010
,
0100
1000
1010
0000
,
0010
0000
0100
0001
,
0010
0100
1000
1000
,
0100
1000
0100
0100
,
0100
1000
1000
0001
,
0001
0100
0001
0001
,
0001
0100
0101
0000
;

//---------------dance-single - Blank----------------
#NOTEDATA:;
#CHARTNAME:;
#STEPSTYPE:dance-single;
#DESCRIPTION:Blank;
#CHARTSTYLE:;
#DIFFICULTY:Medium;
#METER:6;
#RADARVALUES:0.329,0.312,0.230,0.128,0.000,152.000,18.000,10.000,0.000,0.000,0.000,0.000,0.000,0.329,0.312,0.230,0.128,0.000,152.000,18.000,10.000,0.000,0.000,0.000,0.000,0.000;
#CREDIT:;
#NOTES:
0000
0000
0000
0000
,
0000
0000
0000
0000
,
0010
0010
0100
0100
,
1000
0001
1000
0001
,
0010
0010
0100
0100
,
1000
0000
0001
0000
1000
0001
1000
0001
,
0100
0101
0001
0011
,
0010
0110
0100
1100
,
1000
1010
0010
0011
,
0010
0000
0110
0000
0100
0001
0100
0001
,
0100
0010
1000
0001
,
1000
0100
1000
0100
1000
0000
0000
0000
,
0001
1000
0001
0000
1000
0100
1000
0000
,
0100
0010
0100
0010
0100
0000
0000
0000
,
0010
0001
0100
0000
0010
1000
0100
0000
,
0010
0001
0100
0010
1000
0000
0000
0000
,
0001
1000
0001
0000
1000
0010
1000
0000
,
0001
0010
0001
1000
0100
0000
0000
0000
,
0210
0000
1000
0301
,
0201
0000
1000
0310
,
1200
0000
0010
0301
,
2002
0000
0000
3003
,
0210
0000
1000
1300
,
2100
0000
0001
3001
,
1002
0000
0010
0013
,
0220
0000
0330
0100
,
0000
0110
0010
0001
,
0100
1000
0010
0100
,
0000
0110
0100
0001
,
0010
0100
0000
1000
,
0000
1100
1000
0001
,
0100
0001
0100
0000
0010
0000
1000
0100
,
0000
0000
0010
0100
,
0010
0100
0010
0000
0100
1000
0100
1000
,
0100
1000
0100
1000
0001
1000
0001
1000
,
0000
0000
0000
0000
0100
0001
0100
0001
,
0100
0001
0100
0001
1000
0001
1000
0001
,
0000
0010
0010
0000
;

//---------------dance-single - Blank----------------
#NOTEDATA:;
#CHARTNAME:;
#STEPSTYPE:dance-single;
#DESCRIPTION:Blank;
#CHARTSTYLE:;
#DIFFICULTY:Beginner;
#METER:1;
#RADARVALUES:0.071,0.096,0.077,0.000,0.000,33.000,6.000,0.000,0.000,0.000,0.000,0.000,0.000,0.071,0.096,0.077,0.000,0.000,33.000,6.000,0.000,0.000,0.000,0.000,0.000,0.000;
#CREDIT:RIME;
#NOTES:
// measure 0
0000
0000
0000
0000
,  // measure 1
0000
0000
0000
0000
,  // measure 2
1000
0000
0000
0000
,  // measure 3
0000
0000
0000
0000
,  // measure 4
1000
0000
0000
0000
,  // measure 5
0000
0000
0000
0000
,  // measure 6
1001
0000
0000
0000
,  // measure 7
0000
0000
0000
0000
,  // measure 8
0001
0000
0000
0000
,  // measure 9
0000
0000
0000
0000
,  // measure 10
0010
0000
0000
0000
,  // measure 11
0010
0000
0000
0000
,  // measure 12
0100
0000
0000
0000
,  // measure 13
0100
0000
0000
0000
,  // measure 14
0010
0000
0000
0000
,  // measure 15
0001
0000
0000
0000
,  // measure 16
0100
0000
0000
0000
,  // measure 17
1000
0000
0000
0000
,  // measure 18
0110
0000
0000
0000
,  // measure 19
0000
0000
0000
0000
,  // measure 20
1001
0000
0000
0000
,  // measure 21
0000
0000
0000
0000
,  // measure 22
0110
0000
0000
0000
,  // measure 23
0000
0000
0000
0000
,  // measure 24
1001
0000
0000
0000
,  // measure 25
0000
0000
0010
0000
,  // measure 26
0000
0000
0010
0000
,  // measure 27
0000
0000
0100
0000
,  // measure 28
0000
0000
0100
0100
,  // measure 29
0100
0000
0010
0000
,  // measure 30
0000
0000
0010
0000
,  // measure 31
0000
0000
0100
0000
,  // measure 32
0000
0000
0100
0100
,  // measure 33
0100
0000
0001
0000
,  // measure 34
0000
0000
0001
0000
,  // measure 35
0000
0000
1000
0000
,  // measure 36
0000
0000
1000
0000
,  // measure 37
0000
0000
1001
0000
;
