#TITLE:Paradise;
#SUBTITLE:;
#ARTIST:Coldplay;
#TITLETRANSLIT:;
#SUBTITLETRANSLIT:;
#ARTISTTRANSLIT:;
#GENRE:Pop;
#CREDIT:;
#BANNER:Paradise.png;
#BACKGROUND:Paradise-bg.png;
#LYRICSPATH:;
#CDTITLE:;
#MUSIC:Paradise.mp3;
#OFFSET:-0.025;
#SAMPLESTART:64.840;
#SAMPLELENGTH:15.000;
#SELECTABLE:YES;
#BPMS:0.000=140.000
,64.000=139.600
,151.000=139.500
,175.000=140.100
,216.000=134.900
,231.000=138.000
,239.000=125.000
,240.000=116.000
,241.000=112.000
,242.000=107.500
;
#STOPS:
;
#BGCHANGES:0.000=Paradise.avi=1.000=0=0=1=====,
99999=-nosongbg-=1.000=0=0=0 // don't automatically add -songbackground-
;
#KEYSOUNDS:;
#ATTACKS:;

//---------------dance-single - ----------------
#NOTES:
     dance-single:
     :
     Hard:
     10:
     0.404,0.408,0.242,0.278,0.013,258.000,27.000,31.000,0.000,0.000,0.000,0.404,0.408,0.242,0.278,0.013,258.000,27.000,31.000,0.000,0.000,0.000: // measure 0
1000
1000
1010
1000
,  // measure 1
0001
0010
0001
0000
0011
0000
0001
0000
,  // measure 2
1000
1000
1100
1000
,  // measure 3
0001
0100
0001
0000
0101
0000
0001
0000
,  // measure 4
1000
0010
1010
1000
,  // measure 5
0001
0000
0010
0000
0001
0000
0000
0000
0011
0000
0000
0000
0010
0000
0010
0100
,  // measure 6
1000
0100
1100
1000
,  // measure 7
0001
0100
0101
0000
0101
0000
0100
0000
,  // measure 8
0010
1000
1100
1000
,  // measure 9
0001
0010
0001
0000
0011
0000
0001
0000
,  // measure 10
0100
0001
0011
0010
,  // measure 11
0100
1000
0100
0000
1100
0000
1000
0000
,  // measure 12
0001
0010
0002
0000
0013
0100
0020
0000
,  // measure 13
0000
0000
0130
1000
0100
0000
0000
0000
,  // measure 14
1000
0010
2000
0000
3010
0100
0020
0000
,  // measure 15
0000
0000
0130
0001
1000
0000
0000
0000
,  // measure 16
0100
1000
0010
0000
0100
0001
0020
0000
,  // measure 17
0000
0000
0130
1000
0001
0000
0000
0000
,  // measure 18
1000
0010
1000
0000
0001
0010
0002
0000
,  // measure 19
0000
0000
0013
0100
1000
0000
0001
0010
,  // measure 20
0100
1000
0010
0000
0100
0001
0020
0000
,  // measure 21
0000
0000
0130
1000
0001
0000
0100
0001
,  // measure 22
0010
0001
0010
0000
0001
0100
0002
0000
,  // measure 23
0000
0000
1003
0100
0010
0000
0000
0000
,  // measure 24
1000
0000
1100
0000
0110
0000
0010
0100
,  // measure 25
0000
1000
0000
0001
0000
0100
0000
0000
,  // measure 26
0001
0000
0101
0000
0110
0000
0010
0200
,  // measure 27
0000
0000
0301
0100
0010
0000
0000
0000
,  // measure 28
1000
0000
1010
0000
0110
0000
0100
0020
,  // measure 29
0000
0000
1030
0001
0000
0100
0010
1000
,  // measure 30
0100
0000
0000
0000
0000
0000
0010
0000
0001
0000
0000
0100
0000
0000
0010
0000
,  // measure 31
0000
0000
0000
0010
1000
0000
0001
0000
,  // measure 32
1000
0200
0000
0000
0000
0000
0000
0000
,  // measure 33
0300
0000
0000
0000
0000
0010
0001
0100
,  // measure 34
0000
0000
0000
0000
0000
0000
0010
0000
1000
0000
0000
0100
0000
0000
0001
0000
,  // measure 35
0000
0000
0000
0100
1000
0000
0010
0000
,  // measure 36
1000
0002
0000
0000
0000
0000
0000
0000
,  // measure 37
0000
0000
0000
0000
0000
1003
0100
0010
,  // measure 38
0001
0200
0000
0000
0301
0200
0000
0000
,  // measure 39
0000
0000
0301
0100
0100
0000
0000
0000
,  // measure 40
1000
0200
0000
0000
1300
0200
0000
0000
,  // measure 41
0000
0000
1300
0100
0100
0000
0000
0000
,  // measure 42
0001
0020
0000
0000
0031
0020
0000
0000
,  // measure 43
0000
0000
0031
0010
0010
0000
0000
0000
,  // measure 44
0011
0000
0110
0000
1100
0000
1000
0001
,  // measure 45
0000
0000
0110
0000
1010
1000
0100
0010
,  // measure 46
0001
0020
0000
0000
0031
0020
0000
0000
,  // measure 47
0000
0000
0031
0010
0010
0000
0000
0000
,  // measure 48
1000
0020
0000
0000
1030
0020
0000
0000
,  // measure 49
0000
0000
1030
0010
0010
0000
0000
0000
,  // measure 50
1000
0002
0000
0000
1003
0002
0000
0000
,  // measure 51
0000
0000
1003
0001
0001
0000
0000
0000
,  // measure 52
0011
0000
0110
0000
1100
0000
0100
0020
,  // measure 53
0000
0000
0031
0100
1000
0000
0000
0000
,  // measure 54
1000
0100
2000
0000
3100
0001
0200
0000
,  // measure 55
0000
0000
0301
0010
0001
0000
0000
0000
,  // measure 56
0010
0001
0020
0000
0130
1000
0200
0000
,  // measure 57
0000
0000
0310
0100
1000
0000
0000
0000
,  // measure 58
1000
0001
0200
0000
0301
1000
0200
0000
,  // measure 59
0000
0000
1300
0001
0010
0000
0000
0000
,  // measure 60
1000
0010
0100
0000
0001
0010
0100
0000
;

//---------------dance-single - ----------------
#NOTES:
     dance-single:
     :
     Medium:
     6:
     0.294,0.349,0.197,0.296,0.000,175.000,22.000,33.000,0.000,0.000,0.000,0.294,0.349,0.197,0.296,0.000,175.000,22.000,33.000,0.000,0.000,0.000:
2000
0000
0000
3020
,
0000
0000
0000
0000
,
2030
0000
0000
3002
,
0000
0000
0000
0000
,
0023
0000
0000
0230
,
0000
0000
0000
0000
,
2300
0000
0000
3002
,
0000
0010
0010
0013
,
0012
0000
0000
0203
,
0000
0010
0310
0000
,
2010
0000
0000
3200
,
0000
0000
0010
0310
,
0100
0000
1000
0000
0001
0010
0002
0000
,
0000
0000
1003
0010
1000
0000
0000
0000
,
0100
0000
0001
0000
1000
0010
2000
0000
,
0000
0000
3001
0010
0001
0000
0000
0000
,
1001
0000
0000
0000
1000
0100
0010
0000
,
0000
0000
0001
0100
1000
0000
0000
0000
,
1001
0000
0000
0000
0001
0100
0010
0000
,
0000
0000
1000
0100
0001
0000
0001
0000
,
1001
0000
0000
0000
1000
0010
0001
0000
,
0000
0000
0001
0100
0010
0000
1000
0000
,
1001
0000
0000
0000
0001
0010
1000
0000
,
0000
1000
0001
1000
,
0101
0000
0001
0000
1000
0000
0000
0100
,
0000
0010
0000
0001
0000
0000
0000
0000
,
0101
0000
0001
0000
1000
0000
0000
0100
,
0000
0010
1000
0000
,
1010
0000
1000
0000
0001
0000
0000
0001
,
0000
0000
0010
0100
0000
0000
1000
0010
,
0100
0000
0000
0100
0001
0000
0000
0010
,
0000
0100
1000
0001
,
0200
0000
0000
0000
,
0000
0000
0000
0000
0300
0001
0100
1000
,
0000
0000
0000
0100
0010
0000
0000
1000
,
0000
0001
1000
0100
,
0020
0000
0000
0000
,
0000
0000
0000
0000
0030
0100
0100
1000
,
0002
0003
0002
0003
,
0000
0000
1000
0001
0001
0000
0000
0000
,
2000
3000
2000
3000
,
0000
0000
0001
1000
2000
0000
3000
0000
,
0020
0030
0020
0030
,
0000
0000
0100
0010
0010
0000
0000
0000
,
0101
0011
0101
0000
,
1100
1010
1100
1000
,
0002
0003
0002
0003
,
0000
0000
1000
0001
0002
0000
0003
0000
,
2000
3000
2000
3000
,
0000
0000
0001
1000
2000
0000
3000
0000
,
0020
0030
0020
0030
,
0000
0000
0100
0010
0010
0000
0000
0000
,
1010
1100
1010
0000
,
0011
0101
0011
0000
,
1000
0000
1000
0000
0001
0010
0002
0000
,
0000
0000
1003
0010
1000
0000
0000
0000
,
0010
0000
0010
0000
0100
0001
0200
0000
,
0000
0000
0310
1000
0010
0000
0000
0000
,
1000
0100
0010
0000
0010
0100
1000
0000
,
0000
0000
0001
0100
0010
0000
0000
0000
,
1001
0000
0000
0000
;

//---------------dance-single - ----------------
#NOTES:
     dance-single:
     :
     Easy:
     4:
     0.193,0.218,0.161,0.188,0.000,112.000,18.000,21.000,0.000,0.000,0.000,0.193,0.218,0.161,0.188,0.000,112.000,18.000,21.000,0.000,0.000,0.000:
1000
0000
0000
0100
,
0000
0000
0000
0000
,
1000
0000
0000
0010
,
0000
0000
0000
0000
,
0001
0000
0000
0100
,
0000
0000
0000
0000
,
0001
0000
0000
0010
,
0000
0010
0010
0010
,
0100
0000
0000
1000
,
0000
0000
0000
0000
,
0100
0000
0000
0001
,
0000
0000
0000
0000
,
2000
0000
3020
0000
,
0000
0130
0001
0000
,
0002
0000
0023
0000
,
0000
0130
1000
0000
,
1001
0000
0000
0101
,
0000
0000
0000
0000
,
1001
0000
0000
1100
,
0000
0000
0000
1000
,
1001
0000
0000
0011
,
0000
0000
0000
0001
,
1001
0000
0000
1010
,
0000
0010
0100
0000
,
0001
1000
0100
0000
,
1000
0001
0100
0000
,
0100
0010
1000
0000
,
0100
1000
0010
0000
,
0100
0010
0001
0000
,
0100
0001
0010
0000
,
0110
0000
1001
0000
,
0110
0000
1001
0000
,
0200
0000
0000
0000
,
0000
0000
0000
0300
,
1001
0000
0110
0000
,
1001
0000
0110
0000
,
0020
0000
0000
0000
,
0000
0000
0000
0130
,
0200
0300
0200
0300
,
0000
0001
0100
0000
,
0200
0300
0200
0300
,
0000
1000
0100
0000
,
0020
0030
0020
0030
,
0000
0001
0010
0000
,
0010
1000
0001
0000
,
1000
0001
0100
0001
,
2000
3000
2000
3000
,
0000
0001
1000
0000
,
0002
0003
0002
0003
,
0000
1000
0001
0000
,
0020
0030
0020
0030
,
0000
0100
0010
0000
,
1000
0100
0001
0100
,
1000
0010
0001
0000
,
1001
0000
0000
0000
,
0000
0000
0000
0000
,
1001
0000
0000
0000
,
0000
0000
0000
0000
,
2000
0000
3020
0000
,
0000
0130
0001
0000
,
0002
0000
0000
0000
0013
0100
1000
0000
;

//---------------dance-single - ----------------
#NOTES:
     dance-single:
     :
     Beginner:
     3:
     0.088,0.108,0.072,0.143,0.000,45.000,8.000,16.000,0.000,0.000,0.000,0.088,0.108,0.072,0.143,0.000,45.000,8.000,16.000,0.000,0.000,0.000:
0000
0000
0000
0000
,
0000
0000
0000
0000
,
0000
0000
0000
0000
,
0000
0000
0000
0000
,
0000
0000
0000
0000
,
0000
0000
0000
0000
,
0000
0000
0000
0000
,
0000
0000
0000
0000
,
1000
0000
0000
0000
,
0001
0000
0000
0000
,
1000
0000
0000
0000
,
0100
0000
0000
0000
,
1000
0000
0010
0000
,
0000
0000
0001
0000
,
0001
0000
0010
0000
,
0000
0000
1000
0000
,
0100
0000
0000
0000
,
1100
0000
0000
0000
,
0001
0000
0000
0000
,
0011
0000
0000
0000
,
0010
0000
0000
0000
,
0101
0000
0000
0000
,
0100
0000
0000
0000
,
1010
0000
0000
0000
,
1000
0000
0001
0000
,
1000
0000
0000
0000
,
0001
0000
1000
0000
,
0001
0000
0000
0000
,
0010
0000
0100
0000
,
0010
0000
0000
0000
,
0200
0000
0000
0000
,
0000
0000
0000
0300
,
2000
0000
0000
0000
,
0000
0000
0000
3000
,
0002
0000
0000
0000
,
0000
0000
0000
0003
,
0200
0000
0000
0000
,
0000
0000
0000
0310
,
0020
0000
0000
0000
,
0000
0000
0000
0030
,
2020
0000
0000
0000
,
0000
0000
0000
3030
,
0022
0000
0000
0000
,
0000
0000
0000
0033
,
0200
0000
0000
0000
,
0000
0000
0000
0310
,
0020
0000
0000
0000
,
0000
0000
0000
0030
,
2020
0000
0000
0000
,
0000
0000
0000
3030
,
0022
0000
0000
0000
,
0000
0000
0000
0033
,
0200
0000
0000
0000
,
0000
0000
0000
0300
,
0010
0000
0000
0000
,
0000
0000
0000
0000
,
0010
0000
0000
0000
,
0000
0000
0000
0000
,
0100
0000
0000
0000
,
0000
0000
0000
0000
,
0100
0000
0000
0000
;
