#TITLE:Make a New Dance Up;
#SUBTITLE:;
#ARTIST:Hey Ocean;
#TITLETRANSLIT:;
#SUBTITLETRANSLIT:;
#ARTISTTRANSLIT:;
#GENRE:Pop-Rock;
#CREDIT:;
#BANNER:Make a New Dance Up.png;
#BACKGROUND:Make a New Dance Up-bg.png;
#LYRICSPATH:;
#CDTITLE:;
#MUSIC:Make a New Dance Up.mp3;
#OFFSET:-0.036;
#SAMPLESTART:47.980;
#SAMPLELENGTH:15.000;
#SELECTABLE:YES;
#BPMS:0.000=122.000
;
#STOPS:
;
#BGCHANGES:;
#KEYSOUNDS:;
#ATTACKS:;

//---------------dance-single - ----------------
#NOTES:
     dance-single:
     :
     Hard:
     13:
     0.622,0.586,0.280,0.120,0.736,494.000,35.000,15.000,0.000,0.000,0.000,0.622,0.586,0.280,0.120,0.736,494.000,35.000,15.000,0.000,0.000,0.000:
0001
0000
0000
0000
0001
0000
0000
1000
0100
1000
0100
1000
0001
0100
0001
1000
,
0100
0000
1000
0000
0100
0000
0010
0000
0100
0000
0000
1000
0000
0010
0000
0000
,
1000
0000
0001
0000
0100
0000
0001
0000
0010
0000
0000
0100
0000
1000
0000
0000
,
0001
0000
0100
0000
0001
0000
0010
0000
0100
0000
0000
0010
0000
0001
0000
0000
,
0100
0000
0010
0000
1000
0000
0001
0000
0010
0000
0000
0100
0000
0010
0000
0000
,
0110
0000
0100
0000
1000
0000
0001
0000
0100
0000
0000
0001
0000
0010
0000
0000
,
0100
0000
1000
0000
0001
0000
0010
0000
0001
0000
0000
1000
0000
0010
0000
0000
,
1000
0000
0100
0000
0001
0000
0100
0000
1000
0000
0000
0010
0000
0001
0000
0000
,
0010
0000
0100
0000
0001
0000
1000
0000
0100
0010
0000
0001
0000
1000
0000
0100
,
0010
0000
0000
0000
0110
0000
0000
0000
1000
0000
0100
1000
0000
0010
0000
0000
,
0110
0000
0000
0000
0100
0000
0000
0000
0001
0000
0100
0001
0000
0010
0000
0000
,
0110
0000
0000
0000
0000
0000
1000
0001
1000
0000
0010
1000
0000
0100
0000
0000
,
0110
0000
0000
0000
1001
0000
0001
0000
0100
0000
0000
0010
0000
1000
0000
0000
,
1001
0000
0000
0000
0001
0000
0000
0000
0010
0000
0100
1000
0000
0010
0000
0000
,
1010
0000
0000
0000
0001
0000
0000
0000
0010
0000
0100
0001
0000
0100
0000
0000
,
0010
0000
0000
0000
0000
0000
1000
0001
0100
0000
0100
0010
0000
1000
0000
0000
,
0100
0000
0000
0000
0000
0000
0010
0000
0011
0000
0001
1000
0000
0010
0000
0000
,
0000
0000
1000
0010
1000
0000
0001
0010
0001
0000
1000
0000
0100
0000
0010
0000
,
0002
0000
2003
0000
3200
0000
1300
1000
,
0000
0001
0100
0001
0100
0010
1000
0001
,
0100
0000
0000
0000
0101
0000
0000
0000
0011
0000
0000
0001
1000
0000
0000
0000
,
0000
0000
0001
0100
0001
0000
1000
0100
1000
0000
0001
0000
0100
0000
0010
0000
,
2000
0000
3002
0000
0023
0000
0031
0002
,
2000
0000
0000
3003
,
1001
0000
0000
0000
0000
0000
1000
0000
0100
0000
0010
0100
0000
0100
1000
0000
,
0001
0000
0100
0000
0001
0000
0100
0000
0010
0000
1000
0100
0000
0100
0010
0000
,
0001
0000
1000
0000
0001
0000
1000
0000
0100
0000
0010
0100
0000
0000
0100
0000
,
0000
1000
0100
0010
0001
1000
0100
0010
0001
0100
0000
0100
0000
0000
0000
0000
,
0000
0001
0010
0100
1000
0001
0010
0100
1000
0000
0001
1000
0000
1000
0100
0000
,
0010
0000
0100
0000
1000
0000
0001
0000
0100
0000
0001
0010
0000
0010
0100
0000
,
1000
0000
0001
0000
0100
0000
0001
0000
0010
0000
0100
1000
0000
0000
0001
0000
,
0000
1000
0010
0100
0001
1000
0010
0100
0001
0010
0000
0010
0000
0000
0000
0000
,
0000
0001
0010
0100
1000
0001
0010
0100
1000
0100
0000
0100
0000
0010
0100
1000
,
0001
0100
0010
0100
0001
0100
0010
0100
0001
1000
0000
1000
0000
0000
0000
0000
,
1000
0010
0100
0010
1000
0010
0100
0010
1000
0001
0000
0001
0000
0000
0000
0000
,
0001
1000
0100
1000
0001
1000
0010
1000
0001
0100
0000
0100
0000
0000
0000
0000
,
0001
1000
0010
0100
0001
1000
0100
0010
0001
1000
0000
0100
0000
0110
0000
0000
,
1001
0000
0000
0000
1100
0000
0000
0000
0100
0000
0010
0100
0000
0010
0000
0000
,
0110
0000
0000
0000
1010
0000
0000
0000
0010
0000
0001
0100
0000
1000
0000
0000
,
1100
0000
0000
0000
0000
0000
0100
0010
0100
0000
0010
1000
0000
0100
0000
0000
,
0110
0000
0000
0000
0010
0000
0100
0000
1000
0001
0000
0100
0000
0010
0000
0000
,
0000
0000
1000
0100
0010
0000
0001
0100
0010
0000
1000
0010
0000
0000
1000
0000
,
0002
0000
0203
0000
2300
0000
3010
0001
,
0000
0000
0110
0000
1001
1000
0100
1000
,
1100
0000
0000
0000
0011
0000
0000
0000
0001
0100
0000
0100
0000
0010
1000
0001
,
0010
0000
0001
0010
0100
0000
1000
0010
0100
0000
0001
0000
0010
0000
0100
0000
,
2000
0000
3020
0000
0032
0000
0103
2000
,
0000
0000
0000
0000
0000
0000
0000
0000
0001
0000
0000
3001
0000
0000
0000
0000
,
0110
0000
0000
0110
0000
0000
0110
0000
0000
0110
0000
0001
0010
0100
1000
0001
,
0100
0000
0001
0000
0010
0000
0100
0000
1000
0000
0001
1000
0000
1000
0001
0000
,
0100
0000
0010
0000
1000
0000
0100
0000
0010
0000
1000
0010
0000
0100
0001
0000
,
0100
1000
0010
1000
0100
1000
0010
1000
0100
0010
0000
0001
0000
0000
0000
0000
,
1000
0001
0100
0001
0010
0100
1000
0010
0100
0000
0001
0100
0000
0100
0010
0000
,
0110
0000
0000
0000
0000
0000
0010
0000
1000
0000
0100
0010
0000
0000
0110
0000
,
0000
0000
0001
0000
1000
0000
0010
0000
0100
0000
1000
0100
0000
0000
0010
0000
,
1000
0100
0010
0100
1000
0010
0100
0010
1000
0001
0000
0110
0000
0000
0000
0000
,
0001
0100
0010
0100
0001
0010
0100
0010
0001
1000
0000
0110
0000
0000
0000
0000
,
1000
0001
0100
0001
1000
0100
0010
0001
0100
0001
0000
0011
0000
0000
0000
0000
,
0001
1000
0100
1000
0001
0100
0010
1000
0001
1000
0000
1001
0000
0000
0000
0000
,
1000
0100
0010
0100
1000
0001
0100
0001
0010
0100
0000
0110
0000
0000
0000
0000
,
0100
1000
0010
0100
0001
0010
0100
1000
0001
0000
0001
0100
0000
0100
0010
0000
,
1010
0000
0000
0000
;

//---------------dance-single - Blank----------------
#NOTES:
     dance-single:
     :
     Beginner:
     4:
     0.150,0.146,0.120,0.000,0.000,116.000,15.000,0.000,0.000,0.000,0.000,0.150,0.146,0.120,0.000,0.000,116.000,15.000,0.000,0.000,0.000,0.000:
0000
0000
0000
0000
,
1000
0000
0000
0000
,
1000
0000
0000
0000
,
0001
0000
0000
0000
,
0001
0000
0000
0000
,
0100
0000
0000
0000
,
0100
0000
0000
0000
,
0010
0000
0000
0000
,
0010
0000
0000
0000
,
1000
0000
0000
0000
,
1100
0000
0000
0000
,
0100
0000
0000
0000
,
1100
0000
0000
0000
,
1000
0000
0000
0000
,
1010
0000
0000
0000
,
0010
0000
0000
0000
,
1010
0000
0000
0000
,
1000
1000
1000
0000
,
0100
0000
0100
0000
,
0001
0001
0001
0000
,
0100
0000
0100
0000
,
1000
1000
1000
0000
,
0010
0000
0010
0000
,
0001
0001
0001
0000
,
0010
0000
0000
0000
,
0110
0000
0000
0000
,
1001
0000
0000
0000
,
1000
1000
1000
0000
,
0001
0001
0001
0000
,
1001
0000
0000
0000
,
0110
0000
0000
0000
,
0010
0010
0010
0000
,
0100
0100
0100
0000
,
1000
1000
1000
0000
,
0100
0100
0100
0000
,
0010
0010
0010
0000
,
0001
0001
0001
0000
,
0001
0000
0000
0000
,
0011
0000
0000
0000
,
0001
0000
0000
0000
,
1001
0000
0000
0000
,
1000
1000
1000
0000
,
0100
0000
0100
0000
,
0001
0001
0001
0000
,
0100
0000
0100
0000
,
1000
1000
1000
0000
,
0010
0000
0010
0000
,
0001
0001
0001
0000
,
0010
0000
0010
0000
,
0110
0000
0000
0000
,
1001
0000
0000
0000
,
1000
1000
1000
0000
,
0001
0001
0001
0000
,
1001
0000
0000
0000
,
0110
0000
0000
0000
,
0010
0010
0010
0000
,
0100
0100
0100
0000
,
1000
1000
1000
0000
,
0100
0100
0100
0000
,
0010
0010
0010
0000
,
0001
0001
0001
0000
,
1001
0000
0000
0000
;

//---------------dance-single - Blank----------------
#NOTES:
     dance-single:
     :
     Easy:
     5:
     0.270,0.220,0.184,0.000,0.000,213.000,23.000,0.000,0.000,0.000,0.000,0.270,0.220,0.184,0.000,0.000,213.000,23.000,0.000,0.000,0.000,0.000:
0100
0100
1000
0001
,
0100
0001
0101
0000
,
0100
0010
0110
0000
,
0100
0001
0101
0000
,
0100
0010
0110
0000
,
0010
1000
1100
0000
,
0010
0100
0110
0000
,
0010
1000
1100
0000
,
0010
0100
0110
0000
,
0001
0001
1000
1000
,
0100
1000
0010
0100
,
0001
0001
1000
1000
,
0100
0010
0001
1000
,
0010
0010
0100
0100
,
0001
1000
0100
0010
,
0100
0100
0010
0010
,
0001
1000
0001
1000
,
0000
0010
0010
1000
,
0100
1000
0010
0100
,
0000
0010
0010
0100
,
0001
0010
0100
0010
,
0000
0100
0100
1000
,
0010
0100
0001
0010
,
0000
0100
0100
0000
,
1001
0000
0010
0010
,
1001
0000
0100
0100
,
1001
0000
0010
0010
,
0001
0010
0100
1000
,
0010
0001
1000
0100
,
0110
0000
0001
0001
,
0110
0000
1000
1000
,
0100
0010
0001
1000
,
0010
0100
0001
1000
,
0100
0100
0100
0010
,
0001
0001
0001
1000
,
0010
0010
0010
0100
,
0001
1000
0001
1001
,
1000
0100
1100
0000
,
1000
0010
1010
0000
,
1000
0100
1100
0000
,
1001
0000
0000
0000
0000
0001
0001
0000
,
0000
1000
1000
0100
,
0010
0100
1000
0001
,
0000
1000
1000
0001
,
0100
0010
1000
0100
,
0000
0001
0001
0100
,
0010
0001
1000
0010
,
0000
0001
0001
0000
,
0010
0000
0000
0010
0000
0000
0010
0000
,
1001
0000
0100
0100
,
1001
0000
0010
0010
,
0001
0010
0100
1000
,
0010
0001
1000
0100
,
0110
0000
1000
1000
,
0110
0000
0001
0001
,
1000
0100
0010
0001
,
0010
0001
1000
0100
,
1000
1000
1000
0001
,
0100
0100
0100
0010
,
1000
1000
1000
0001
,
0100
0010
1000
0001
,
1001
0000
0000
0000
;

//---------------dance-single - Blank----------------
#NOTES:
     dance-single:
     :
     Medium:
     9:
     0.433,0.414,0.040,0.160,0.136,354.000,5.000,20.000,0.000,0.000,0.000,0.433,0.414,0.040,0.160,0.136,354.000,5.000,20.000,0.000,0.000,0.000:
1000
0000
1000
0000
0001
1000
0001
1000
,
0100
0000
0000
0000
0100
0000
0000
0000
0010
0000
0000
0001
0000
0010
0000
0000
,
0100
0000
0000
0000
0100
0000
0000
0000
1000
0000
0000
0010
0000
1000
0000
0000
,
0001
0000
0000
0000
0001
0000
0000
0000
0100
0000
0000
0010
0000
0100
0000
0000
,
0001
0000
0000
0000
0001
0000
0000
0000
1000
0000
0000
0100
0000
0010
0000
0000
,
0100
0000
0000
0000
1000
0000
0000
0000
0001
0000
0000
0001
0000
1000
0000
0000
,
0100
0000
0000
0000
0001
0000
0000
0000
1000
0000
0000
0001
0000
1000
0000
0000
,
0010
0000
0000
0000
0100
0000
0000
0000
1000
0000
0000
0001
0000
1000
0000
0000
,
0010
0000
0000
0000
0010
0000
0000
0000
0100
0000
0000
0001
0000
0001
0000
0001
,
1000
0000
1000
0000
0100
1000
0100
0000
,
1000
0000
1000
0000
0010
1000
0100
0010
,
0001
0000
0000
0010
0001
0100
1000
0000
,
0100
0000
0010
0000
0100
0010
0010
0000
,
1000
0000
0001
0000
1000
0100
1000
0010
,
0100
0000
0001
0000
1000
0001
1000
0100
,
0010
0000
0000
0100
1000
0010
0100
0001
,
1000
0000
0001
0000
1000
1000
1000
0000
,
0100
1000
0010
1000
0001
1000
0100
1000
,
0002
0023
0230
2300
,
3000
0001
0100
0001
0010
0001
1000
0001
,
0200
0320
2030
3002
,
0003
1000
0001
1000
0010
1000
0100
1000
,
0010
0000
0100
0000
0110
0000
0100
0001
,
0010
0100
1000
0010
0100
0001
1000
0001
,
1000
0000
0000
0000
0000
0000
0010
0000
1000
0000
0000
1000
0000
0000
0001
0000
,
0100
0000
0000
0000
0100
0000
0000
0000
0010
0000
0000
1000
0000
0000
0100
0000
,
0010
0000
0000
0000
0010
0000
0000
0000
0100
0000
0000
1000
0000
0000
0001
0000
,
0010
0100
0001
0010
0001
1000
0100
0000
,
0001
0000
0100
0000
0010
0000
1000
0000
0100
0000
0000
0110
0000
0000
0000
0000
,
0010
0000
0000
0000
0001
0000
0000
0000
1000
0000
0000
1000
0000
0000
0000
0000
,
0010
0000
0000
0000
1000
0000
0000
0000
0001
0000
0000
0101
0000
0000
0000
0000
,
0100
0010
1000
0100
1000
0001
0010
0000
,
0100
0010
0001
1000
0010
0100
0001
0000
,
1000
0010
0100
1000
0001
0010
1000
0000
,
0001
0010
0100
0001
1000
0010
0001
0000
,
1000
0010
0001
1000
0100
0001
1000
0000
,
0001
0010
1000
0001
0100
1000
0001
0000
,
1000
0000
0000
0000
0010
0000
0000
0000
1000
0000
0000
1000
0000
0001
0000
0000
,
0001
0000
0000
0000
0010
0000
0000
0000
0001
0000
0000
1000
0000
1000
0000
0000
,
0100
0000
0000
0010
0001
0100
0010
1000
,
0001
0000
1001
0000
0010
0010
0010
0000
,
0010
1000
0001
1000
0100
1000
0001
1000
,
0020
0230
0302
2003
,
3000
0001
1000
0001
0100
0001
0010
0100
,
2000
0000
3020
0000
0230
0001
0302
0000
,
1003
0001
1000
0010
1000
0001
1000
0100
,
2000
3002
0203
0320
,
0031
1000
0001
0010
1000
0100
0010
0001
,
1000
0000
0000
1000
0000
0000
1000
0000
0000
1000
0000
0000
1000
0000
0001
0000
,
0001
0000
0100
0000
0001
0000
0100
0000
0010
0000
0000
0010
0000
0000
0000
0000
,
1000
0000
0100
0000
1000
0000
0100
0000
0010
0000
0000
0010
0000
0000
0000
0000
,
0001
0010
1000
0001
0100
1000
0001
0000
,
1000
0010
0001
1000
0100
0001
1000
0000
,
1001
0000
0000
0000
1000
0000
0000
0000
0010
0000
0000
1000
0000
0000
0100
0000
,
0010
0000
0000
0000
0100
0000
0000
0000
1000
0000
0000
0010
0000
0000
0100
0000
,
0001
0100
0000
1000
0100
0000
0001
0000
,
1000
0100
0000
0001
0100
0000
1000
0000
,
0010
0001
0000
0010
1000
0000
0100
0000
,
0010
0001
0000
0010
1000
0000
0100
0000
,
0010
0100
1000
0010
0100
0001
0010
0100
,
1000
0000
0010
0000
0100
0000
0001
0000
0010
0000
0000
0010
0000
0000
0010
0000
;
