#VERSION:0.81;
#TITLE:Lithium;
#SUBTITLE:;
#ARTIST:Nirvana;
#TITLETRANSLIT:;
#SUBTITLETRANSLIT:;
#ARTISTTRANSLIT:;
#GENRE:Grunge;
#ORIGIN:;
#CREDIT:;
#BANNER:Lithium-jacket.png;
#BACKGROUND:Lithium-bg.png;
#PREVIEWVID:;
#JACKET:Lithium-jacket.png;
#CDIMAGE:;
#DISCIMAGE:.png;
#LYRICSPATH:;
#CDTITLE:;
#MUSIC:Lithium.mp3;
#OFFSET:-0.060;
#SAMPLESTART:37.500;
#SAMPLELENGTH:15.000;
#SELECTABLE:YES;
#DISPLAYBPM:123.000;
#BPMS:0.000=123.210;
#STOPS:;
#DELAYS:;
#WARPS:;
#TIMESIGNATURES:0.000=4=4;
#TICKCOUNTS:0.000=4;
#COMBOS:0.000=1;
#SPEEDS:0.000=1.000=0.000=0;
#SCROLLS:0.000=1.000;
#FAKES:;
#LABELS:0.000=Song Start;
#BGCHANGES:-0.500=Lithium.avi=1.000=0=0=0=StretchNoLoop====,
99999=-nosongbg-=1.000=0=0=0 // don't automatically add -songbackground-
;
#KEYSOUNDS:;
#ATTACKS:
;

//---------------dance-single - ----------------
#NOTEDATA:;
#CHARTNAME:;
#STEPSTYPE:dance-single;
#DESCRIPTION:;
#CHARTSTYLE:;
#DIFFICULTY:Hard;
#METER:9;
#RADARVALUES:0.389,0.390,0.273,0.088,0.000,242.000,28.000,9.000,0.000,0.000,0.000,0.000,0.000,0.389,0.390,0.273,0.088,0.000,242.000,28.000,9.000,0.000,0.000,0.000,0.000,0.000;
#CREDIT:;
#DISPLAYBPM:123.000;
#NOTES:
1000
0000
0000
1000
0100
0000
0000
0100
,
0001
0000
0000
0001
1000
0001
1000
0000
,
1000
0000
0000
0100
1000
0000
0000
1000
,
0001
0000
0000
0001
0010
0001
0010
0001
,
0011
0000
1000
0001
,
0100
0001
0000
0000
0100
1000
0000
1000
,
0000
0000
0010
1000
0000
0001
0000
0100
,
0000
0000
0000
1000
0100
1000
0000
0010
,
0000
0000
0101
1100
,
0001
1000
0000
0000
1000
0001
0000
0010
,
0000
0000
0100
1000
0000
0010
0000
1000
,
0000
0000
0000
0000
0001
0100
0000
1000
,
0000
0000
2000
3200
,
0301
0010
0000
1000
0001
1000
0000
0001
,
0000
0000
0010
0001
0000
0100
0000
0001
,
0000
0000
0000
0001
0100
0001
0000
1000
,
0000
0000
1010
0110
,
1000
0010
0000
0000
0001
1000
0000
0001
,
0000
0000
1000
0010
0000
0010
0000
0110
,
0010
0100
0002
0000
1003
0100
1000
0100
,
1100
0000
1000
0100
0001
0000
0001
0100
,
0010
0000
0020
0000
0031
0100
0001
0100
,
0110
0000
0010
1000
0100
0010
0100
0000
,
0010
0001
0100
0010
0100
1000
0100
0001
,
0101
0000
1000
0001
0101
0000
0001
1000
,
1100
0000
2000
0000
3010
0100
0001
1000
,
0000
1000
0100
1000
0010
0100
0001
0100
,
0000
0000
0002
0000
0103
0010
1000
0001
,
0100
0000
0100
0010
1000
0000
0100
1000
,
0010
0000
0200
0000
0301
0010
0001
0010
,
0100
0000
1000
0100
0010
0001
0010
0100
,
1000
0000
0001
0100
0001
1000
0001
0010
,
0100
0001
0010
0100
,
1000
0000
1000
0000
0001
0101
0001
0101
,
0100
1000
0010
0100
,
0001
0000
0001
0000
1000
1100
1000
1100
,
0010
0001
0100
0010
,
1000
0000
1000
0000
0001
0011
0001
0011
,
0010
1000
0100
0010
,
0001
0000
0001
0000
1000
1010
1000
1010
,
0100
1000
0010
0100
,
0001
0000
0001
0000
1000
1010
1000
1010
,
0100
0001
0010
0100
,
1000
0000
1000
0000
0001
0011
0001
0011
,
0010
0001
0100
0010
,
1000
0000
1000
0000
0001
0101
0001
0101
,
0010
1000
0010
0100
,
0001
0000
0001
0000
1000
1100
1000
1100
,
2000
0000
0000
0000
,
0002
0000
0000
3003
,
1001
0000
0000
0000
;

//---------------dance-single - Blank----------------
#NOTEDATA:;
#CHARTNAME:;
#STEPSTYPE:dance-single;
#DESCRIPTION:Blank;
#CHARTSTYLE:;
#DIFFICULTY:Beginner;
#METER:3;
#RADARVALUES:0.109,0.098,0.000,0.039,0.000,74.000,0.000,4.000,0.000,0.000,0.000,0.000,0.000,0.109,0.098,0.000,0.039,0.000,74.000,0.000,4.000,0.000,0.000,0.000,0.000,0.000;
#CREDIT:RIME;
#DISPLAYBPM:123.000;
#NOTES:
1000
0000
0000
0000
,
0000
0000
0000
0000
,
0001
0000
0000
0000
,
0000
0000
0000
0000
,
0010
0000
0010
0000
,
1000
0000
0000
0000
,
0001
0000
0000
0000
,
0001
0000
0000
0000
,
0010
0000
0010
0000
,
0001
0000
0000
0000
,
1000
0000
0000
0000
,
1000
0000
0000
0000
,
0100
0000
0100
0000
,
1000
0000
0000
0000
,
0001
0000
0000
0000
,
0001
0000
0000
0000
,
0100
0000
0100
0000
,
0001
0000
0000
0000
,
1000
0000
0000
0000
,
1000
0000
0010
0000
,
0010
0000
0000
0000
,
0000
0000
0001
0000
,
0010
0000
0000
0000
,
1000
0000
0100
0000
,
0100
0000
0000
0000
,
0000
0000
0001
0000
,
0100
0000
0000
0000
,
0001
0000
1000
0000
,
2000
0000
0000
0000
,
3010
0000
0010
0000
,
0200
0000
0000
0000
,
0310
0000
0010
0000
,
1000
0000
1000
0000
,
0001
0000
0001
0000
,
1000
0000
1000
0000
,
0001
0000
0001
0000
,
0100
0000
0100
0000
,
0010
0000
0010
0000
,
0100
0000
0100
0000
,
0010
0000
0010
0000
,
1000
0000
0001
0000
,
1000
0000
0010
0000
,
1000
0000
0001
0000
,
1000
0000
0100
0000
,
0010
0000
0100
0000
,
0010
0000
0001
0000
,
0010
0000
0100
0000
,
0010
0000
1000
0000
,
0020
0000
0000
0000
,
0230
0000
0000
0000
,
0310
0000
0000
0000
;

//---------------dance-single - Blank----------------
#NOTEDATA:;
#CHARTNAME:;
#STEPSTYPE:dance-single;
#DESCRIPTION:Blank;
#CHARTSTYLE:;
#DIFFICULTY:Easy;
#METER:5;
#RADARVALUES:0.244,0.220,0.068,0.098,0.000,158.000,7.000,10.000,0.000,0.000,0.000,0.000,0.000,0.244,0.220,0.068,0.098,0.000,158.000,7.000,10.000,0.000,0.000,0.000,0.000,0.000;
#CREDIT:RIME;
#DISPLAYBPM:123.000;
#NOTES:
1000
0000
0001
0000
,
0100
0000
0001
0001
,
1000
0000
0020
0000
,
0130
0000
0001
0001
,
1000
0000
0001
0010
,
0001
0000
1000
0010
,
0200
0000
0302
0000
,
0023
0000
1000
1000
,
1030
0000
0010
0000
,
0001
0000
0100
0100
,
0010
0000
0010
0010
,
1000
0000
0001
1000
,
0001
0000
1000
0010
,
0100
0000
0001
0010
,
0100
1000
0001
0100
,
0010
0000
1000
1000
,
1000
0000
0001
0001
,
0001
0000
0100
0010
,
0100
0010
1000
0001
,
1001
1000
0100
0010
,
0001
0000
0100
0000
,
0101
0001
1000
0001
,
1000
0000
1100
0000
,
0100
0010
0100
0010
,
0001
0000
0101
0000
,
0100
0010
0100
0010
,
1000
0000
1001
0000
,
0001
1000
0001
1000
,
0200
0000
0320
0000
,
0130
0010
0001
1000
,
0200
0000
0000
0000
,
0301
0000
0200
0000
,
1300
0010
1000
0010
,
0100
0001
0100
0100
,
0010
1000
0010
1000
,
0001
0100
0001
0001
,
0010
0001
0010
0001
,
1000
0100
1000
1000
,
0001
0010
0001
0010
,
0100
1000
0100
0100
,
1000
0001
1000
0001
,
0100
0010
0100
0100
,
0001
1000
0001
1000
,
0010
0100
0010
0010
,
1000
0100
0010
0001
,
0010
0100
1000
1000
,
0001
0010
0100
1000
,
0100
0010
0001
0001
,
2002
0000
0000
0000
,
0000
0000
0000
3003
,
1001
0000
0000
0000
;

//---------------dance-single - Blank----------------
#NOTEDATA:;
#CHARTNAME:;
#STEPSTYPE:dance-single;
#DESCRIPTION:Blank;
#CHARTSTYLE:;
#DIFFICULTY:Medium;
#METER:6;
#RADARVALUES:0.307,0.293,0.137,0.088,0.000,197.000,14.000,9.000,0.000,0.000,0.000,0.000,0.000,0.307,0.293,0.137,0.088,0.000,197.000,14.000,9.000,0.000,0.000,0.000,0.000,0.000;
#CREDIT:RIME;
#DISPLAYBPM:123.000;
#NOTES:
// measure 0
1000
0000
0000
1000
0001
0000
0000
0001
,  // measure 1
0100
0000
0000
0100
0010
0000
0010
0000
,  // measure 2
0100
0000
0000
0001
2000
0000
0000
0000
,  // measure 3
3100
0000
0000
0100
0010
0000
0010
0000
,  // measure 4
0110
0000
0010
0001
,  // measure 5
0100
0001
0000
0000
0100
0001
0000
0010
,  // measure 6
0000
0000
0010
0100
0000
1000
0000
1001
,  // measure 7
0000
0000
0000
1000
0001
1000
0000
0100
,  // measure 8
0000
0000
0010
0100
,  // measure 9
1000
0010
0000
0000
0100
0001
0000
0011
,  // measure 10
0000
0000
0010
0100
0000
1000
0000
0100
,  // measure 11
0000
0000
0000
0000
0010
1000
0000
0101
,  // measure 12
0000
0000
0200
0320
,  // measure 13
0031
0010
0000
0100
1000
0010
0000
0100
,  // measure 14
0000
0000
0001
0100
0000
0010
0000
0100
,  // measure 15
0000
0000
0000
0001
0100
0010
0000
1000
,  // measure 16
0000
0000
0002
0203
,  // measure 17
0310
0100
0000
0000
0010
0100
0000
0110
,  // measure 18
0000
0000
0100
0010
0000
1000
0000
0100
,  // measure 19
0010
0001
0010
0000
0001
1000
0001
0000
,  // measure 20
1000
0000
0000
0010
1000
0000
0000
1000
,  // measure 21
0001
0000
0010
0000
0100
1000
0010
0100
,  // measure 22
0000
0000
0100
0000
0001
0100
0001
0000
,  // measure 23
0010
0000
0100
0000
1000
0100
1000
0010
,  // measure 24
0000
0000
0000
0100
0010
0000
0000
0010
,  // measure 25
1000
0000
0001
0000
1000
0001
1000
0100
,  // measure 26
0000
0100
0010
0000
0010
0001
0010
0000
,  // measure 27
0001
0000
1000
0000
0010
1000
0010
0200
,  // measure 28
0000
0000
0000
0000
0302
0000
0000
0013
,  // measure 29
0000
0000
0010
0000
0100
1000
0010
0100
,  // measure 30
0000
0100
0001
0000
0001
1000
0001
1000
,  // measure 31
0100
0000
0010
0100
0010
0000
0100
0000
,  // measure 32
0110
0000
1001
0000
,  // measure 33
1000
0000
0010
0000
0100
0001
0000
0001
,  // measure 34
0000
0000
0110
0000
,  // measure 35
1000
0000
0100
0000
0010
0001
0000
0101
,  // measure 36
0000
0000
0110
0000
,  // measure 37
0001
0000
0010
0000
0100
1000
0000
1000
,  // measure 38
0000
0000
0110
0000
,  // measure 39
0001
0000
0100
0000
0010
1000
0000
1100
,  // measure 40
0000
0100
0010
0100
,  // measure 41
1000
0000
0001
0000
1000
0010
0000
0010
,  // measure 42
0000
0100
0010
0100
,  // measure 43
0001
0000
1000
0000
0001
0010
0000
0110
,  // measure 44
0000
0100
1000
0100
,  // measure 45
1000
0000
0001
0000
0010
0001
0000
0010
,  // measure 46
0000
0100
0001
0100
,  // measure 47
0010
0000
0001
0000
1000
0010
0100
0001
,  // measure 48
2000
0000
0000
0000
,  // measure 49
0002
0000
0000
3003
,  // measure 50
1001
0000
0000
0000
;
