#VERSION:0.81;
#TITLE:Esclavo de Sus Besos;
#SUBTITLE:;
#ARTIST:David Bisbal;
#TITLETRANSLIT:;
#SUBTITLETRANSLIT:;
#ARTISTTRANSLIT:;
#GENRE:Pop;
#ORIGIN:;
#CREDIT:;
#BANNER:Esclavo de Sus Besos-jacket.png;
#BACKGROUND:Esclavo de Sus Besos-bg.png;
#PREVIEWVID:;
#JACKET:Esclavo de Sus Besos-jacket.png;
#CDIMAGE:;
#DISCIMAGE:;
#LYRICSPATH:;
#CDTITLE:;
#MUSIC:Esclavo de Sus Besos.mp3;
#OFFSET:-0.040;
#SAMPLESTART:60.480;
#SAMPLELENGTH:15.000;
#SELECTABLE:YES;
#BPMS:0.000=134.980;
#STOPS:;
#DELAYS:;
#WARPS:;
#TIMESIGNATURES:0.000=4=4;
#TICKCOUNTS:0.000=4;
#COMBOS:0.000=1;
#SPEEDS:0.000=1.000=0.000=0;
#SCROLLS:0.000=1.000;
#FAKES:;
#LABELS:0.000=Song Start;
#BGCHANGES:-1.000=Esclavo de Sus Besos.avi=1.000=0=0=0=StretchNoLoop====,
99999=-nosongbg-=1.000=0=0=0 // don't automatically add -songbackground-
;
#KEYSOUNDS:;
#ATTACKS:;

//---------------dance-single - ----------------
#NOTEDATA:;
#CHARTNAME:;
#STEPSTYPE:dance-single;
#DESCRIPTION:;
#CHARTSTYLE:;
#DIFFICULTY:Hard;
#METER:11;
#RADARVALUES:0.468,0.541,0.374,0.223,0.040,301.000,42.000,25.000,0.000,0.000,0.000,0.000,0.000,0.468,0.541,0.374,0.223,0.040,301.000,42.000,25.000,0.000,0.000,0.000,0.000,0.000;
#CREDIT:;
#ATTACKS:;
#NOTES:
0000
0000
0000
0000
,
0000
0000
0000
0000
0000
0000
0000
0000
0000
0000
0000
0000
1001
0000
1000
0010
,
0100
0000
0001
0100
0000
0010
0000
1000
,
0000
0000
0000
1001
0000
1000
0100
0010
,
0010
0000
0100
1000
0000
0001
0000
0100
,
0000
0000
0001
0100
0101
0000
0010
1000
,
1010
0000
0100
1000
0000
0010
0000
1000
,
0000
0000
0000
0000
0100
0010
0001
0010
,
0100
0000
0000
0001
0001
0000
0000
1000
,
1000
0000
0000
0100
0100
0000
0000
0000
,
0010
0001
1000
0010
0000
1000
0010
0100
,
0000
0000
0000
0001
0001
1000
0100
0010
,
0000
0100
1000
0001
0010
0100
2000
0000
,
0001
0000
3010
0000
,
0000
0011
0010
0100
1000
1000
0001
0100
,
0001
0100
0010
1000
0100
0010
0011
0000
,
0000
0001
0100
1000
0100
0010
0000
0020
,
0000
0130
0000
0000
0000
1001
1001
0000
,
0100
1000
0001
0100
0000
0001
0010
0001
,
0000
0000
0000
1000
0010
1000
0001
0100
,
0000
0100
0001
0010
1000
0010
0200
0000
,
0010
0000
0301
0000
,
0000
0001
0100
1000
0000
1000
0100
0001
,
0000
0001
0100
0010
1000
0100
0110
0000
,
0000
0010
0100
0010
0001
0001
0000
2000
,
0000
3010
0000
0000
1000
1010
1010
0000
,
1001
0000
0000
0000
0001
0100
0010
2000
,
3100
0000
0000
0000
0010
0001
0010
0011
,
0000
0000
0010
0110
0000
1100
1000
0001
,
0000
0000
0000
0000
1000
0010
1000
1001
,
0000
0000
0000
0000
0000
0000
1000
0000
0100
0000
0010
0000
0100
0000
1000
0001
,
0010
0000
0000
0000
1000
0010
1000
0010
,
0000
0010
0100
0000
0000
0000
0001
0000
0000
0000
0010
0000
0000
0000
0220
0000
,
0000
0000
0000
0330
,
0000
1100
1100
1100
1100
1100
1000
0100
,
0001
0000
0000
0000
0202
0000
0000
0000
0303
0000
0100
0010
0000
0000
0000
0000
,
0000
0010
0100
0100
1000
0010
1000
0001
,
0010
0000
0001
0000
0002
0000
0000
0000
0000
0000
1000
0103
0000
0000
0000
0000
,
0000
0001
0100
0010
1000
0010
1000
0100
,
1000
0001
0100
0001
0000
0010
0100
1000
,
1000
0001
0100
0001
0000
0010
0100
1000
,
1100
0000
0000
0000
0010
0000
0110
0000
0000
0000
1100
0000
0000
0000
1000
0001
,
0100
0101
0101
0101
0101
0101
0001
0100
,
1000
0000
0000
0000
2200
0000
0000
0000
3300
0000
0100
0010
0000
0000
0000
0000
,
0000
0010
0100
0100
0010
1000
0001
0010
,
0001
0000
0100
0000
0200
0000
0000
0000
0000
0000
0010
0301
0000
0000
0000
0000
,
0000
0001
0100
0010
1000
0010
1000
0001
,
0010
0001
0010
0001
0000
0001
0100
1000
,
0010
0001
0010
0001
0000
0001
0100
1000
,
1100
0000
0000
0000
0100
0000
0110
0000
0000
0000
0101
0000
0000
0000
0001
0100
,
0010
1010
1010
1010
1010
1010
1000
0100
,
2000
0010
0000
3010
,
0000
0000
0000
0010
0000
0010
1000
0001
,
0200
0001
0000
0301
,
0022
0033
2200
3300
,
0002
0010
0000
0013
,
0100
0000
1000
0000
0001
1000
0100
1000
,
0020
0000
0000
0130
0200
0000
0000
0301
,
0002
0000
0000
1003
2000
0000
0000
0000
,
3001
0000
0001
1000
0000
0100
0000
0010
,
0000
0002
0000
0000
0000
0000
0003
0000
;

//---------------dance-single - ----------------
#NOTEDATA:;
#CHARTNAME:;
#STEPSTYPE:dance-single;
#DESCRIPTION:;
#CHARTSTYLE:;
#DIFFICULTY:Medium;
#METER:6;
#RADARVALUES:0.323,0.321,0.169,0.080,0.000,226.000,19.000,9.000,0.000,0.000,0.000,0.000,0.000,0.323,0.321,0.169,0.080,0.000,226.000,19.000,9.000,0.000,0.000,0.000,0.000,0.000;
#CREDIT:;
#ATTACKS:;
#NOTES:
0000
0000
0000
0000
,
0000
0000
0000
0000
,
1000
0000
0100
1000
0000
0010
0000
1000
,
0000
0000
0000
0100
0000
0000
0010
0000
,
0001
0000
0100
0001
0000
0010
0000
0001
,
0000
0000
0101
0000
,
1010
0000
1000
0100
0000
0010
0000
0100
,
0000
0000
0000
0000
1000
0001
0100
0001
,
1000
0000
0000
0100
0100
0000
0000
0010
,
0010
0000
0000
0001
0001
0000
0000
0000
,
1000
0000
0001
0100
0000
0001
0100
0001
,
0000
0000
0000
0001
1000
0100
1000
0010
,
0000
1000
0010
0100
0001
1000
0100
0000
,
1000
0000
0001
0000
,
1000
0000
0001
0000
0010
0100
1000
0000
,
1000
0000
0001
0000
0010
0100
0001
0000
,
0000
1000
1000
0000
0100
0010
0000
0200
,
0000
1300
0000
0000
0001
0001
0001
0000
,
1000
0000
0001
0010
0000
0010
0001
0010
,
0000
0000
0000
0000
1000
0000
0100
1000
,
0000
1000
0001
0100
0010
1000
0010
0000
,
1000
0000
0100
0000
,
0010
0001
0100
0010
0000
0100
0010
1000
,
0000
0000
0100
0000
0010
0010
0001
0000
,
0000
0001
0100
0000
0010
1000
0000
0200
,
0000
0310
0000
0000
1000
1000
1000
0000
,
0001
0000
0000
0000
1000
0100
0010
0000
,
0001
0000
0000
0000
0001
0100
0010
1000
,
0000
0000
1000
0100
0000
1000
0100
1000
,
0000
0000
0000
0000
1000
0010
0100
0000
,
0001
0000
0000
0000
0001
0010
0100
0000
,
1000
0000
0000
0000
1000
0001
0100
0010
,
0000
0010
0000
0100
0000
0100
0000
0220
,
0000
0000
0000
0000
0000
0000
0000
0330
,
0110
0110
0110
0110
,
1001
1000
0000
0100
,
0010
0001
0010
0000
0100
1000
0100
0000
,
1000
0001
2000
0000
0000
3001
1000
0000
,
1000
0000
0100
0000
0010
0100
1000
0000
,
0001
0000
0100
0010
0000
0000
0000
0000
,
0001
0000
0100
0010
0000
0000
0000
0000
,
1000
0000
0100
0010
0000
0100
0000
1000
,
0000
1001
1001
1001
,
0110
0020
0000
0130
,
1000
0000
0100
0000
0001
0100
1000
0000
,
0001
2000
0000
3001
,
0010
0000
0001
0000
0010
0001
0100
0000
,
0010
0000
0010
0100
0000
0000
0000
0000
,
0100
0000
0100
0001
0000
0000
0000
0000
,
0001
0000
0001
0010
0000
0100
0000
1000
,
0000
1001
1001
1001
,
0110
0220
0000
0000
,
0000
0000
0000
0000
,
0000
0000
0000
0330
,
0110
0000
1001
0000
,
1000
0000
0100
0010
0000
0001
0000
0010
,
0000
0000
0000
0000
0100
1000
0001
0100
,
0010
0000
0000
1000
0001
0000
0000
0001
,
0100
0000
0000
0100
0010
0000
0000
0000
,
1000
0000
0000
0100
0000
0001
0000
0100
,
0000
1000
0000
0000
0000
0000
0000
0000
;

//---------------dance-single - Blank----------------
#NOTEDATA:;
#CHARTNAME:;
#STEPSTYPE:dance-single;
#DESCRIPTION:Blank;
#CHARTSTYLE:;
#DIFFICULTY:Easy;
#METER:5;
#RADARVALUES:0.187,0.236,0.116,0.062,0.000,127.000,13.000,7.000,0.000,0.000,0.000,0.000,0.000,0.187,0.236,0.116,0.062,0.000,127.000,13.000,7.000,0.000,0.000,0.000,0.000,0.000;
#CREDIT:RIME;
#ATTACKS:;
#NOTES:
0000
0000
0000
0000
,
0000
0000
0000
0000
,
1000
0000
0010
0000
,
1000
0000
0001
0001
,
1000
0000
0100
0000
,
1000
0000
1001
0000
,
0001
0000
0100
0000
,
0001
0000
1000
1000
,
0001
0000
0010
0000
,
0001
0000
1001
0000
,
1000
0000
0100
0000
,
0010
0010
0100
0000
,
0001
0000
0100
0000
,
0010
0010
0100
0000
,
1000
0000
0001
0000
,
0010
0000
0100
1100
,
0000
0000
0001
0000
,
0100
0000
0010
0010
,
0100
0000
0001
0000
,
1000
0000
0100
0100
,
1000
0000
0010
0000
,
0011
0000
1010
0000
,
1000
0000
0001
0000
,
1000
0001
1000
1001
,
0000
0000
1000
0000
,
0200
0000
0010
0310
,
0110
0000
0100
0200
,
1300
0000
1000
2000
,
3001
0000
0001
0002
,
0103
0000
0010
0020
,
0130
0000
0001
0002
,
1003
0000
1000
2000
,
3100
0000
0010
0000
,
0110
0000
0000
0000
,
1000
1000
1000
1000
,
0001
0000
0100
0000
,
0001
0000
0100
0000
,
0001
0000
0010
0000
,
0100
0000
1000
0000
,
0010
0000
0010
0000
,
0100
0000
0100
0000
,
0001
0000
1000
0000
,
0001
0001
0001
0001
,
0100
0000
0010
0000
,
0100
0000
0010
0000
,
1000
0000
0001
0000
,
1000
0000
0001
0000
,
1000
0000
0100
0000
,
0001
0000
0100
0000
,
1000
0000
0010
0000
,
0001
0000
0010
0000
,
0110
0000
0000
0000
,
0100
0000
0000
0000
,
0110
0000
0000
0000
,
0010
0000
0010
0000
,
1001
0000
0000
0000
,
1000
0000
0001
0000
,
1001
0000
0000
0000
,
0001
0000
1000
0000
,
1001
0000
0000
0000
;

//---------------dance-single - Blank----------------
#NOTEDATA:;
#CHARTNAME:;
#STEPSTYPE:dance-single;
#DESCRIPTION:Blank;
#CHARTSTYLE:;
#DIFFICULTY:Beginner;
#METER:4;
#RADARVALUES:0.127,0.158,0.107,0.071,0.000,80.000,12.000,8.000,0.000,0.000,0.000,0.000,0.000,0.127,0.158,0.107,0.071,0.000,80.000,12.000,8.000,0.000,0.000,0.000,0.000,0.000;
#CREDIT:RIME;
#NOTES:
// measure 0
0000
0000
0000
0000
,  // measure 1
0000
0000
0000
0000
,  // measure 2
2000
0000
0000
0000
,  // measure 3
0000
0000
0000
0000
,  // measure 4
3002
0000
0000
0000
,  // measure 5
0000
0000
0000
0003
,  // measure 6
0201
0000
0000
0000
,  // measure 7
0000
0000
0000
0000
,  // measure 8
0320
0000
0000
0000
,  // measure 9
0000
0000
0000
0000
,  // measure 10
1030
0000
1000
0000
,  // measure 11
1000
0000
0000
0000
,  // measure 12
1000
0000
1000
0000
,  // measure 13
1000
0000
0000
0000
,  // measure 14
0001
0000
0001
0000
,  // measure 15
0001
0000
0000
1001
,  // measure 16
0000
0000
0100
0000
,  // measure 17
0100
0000
0000
0000
,  // measure 18
0010
0000
0010
0000
,  // measure 19
0010
0000
0000
0000
,  // measure 20
0010
0000
0010
0000
,  // measure 21
0010
0000
0000
0000
,  // measure 22
0100
0000
0100
0000
,  // measure 23
0100
0000
0000
0110
,  // measure 24
0000
0000
0001
0000
,  // measure 25
0001
0000
0000
0000
,  // measure 26
1001
0000
0000
0000
,  // measure 27
0110
0000
0000
0000
,  // measure 28
1001
0000
0000
0000
,  // measure 29
0110
0000
0000
0000
,  // measure 30
0011
0000
0000
0000
,  // measure 31
1100
0000
0000
0000
,  // measure 32
1010
0000
0000
0000
,  // measure 33
0101
0000
0000
0000
,  // measure 34
0000
0001
0001
0001
,  // measure 35
0001
0000
0000
0000
,  // measure 36
0000
1000
1000
1000
,  // measure 37
1000
0000
0000
0000
,  // measure 38
0000
0100
0100
0100
,  // measure 39
0100
0000
0100
0000
,  // measure 40
0100
0000
0100
0000
,  // measure 41
0010
0000
0010
0000
,  // measure 42
0010
0010
0010
0010
,  // measure 43
0010
0000
0000
0000
,  // measure 44
0000
0001
0001
0001
,  // measure 45
0001
0000
0000
0000
,  // measure 46
0000
1000
1000
1000
,  // measure 47
1000
0000
1000
0000
,  // measure 48
1000
0000
1000
0000
,  // measure 49
1000
0000
1000
0000
,  // measure 50
0100
0100
0100
0100
,  // measure 51
0200
0000
0000
0000
,  // measure 52
0000
0000
0000
0300
,  // measure 53
0020
0000
0000
0000
,  // measure 54
0000
0000
0000
0030
,  // measure 55
0210
0000
0000
0000
,  // measure 56
0000
0000
0000
0300
,  // measure 57
2000
0000
0000
0000
,  // measure 58
0000
0000
0000
3000
,  // measure 59
0001
0000
0000
0000
;
