#VERSION:0.81;
#TITLE:DARE;
#SUBTITLE:;
#ARTIST:Gorillaz;
#TITLETRANSLIT:;
#SUBTITLETRANSLIT:;
#ARTISTTRANSLIT:;
#GENRE:Electro;
#ORIGIN:;
#CREDIT:;
#BANNER:DARE.png;
#BACKGROUND:DARE-bg.png;
#PREVIEWVID:;
#JACKET:DARE-jacket.png;
#CDIMAGE:;
#DISCIMAGE:;
#LYRICSPATH:;
#CDTITLE:;
#MUSIC:DARE.mp3;
#OFFSET:1.500;
#SAMPLESTART:50.900;
#SAMPLELENGTH:15.000;
#SELECTABLE:YES;
#DISPLAYBPM:120.000;
#BPMS:0.000=120.250;
#STOPS:;
#DELAYS:;
#WARPS:;
#TIMESIGNATURES:0.000=4=4;
#TICKCOUNTS:0.000=4;
#COMBOS:0.000=1;
#SPEEDS:0.000=1.000=0.000=0;
#SCROLLS:0.000=1.000;
#FAKES:;
#LABELS:0.000=Song Start;
#BGCHANGES:2.500=DARE.avi=1.000=0=0=0=StretchNoLoop====,
99999=-nosongbg-=1.000=0=0=0 // don't automatically add -songbackground-
;
#KEYSOUNDS:;
#ATTACKS:
;

//---------------dance-single - ----------------
#NOTEDATA:;
#CHARTNAME:;
#STEPSTYPE:dance-single;
#DESCRIPTION:;
#CHARTSTYLE:;
#DIFFICULTY:Medium;
#METER:8;
#RADARVALUES:0.305,0.368,0.102,0.110,0.000,226.000,12.000,13.000,0.000,0.000,0.000,0.000,0.000,0.305,0.368,0.102,0.110,0.000,226.000,12.000,13.000,0.000,0.000,0.000,0.000,0.000;
#CREDIT:;
#DISPLAYBPM:120.000;
#NOTES:
0000
0000
0000
0000
,
0001
0000
0100
0000
0010
0000
0100
0001
,
0000
1000
0000
0000
0001
0000
1000
0000
,
0100
0000
0010
0000
0100
0000
1000
1000
,
0000
0001
0000
0000
1000
0000
0001
0000
,
2002
0000
0000
3000
,
0200
0000
0000
0300
,
2000
0000
0000
3000
,
0100
0000
0100
0000
0010
0010
0013
0000
,
0000
0000
0100
0000
1000
0000
0001
0100
,
0000
0001
0000
0100
0000
0001
0000
0000
,
0000
0000
0100
0000
0001
0000
1000
0100
,
0000
1000
0000
0100
0000
0001
0000
0010
,
0000
0001
0100
1000
,
1000
1000
0010
0001
,
1001
0000
0000
0100
0000
0000
0000
0000
,
1000
0000
0100
0000
0100
0010
0001
0000
,
0000
0000
0010
0000
0001
0000
1000
0010
,
0000
1000
0010
1000
,
0000
0000
0010
0000
1000
0000
0001
0010
,
0000
0000
0000
0010
0000
1000
0000
0001
,
0000
0000
0000
0100
0000
0000
0001
0001
,
0000
0000
0000
1000
0000
0020
0000
0000
,
0000
0130
0000
0000
0000
0000
0000
0000
,
0001
0000
0100
0000
0100
0010
1000
0000
,
1000
0100
0001
0100
1000
0100
0001
0000
,
1000
0000
0001
0000
1000
0100
1000
0000
,
0001
0000
1000
0000
0001
0100
0001
0000
,
0010
0000
0001
0000
1000
0100
1000
0000
,
0010
0000
1000
0000
0001
0100
0001
0000
,
2002
0000
0000
0003
,
0200
0000
0000
0300
,
0002
0000
0000
0003
,
0100
0000
0100
0000
0010
0010
3010
0000
,
1000
0100
0010
0000
1000
0100
0010
0000
,
0001
0001
1000
1000
,
0001
0100
0010
0000
0001
0100
0010
0000
,
1000
0000
1000
0001
0000
0001
0000
0010
,
0000
0100
0000
1000
0000
0001
0000
0000
,
0000
0000
0000
1000
0000
0010
0000
1000
,
0000
0000
0000
0001
0000
0000
0000
0000
,
1000
0100
1000
0010
1000
0100
0001
0000
,
1001
0011
0001
0001
,
1001
1010
1000
1000
,
1100
1001
0001
0001
,
1001
0101
1000
1000
,
0200
0001
0010
0301
,
0200
1000
0010
1300
,
0020
1000
0100
1030
,
0020
0001
0100
0031
,
1000
0001
0100
0000
0001
1000
0100
0000
,
1000
0010
1000
0010
,
0001
1000
0100
0000
1000
0001
0100
0000
,
0001
0010
0001
0010
,
1000
0010
0100
0000
0100
0010
1000
0000
,
0001
0010
0100
0000
0100
0010
0001
0000
,
1000
0001
0100
0010
0100
0010
1000
0000
,
0001
1000
0100
0010
0100
0010
0011
0000
;

//---------------dance-single - ----------------
#NOTEDATA:;
#CHARTNAME:;
#STEPSTYPE:dance-single;
#DESCRIPTION:;
#CHARTSTYLE:;
#DIFFICULTY:Easy;
#METER:5;
#RADARVALUES:0.198,0.196,0.034,0.161,0.000,140.000,4.000,19.000,0.000,0.000,0.000,0.000,0.000,0.198,0.196,0.034,0.161,0.000,140.000,4.000,19.000,0.000,0.000,0.000,0.000,0.000;
#CREDIT:;
#DISPLAYBPM:120.000;
#NOTES:
0000
0000
0000
0000
,
0000
0000
0000
0000
,
0000
0000
0000
0000
,
0000
0000
0000
0000
,
0000
0000
0000
0000
,
2000
3000
0002
0003
,
2000
3000
0002
0003
,
2000
3000
0020
0030
,
0002
0003
0200
0300
,
1000
0000
1000
0000
,
0010
1000
0001
0000
,
0001
0000
0001
0000
,
0010
0001
1000
0000
,
0100
0000
0010
0000
,
0001
1000
0001
1000
,
0010
0000
0020
0000
,
0130
0000
0100
0000
,
1010
0000
0100
0000
,
0101
0000
0000
0000
,
0011
0000
0100
0000
,
1100
0000
0000
0000
,
2000
3000
0020
0030
,
0200
0300
0002
0003
,
0020
0030
0200
0300
,
2000
3000
0002
0003
,
1000
0010
0001
0100
,
1000
0000
1000
0000
,
0001
0000
0001
0000
,
0010
0000
0010
0000
,
0100
0000
0100
0000
,
0010
0000
0010
0001
,
0010
0001
0010
0001
,
0010
0001
0010
0001
,
0100
0100
0100
0100
,
0010
0000
1000
0000
,
0010
1000
0100
0010
,
0001
0000
0100
0000
,
0001
0100
0010
1000
,
0100
0000
0010
0000
,
0100
0010
0001
0100
,
1000
0000
0100
0000
,
1000
0100
0001
0010
,
0100
0000
0010
0000
,
0100
0010
0100
1000
,
0010
0000
0100
0000
,
0010
0100
0010
1000
,
0002
0000
0010
0000
,
0100
0000
1003
0000
,
2000
0000
0010
0000
,
0100
0000
0001
3001
,
1000
0100
1000
1000
,
0001
0100
0001
0001
,
1000
0010
1000
1000
,
0001
0010
0001
0001
,
0100
0000
1000
0000
,
0010
0000
0001
0000
,
0100
0000
0100
0000
,
0100
1000
0010
0001
;

//---------------dance-single - Blank----------------
#NOTEDATA:;
#CHARTNAME:;
#STEPSTYPE:dance-single;
#DESCRIPTION:Blank;
#CHARTSTYLE:;
#DIFFICULTY:Hard;
#METER:13;
#RADARVALUES:0.546,0.515,0.569,0.127,0.183,368.000,67.000,15.000,0.000,0.000,0.000,0.000,0.000,0.546,0.515,0.569,0.127,0.183,368.000,67.000,15.000,0.000,0.000,0.000,0.000,0.000;
#CREDIT:RIME;
#DISPLAYBPM:120.000;
#NOTES:
0000
0000
0000
1010
,
0102
0000
0013
0000
2100
0000
3010
1000
,
0000
0000
1002
0000
0000
0000
0000
0000
0013
0100
1000
0000
0010
0000
0000
0000
,
2100
0000
3010
0000
0102
0000
0013
0001
,
0000
0000
2001
0000
0000
0000
0000
0000
3010
0100
0001
0000
0010
0000
0000
0000
,
0110
0000
0100
0000
1000
0001
1000
0000
0000
0000
0100
0000
0001
1000
0001
0000
,
0000
0000
0010
0000
1000
0001
1000
0000
0000
0000
0010
0000
0001
1000
0001
0000
,
0012
0000
0103
0000
2010
0000
3100
1000
,
0000
0000
1002
0000
0000
0000
0013
0000
0010
0100
1000
0000
0001
0000
0000
0000
,
1000
0000
1001
0000
0001
0000
1000
1010
,
0000
0010
0000
0100
0000
0101
0000
0000
,
0001
0000
1001
0000
0001
0000
0010
0100
,
0000
0110
0000
0011
0000
1010
0000
1000
,
0000
0000
0001
0000
1000
0100
1000
0000
0010
0000
0100
0000
0001
0000
0000
0000
,
0000
0000
1000
0000
0001
0100
0001
0000
0000
0000
0011
0000
0000
0000
0210
0000
,
0010
0000
0000
1300
0100
0010
0001
0000
,
1000
0000
0000
0001
0100
0000
0001
0000
1000
0100
0010
0000
0100
0000
0000
0000
,
0011
0000
1010
0000
1100
0000
0101
0100
,
0000
0000
0000
0010
0000
0000
0000
0000
0001
0000
0000
0000
1000
0000
0000
0000
,
1010
0000
1100
0000
0101
0000
0011
0010
,
0001
0100
1000
0100
,
0010
0000
0000
0000
1000
0000
0010
0000
0100
0010
1000
0000
0001
0000
0000
0000
,
0010
0000
0000
0000
0001
0000
0010
0000
0100
0010
0002
0000
1000
0000
0000
0000
,
0000
0103
0001
0000
0011
0010
0100
0000
,
1000
0000
0000
0001
1000
0000
0010
0000
0100
0001
1000
0000
0100
0000
0000
0000
,
0010
0001
0100
1000
0010
0001
0101
0000
,
0001
0100
1000
0100
0001
0011
0000
0110
,
0100
1000
0100
0001
0100
0110
0000
0011
,
0001
0000
1000
0100
1000
0000
0010
0000
0100
0000
0001
0010
0001
0000
1000
0000
,
0100
0000
0010
0001
0100
0000
0001
1000
0100
0010
0001
0000
1001
0000
0000
0000
,
1000
0000
0010
0000
0100
0010
0100
0000
1000
0000
0100
0000
0010
0100
0010
0000
,
0001
0000
0100
0000
0010
0100
0010
0000
0001
0000
1000
0000
0010
0100
0010
0000
,
1000
0000
0100
0000
0010
0100
0010
0000
0001
0000
0100
0000
0010
0100
0010
0000
,
1000
0100
0010
0001
0010
0100
0110
0000
,
1001
0000
0101
0000
0011
0000
0010
0100
,
0000
0110
0000
0010
0000
0011
0000
0000
,
1001
0000
1100
0000
1010
0000
0010
0100
,
0000
0110
0000
1010
0000
1010
0000
0101
,
0000
0011
0000
1100
0000
1010
0000
0000
,
1000
0000
0001
0000
0100
0001
0100
0000
0000
0000
0110
0000
0000
0000
0120
0000
,
1000
0000
0000
1000
0130
0010
1000
0000
,
0100
0000
0000
0010
0001
0000
0100
0010
1000
0001
0100
0000
0010
0000
0000
0000
,
1010
0000
1100
0000
0101
0000
0011
0010
,
0000
0000
0000
0100
0000
0000
0000
0000
1000
0000
0000
0000
0010
0000
0000
0000
,
0110
0000
0011
0000
0101
0000
1100
0100
,
0010
1000
0100
0110
0000
1001
0000
0012
,
0000
0000
0103
0120
0000
0000
1030
1200
,
0000
0000
0000
0310
0000
0100
0000
0110
,
0100
0000
1000
0000
0001
0000
0100
0000
0001
0100
0001
0000
0010
0000
0000
0000
,
0100
0000
0000
1000
0100
0000
1000
0001
0100
1000
0100
0000
0001
0000
0000
0000
,
0010
0001
0100
0010
1000
0100
0010
1000
,
0010
0001
0100
0010
1000
0100
0010
1000
,
0010
0100
1000
0010
0100
0001
0010
0100
,
0010
0001
1000
0010
1000
0001
0010
1000
,
0010
0000
0001
0000
0100
0010
0100
0000
0010
0000
1000
0000
0100
0010
0100
0000
,
1000
0000
0001
0000
0100
0010
0100
0000
0001
0000
1000
0000
0100
0010
0100
0000
,
1000
0100
0010
0100
1000
0010
0100
1000
,
0100
0000
0001
0000
0010
0000
0100
1000
0001
0100
0010
1000
0100
0000
0000
0000
;

//---------------dance-single - Blank----------------
#NOTEDATA:;
#CHARTNAME:;
#STEPSTYPE:dance-single;
#DESCRIPTION:Blank;
#CHARTSTYLE:;
#DIFFICULTY:Beginner;
#METER:3;
#RADARVALUES:0.114,0.123,0.068,0.076,0.000,77.000,8.000,9.000,0.000,0.000,0.000,0.000,0.000,0.114,0.123,0.068,0.076,0.000,77.000,8.000,9.000,0.000,0.000,0.000,0.000,0.000;
#CREDIT:RIME;
#DISPLAYBPM:120.000;
#NOTES:
// measure 0
0000
0000
0000
0000
,  // measure 1
0000
0000
0000
0000
,  // measure 2
0000
0000
0000
0000
,  // measure 3
1000
0000
0000
0000
,  // measure 4
0100
0000
0000
0010
,  // measure 5
0010
0000
0000
0000
,  // measure 6
0100
0000
0000
0000
,  // measure 7
0110
0000
0000
0000
,  // measure 8
1001
0000
0000
0000
,  // measure 9
0000
1000
1000
0000
,  // measure 10
0001
0000
0001
0000
,  // measure 11
0000
0001
0001
0000
,  // measure 12
1000
0000
1000
0000
,  // measure 13
0100
0000
0000
0000
,  // measure 14
0010
0000
0000
0000
,  // measure 15
0100
0000
0000
0000
,  // measure 16
0110
0000
0000
0000
,  // measure 17
0000
0010
0010
0000
,  // measure 18
0100
0000
0100
0000
,  // measure 19
0000
0010
0010
0000
,  // measure 20
0100
0000
0100
0000
,  // measure 21
0002
0000
0000
0000
,  // measure 22
2003
0000
0000
0000
,  // measure 23
3200
0000
0000
0000
,  // measure 24
0000
0000
0000
0000
,  // measure 25
0310
0000
0010
0000
,  // measure 26
0110
0000
0000
0000
,  // measure 27
0110
0000
0000
0000
,  // measure 28
1001
0000
0000
0000
,  // measure 29
1001
0000
0000
0000
,  // measure 30
1000
0000
0010
0000
,  // measure 31
1000
0000
0000
0000
,  // measure 32
0001
0000
0010
0000
,  // measure 33
0001
0000
0000
0000
,  // measure 34
0000
1000
1000
0000
,  // measure 35
0001
0000
0001
0000
,  // measure 36
0000
1000
1000
0000
,  // measure 37
0001
0000
0001
0000
,  // measure 38
0200
0000
0000
0000
,  // measure 39
0320
0000
0000
0000
,  // measure 40
2030
0000
0000
0000
,  // measure 41
0000
0000
0000
3000
,  // measure 42
0000
0001
0001
0000
,  // measure 43
1000
0000
1000
0000
,  // measure 44
0000
0001
0001
0000
,  // measure 45
1000
0000
1000
0000
,  // measure 46
0200
0000
0000
0000
,  // measure 47
0320
0000
0000
0000
,  // measure 48
0032
0000
0000
0000
,  // measure 49
0000
0000
0000
0003
,  // measure 50
1000
0000
0001
0000
,  // measure 51
1000
0000
0000
0000
,  // measure 52
0001
0000
1000
0000
,  // measure 53
0001
0000
0000
0000
,  // measure 54
0100
0000
0010
0000
,  // measure 55
0100
0000
0000
0000
,  // measure 56
0010
0000
0100
0000
,  // measure 57
0010
0000
0000
0110
;
