#VERSION:0.81;
#TITLE:Changed the Way You Kiss Me;
#SUBTITLE:;
#ARTIST:Example;
#TITLETRANSLIT:;
#SUBTITLETRANSLIT:;
#ARTISTTRANSLIT:;
#GENRE:Electro-House;
#ORIGIN:;
#CREDIT:;
#BANNER:Changed the Way You Kiss Me-jacket.png;
#BACKGROUND:Changed the Way You Kiss Me-bg.png;
#PREVIEWVID:;
#JACKET:Changed the Way You Kiss Me-jacket.png;
#CDIMAGE:;
#DISCIMAGE:;
#LYRICSPATH:;
#CDTITLE:;
#MUSIC:Changed the Way You Kiss Me.mp3;
#OFFSET:-0.021;
#SAMPLESTART:83.600;
#SAMPLELENGTH:15.000;
#SELECTABLE:YES;
#DISPLAYBPM:127.000;
#BPMS:0.000=127.010,
104.500=63.510,
105.000=127.010,
135.500=63.510,
136.000=127.010;
#STOPS:104.000=3.071,
135.750=0.236;
#DELAYS:;
#WARPS:;
#TIMESIGNATURES:0.000=4=4;
#TICKCOUNTS:0.000=4;
#COMBOS:0.000=1;
#SPEEDS:0.000=1.000=0.000=0;
#SCROLLS:0.000=1.000;
#FAKES:;
#LABELS:0.000=Song Start;
#BGCHANGES:-1.000=Changed the Way You Kiss Me.avi=1.000=0=0=0=StretchNoLoop====,
99999=-nosongbg-=1.000=0=0=0 // don't automatically add -songbackground-
;
#KEYSOUNDS:;
#ATTACKS:
;

//---------------dance-single - ----------------
#NOTEDATA:;
#CHARTNAME:;
#STEPSTYPE:dance-single;
#DESCRIPTION:;
#CHARTSTYLE:;
#DIFFICULTY:Hard;
#METER:13;
#RADARVALUES:0.542,0.687,0.231,0.120,0.374,372.000,25.000,13.000,0.000,0.000,0.000,0.000,0.000,0.542,0.687,0.231,0.120,0.374,372.000,25.000,13.000,0.000,0.000,0.000,0.000,0.000;
#CREDIT:;
#DISPLAYBPM:127.000;
#NOTES:
1000
0000
0100
0000
1000
0100
0000
1000
0100
0000
0100
0010
0000
0010
0001
0000
,
0001
0000
0100
0000
0001
0100
0000
0001
0100
0000
0100
0010
0000
0010
1000
0000
,
1000
0000
0001
0000
0100
0001
0000
0100
0001
0000
0001
0010
0000
0010
0100
0000
,
1000
0000
0010
0000
1000
0010
0000
0010
0100
0000
0100
0001
0000
0001
1000
0000
,
0010
0100
0001
0100
0001
0100
0010
1000
,
0100
0000
0010
0001
0010
0001
0000
0100
,
0000
0000
0000
0000
0000
0010
1000
0010
,
0000
0000
0100
0001
0000
0010
0000
0110
,
0000
0000
0000
1000
0100
0010
0100
1000
,
0001
0000
0000
0000
0001
0000
0100
0000
0001
0000
0000
0001
0000
0000
0010
0000
,
0000
0000
0000
0000
0000
0100
0010
0100
,
0000
0000
1000
0010
0000
1010
0000
0000
,
1000
0000
0000
1000
0100
0000
0010
0000
0001
0000
0100
0000
1000
0000
0000
0000
,
1000
0100
0001
0000
0001
0010
0100
0000
,
0100
1000
0010
0000
0100
0001
1000
0010
,
1000
0000
1000
0010
0100
0000
0001
1000
,
0100
0000
0000
0100
0010
0000
0000
0000
0010
0000
0001
0000
0010
0000
0001
0000
,
0100
0000
0000
0100
0010
0000
0000
0000
0010
0000
1000
0000
0010
0000
1000
0000
,
0100
0000
0000
0100
0001
0000
0010
0000
0100
0000
0000
0100
1000
0000
0010
0000
,
0100
0001
0001
0000
0100
0010
0010
1000
,
0200
0000
0000
0000
,
0302
0000
0000
0000
0000
0000
0000
0003
,
2200
0000
0000
0000
0000
0000
0000
3300
,
0202
0000
0000
0000
0000
0000
0000
0303
,
2020
0000
0000
0000
0000
0000
0000
3030
,
0022
0000
0000
0000
0000
0000
0000
0033
,
0000
0000
1001
0000
1000
0100
0010
0001
1000
0100
0010
0001
1000
0100
0010
0001
,
1000
0000
0000
0000
0001
0100
0010
1000
0001
0100
0010
1000
0001
0100
0010
1000
,
0001
0000
0000
0000
1000
0100
1000
0100
0010
0001
0010
0001
0100
0001
0100
0001
,
1000
0000
0000
0000
0001
0100
0001
0100
0010
1000
0010
1000
0100
1000
0100
1000
,
0001
0000
0000
0000
1000
0000
0001
0010
0001
0000
0100
0001
0100
0000
0001
1000
,
0001
0000
0000
0000
0001
0000
1000
0010
1000
0000
0100
1000
0100
0000
1000
0001
,
1000
0000
0001
0010
0100
1000
0000
1000
,
0001
0000
1000
0000
0000
0000
0001
0000
1000
0000
0001
0000
0000
0000
0010
1001
,
1000
0000
0010
0000
1000
0000
0010
0100
0010
0000
0100
0000
0001
0000
0000
0000
,
0001
0000
0010
0000
0001
0000
0010
0100
0010
0000
0100
0000
1000
0000
0000
0000
,
0001
0000
1000
0000
0010
0000
1000
0010
1000
0001
1000
0000
1100
0000
0000
0000
,
0000
0010
0001
0000
0100
0000
0001
0010
0100
0000
1000
0000
0001
0000
1000
0000
,
0010
0000
1000
0100
0001
0100
1000
0000
0010
0000
0000
0000
0100
0000
0010
0000
,
1000
0001
1000
0000
0010
0001
1000
0100
,
0101
0000
0001
0000
1000
0000
0000
0000
1000
0000
0100
1000
0001
0000
0010
0000
,
0100
1000
0100
0010
0001
0000
0100
0001
0010
0000
0100
0000
0100
0000
0010
0000
,
0011
1200
0001
1300
,
0011
0000
1100
0000
0101
0000
1010
1010
,
0000
0201
1000
0301
,
1010
0000
0101
0000
1100
0000
0011
0011
,
0000
0000
0000
1000
0100
1000
0010
0100
,
0001
0001
1000
1000
,
1001
0001
0010
0100
0000
0100
1000
0010
,
0000
0100
0001
0010
0000
0100
0000
0010
,
0110
0000
0000
0000
,
1000
0000
0100
0000
0010
0001
0000
0001
0010
0000
0010
0100
0000
0100
1000
0000
,
1000
0000
0010
0000
0010
0100
0000
0100
0001
0000
0001
1000
0000
1000
0100
0000
,
0010
0000
0001
0000
0100
0001
0000
1000
0001
0000
0100
0001
0000
1000
0001
0000
,
0010
0000
0100
0000
1000
0100
0000
1000
0010
0000
1000
0100
0000
1000
0020
0000
,
0030
0000
0000
0000
;

//---------------dance-single - ----------------
#NOTEDATA:;
#CHARTNAME:;
#STEPSTYPE:dance-single;
#DESCRIPTION:;
#CHARTSTYLE:;
#DIFFICULTY:Medium;
#METER:6;
#RADARVALUES:0.301,0.304,0.092,0.111,0.018,206.000,10.000,12.000,0.000,0.000,0.000,0.000,0.000,0.301,0.304,0.092,0.111,0.018,206.000,10.000,12.000,0.000,0.000,0.000,0.000,0.000;
#CREDIT:;
#DISPLAYBPM:127.000;
#NOTES:
0000
0000
0000
0000
,
0000
0000
0000
0000
,
0000
0000
0000
0000
,
0000
0000
0000
0000
,
0000
0000
0000
1000
0100
0000
0010
0000
,
0001
0000
0001
1000
0100
0000
0100
0001
,
0000
0000
0000
0000
0000
1000
0001
1000
,
0000
0000
0010
2000
0000
3002
0000
0103
,
0000
0000
0000
0000
0100
0001
0100
0000
,
0010
0000
1000
0100
0010
0000
0100
0010
,
0000
0000
0000
0000
0000
0001
1000
0001
,
0000
0000
0010
0001
0000
1000
0000
0000
,
1000
0010
0100
0011
,
0001
0010
0100
1010
,
0001
0000
0100
0000
1000
0000
1000
0100
,
0001
0010
0100
0011
,
1000
0110
0001
1000
,
0001
0110
1000
0001
,
0100
0000
0010
0000
1000
0000
0100
0010
,
0001
1000
0010
1100
,
0002
0000
0000
0003
,
2000
0000
0000
3000
,
0002
0000
0000
0003
,
2000
0000
0000
3000
,
0002
0000
0000
0003
,
0020
0000
0000
0030
,
0000
0100
1000
0000
0010
0000
1000
0010
,
1000
0000
0001
0000
0010
0000
0001
0010
,
0001
0000
1000
0000
0010
0000
1000
0100
,
1000
0000
0001
0000
0010
0000
0001
0100
,
0001
0000
1000
0000
0010
0000
1000
0010
,
0100
0000
0001
0000
0010
0000
0001
0010
,
0100
0000
1000
0000
0100
0001
0000
0000
,
0100
0001
0000
0000
0010
0100
0000
1000
,
0001
0000
0001
0000
0001
0010
0100
0000
,
1000
0000
1000
0000
1000
0100
0001
0000
,
0100
0000
0100
0000
0100
0010
0001
0000
,
0010
0000
0010
0000
0010
0100
1000
0000
,
0001
0010
0100
1000
0100
0000
0001
0000
,
1000
0010
0100
0001
0100
0000
1000
0000
,
0001
0000
0001
0000
0010
0100
0010
0000
,
1000
0000
1000
0000
0010
0100
0010
0100
,
0010
1100
0010
1100
,
0010
0101
0010
0101
,
0010
0200
1300
0200
,
0301
0020
1030
0020
,
0031
0000
0000
1000
0001
0000
0010
0000
,
0100
0100
0010
0010
,
1000
0100
1000
0001
0000
0000
1000
0001
,
0000
0000
1000
0100
0000
0100
0000
0000
,
0000
0000
0000
0000
,
0001
0000
0000
0000
0010
0000
0000
0000
0100
0000
0000
0010
0000
0000
0100
0000
,
0010
0000
0000
0000
0100
0000
0000
0000
0001
0000
0000
0001
0000
0000
0100
0000
,
1000
0000
0000
0000
0100
0000
0000
0000
0010
0000
0000
0001
0000
0000
0010
0000
,
0100
0000
0000
0000
1000
0000
0000
0000
0010
0000
0000
0010
0000
0000
0010
0000
;

//---------------dance-single - ----------------
#NOTEDATA:;
#CHARTNAME:;
#STEPSTYPE:dance-single;
#DESCRIPTION:;
#CHARTSTYLE:;
#DIFFICULTY:Easy;
#METER:4;
#RADARVALUES:0.185,0.185,0.028,0.120,0.005,124.000,3.000,13.000,0.000,0.000,0.000,0.000,0.000,0.185,0.185,0.028,0.120,0.005,124.000,3.000,13.000,0.000,0.000,0.000,0.000,0.000;
#CREDIT:;
#DISPLAYBPM:127.000;
#NOTES:
0000
0000
0000
0000
,
0000
0000
0000
0000
,
0000
0000
0000
0000
,
0000
0000
0000
0000
,
0000
0000
1000
0001
,
2000
3000
0020
0030
,
0000
0000
0000
0001
,
0020
0030
0002
0003
,
1000
0000
1000
0100
,
0002
0003
0200
0300
,
1000
0000
0001
0100
,
2000
3000
0200
0300
,
0010
0010
0100
0100
,
0001
0010
0100
1000
,
0010
0010
0100
0100
,
1000
0100
0010
0001
,
1000
1000
0001
0001
,
0010
0100
1000
0001
,
1000
1000
0001
0001
,
0010
0100
0001
1000
,
0002
0000
0000
0000
,
0000
0000
0000
0003
,
2000
0000
0000
0000
,
0000
0000
0000
3000
,
0020
0000
0000
0000
,
0000
0000
0000
0030
,
0000
0100
0000
0100
,
0010
0100
0000
0010
,
0100
0010
0000
1000
,
0001
1000
0000
0001
,
1000
0001
0000
0010
,
0001
0100
0000
0010
,
1000
0100
0010
0100
,
0000
0000
0000
0000
0010
0000
0000
0000
0100
0000
0000
0000
0010
0000
0000
0100
,
0000
0000
0100
0100
,
0001
0000
0001
0001
,
1000
0010
1000
0000
,
0001
0010
0001
0100
,
0010
0010
1000
0000
,
0010
0010
1000
0000
,
0001
0010
0100
1000
,
0100
0100
0010
0010
,
0110
0000
0001
0000
,
2000
0100
3100
0000
,
0110
0000
1000
0000
,
0002
0100
0103
0000
,
0010
0000
1000
0000
,
0001
0000
0100
0000
,
1000
0100
0001
0000
,
0001
0010
1000
0000
,
1001
0000
0000
0000
;

//---------------dance-single - Blank----------------
#NOTEDATA:;
#CHARTNAME:;
#STEPSTYPE:dance-single;
#DESCRIPTION:Blank;
#CHARTSTYLE:;
#DIFFICULTY:Beginner;
#METER:3;
#RADARVALUES:0.112,0.139,0.139,0.065,0.000,63.000,15.000,7.000,0.000,0.000,0.000,0.000,0.000,0.112,0.139,0.139,0.065,0.000,63.000,15.000,7.000,0.000,0.000,0.000,0.000,0.000;
#CREDIT:;
#DISPLAYBPM:127.000;
#NOTES:
// measure 0
0000
0000
0000
0000
,  // measure 1
0000
0000
0000
0000
,  // measure 2
0000
0000
0000
0000
,  // measure 3
0000
0000
0000
0000
,  // measure 4
0000
0000
1000
0000
,  // measure 5
2000
0000
0000
0000
,  // measure 6
3000
0000
0000
0000
,  // measure 7
0001
0000
0002
0000
,  // measure 8
0003
0000
1000
0000
,  // measure 9
2000
0000
0000
0000
,  // measure 10
3000
0000
0000
0000
,  // measure 11
0001
0000
0002
0000
,  // measure 12
0013
0000
0010
0000
,  // measure 13
0100
0000
0100
0000
,  // measure 14
1000
0000
0000
0000
,  // measure 15
1001
0000
0000
0000
,  // measure 16
0010
0000
0010
0000
,  // measure 17
0100
0000
0100
0000
,  // measure 18
0001
0000
0000
0000
,  // measure 19
1001
0000
0000
0000
,  // measure 20
2000
0000
0000
0000
,  // measure 21
0000
0000
0000
0000
,  // measure 22
3200
0000
0000
0000
,  // measure 23
0000
0000
0000
0000
,  // measure 24
0302
0000
0000
0000
,  // measure 25
0000
0000
0000
0000
,  // measure 26
0003
0000
0000
0000
,  // measure 27
1001
0000
0000
0000
,  // measure 28
0110
0000
0000
0000
,  // measure 29
1001
0000
0000
0000
,  // measure 30
0110
0000
0010
0000
,  // measure 31
0010
0000
0100
0000
,  // measure 32
0100
0000
0010
0000
,  // measure 33
0010
0100
0000
0000
,  // measure 34
0000
0000
1000
1000
,  // measure 35
0000
0000
0001
0001
,  // measure 36
0000
0000
0010
0010
,  // measure 37
0000
0000
0100
0100
,  // measure 38
1000
0000
1000
0000
,  // measure 39
0010
0000
0010
0000
,  // measure 40
0001
0000
0001
0000
,  // measure 41
0100
0100
0100
0100
,  // measure 42
0100
0000
0000
0000
,  // measure 43
0110
0000
0000
0000
,  // measure 44
0010
0000
0000
0000
,  // measure 45
0110
0000
0000
0000
,  // measure 46
1001
0000
1001
0000
,  // measure 47
1001
0000
0000
0000
,  // measure 48
1001
0000
1001
0000
,  // measure 49
1001
0000
0000
0000
,  // measure 50
0110
0000
0000
0000
;
