#TITLE:All the Rowboats;
#SUBTITLE:;
#ARTIST:Regina Spektor;
#TITLETRANSLIT:;
#SUBTITLETRANSLIT:;
#ARTISTTRANSLIT:;
#GENRE:Poetic;
#CREDIT:;
#BANNER:All the Rowboats.png;
#BACKGROUND:All the Rowboats-bg.png;
#LYRICSPATH:;
#CDTITLE:;
#MUSIC:All the Rowboats.mp3;
#OFFSET:-0.052;
#SAMPLESTART:56.420;
#SAMPLELENGTH:15.000;
#SELECTABLE:YES;
#BPMS:0.000=166.000
,224.000=162.000
,228.000=176.000
,232.000=158.000
,236.000=164.500
,240.000=149.000
,244.000=145.000
,248.000=116.000
,252.000=135.000
;
#STOPS:
;
#BGCHANGES:-0.500=All the Rowboats.avi=1.000=0=0=0=StretchNoLoop====,
99999=-nosongbg-=1.000=0=0=0 // don't automatically add -songbackground-
;
#KEYSOUNDS:;
#ATTACKS:;

//---------------dance-single - ----------------
#NOTES:
     dance-single:
     :
     Hard:
     11:
     0.552,0.531,0.564,0.042,0.057,312.000,54.000,4.000,0.000,0.000,0.000,0.552,0.531,0.564,0.042,0.057,312.000,54.000,4.000,0.000,0.000,0.000: // measure 0
0000
0000
0000
0000
,  // measure 1
0000
0000
0000
0000
,  // measure 2
0000
0000
0000
0000
,  // measure 3
0000
0000
0000
0000
,  // measure 4
0000
0000
0000
0000
,  // measure 5
0000
0000
0000
0000
,  // measure 6
1000
0010
1000
0001
0100
0000
0101
0000
,  // measure 7
1000
0010
1000
0001
0100
0101
0000
0011
,  // measure 8
0001
0000
0010
0000
0100
0000
1000
0010
0100
0000
0000
0010
0000
0000
1000
0000
,  // measure 9
0001
0010
0001
0100
1000
0000
1100
0000
,  // measure 10
0100
0010
1000
0001
0010
0000
0000
0000
,  // measure 11
0100
0100
1000
0100
0010
0000
0110
0000
,  // measure 12
0010
0010
0001
0100
0001
0000
1001
0000
,  // measure 13
1000
1000
0010
1000
0100
0001
0100
0010
,  // measure 14
0001
0100
1000
0000
1000
0100
0001
0000
,  // measure 15
0001
0001
0010
0001
0100
0000
0110
0000
,  // measure 16
0010
0010
1000
0100
0001
0000
0101
0000
,  // measure 17
0100
0100
0010
0001
1000
0010
0001
0010
,  // measure 18
0100
0001
0010
0100
1000
0000
1010
0000
,  // measure 19
0101
0000
0001
0001
0010
0000
0110
0000
,  // measure 20
0100
0000
1000
1000
0010
0000
0000
0110
,  // measure 21
0000
0000
0100
0000
0000
0000
0001
0000
0010
0000
0000
0001
0000
0000
1000
0000
,  // measure 22
0010
1000
0001
0100
0010
0000
0000
0000
,  // measure 23
1010
1000
0000
1000
0200
0000
0301
0000
,  // measure 24
0000
0100
0010
0001
0100
0000
0110
0000
,  // measure 25
0000
0010
0000
1000
0010
0010
1000
0001
,  // measure 26
0100
0010
0100
0000
0010
0100
0010
0000
,  // measure 27
1000
0000
0000
1010
0000
0011
0000
0000
,  // measure 28
0001
0000
0000
0101
0000
1100
0000
0000
,  // measure 29
1000
0000
0000
1010
0000
0101
0000
0000
,  // measure 30
0001
0000
0000
0011
0000
1100
0000
0000
,  // measure 31
1001
0000
1000
0001
0010
0000
0011
0000
,  // measure 32
1001
0000
0001
1000
0010
0000
1010
0000
,  // measure 33
0110
0000
0100
0001
0010
0100
1000
0001
,  // measure 34
0100
0000
0010
0000
0100
0000
0000
0000
0001
0000
0000
0000
1000
0000
0100
0010
,  // measure 35
0001
0100
0001
1000
0100
0000
0110
0000
,  // measure 36
0000
1000
0001
0010
0001
0000
1000
1010
,  // measure 37
0000
1001
0000
0000
0011
0000
0010
0000
,  // measure 38
0002
0000
0000
0000
0023
0000
0000
0000
0230
0000
0000
0000
1300
0000
0100
0010
,  // measure 39
0001
0100
0001
1000
0000
0100
0000
0110
,  // measure 40
0000
0010
0001
0100
0000
0101
0000
1010
,  // measure 41
0000
0000
1000
0100
0000
0010
0100
0000
,  // measure 42
1000
0001
0100
0000
0001
1000
0100
0010
,  // measure 43
0110
0000
0010
0001
0000
0101
0000
1010
,  // measure 44
0000
0000
1000
0100
0110
0000
1001
0000
,  // measure 45
0000
1000
0000
0100
0010
0001
0010
0001
,  // measure 46
1000
0010
1000
0100
1100
0000
1000
0100
,  // measure 47
0110
0000
0010
0001
0000
0000
0001
0010
,  // measure 48
0110
0000
0010
1000
0000
1000
0010
0100
,  // measure 49
1000
0100
0001
0100
1000
0000
0000
0000
,  // measure 50
0001
0100
1000
0100
0001
0000
0000
0000
,  // measure 51
1001
0000
1000
0010
0000
0010
0100
0001
,  // measure 52
0101
0000
0001
0010
0000
0010
0100
0010
,  // measure 53
0110
0000
0100
0010
0000
0001
0010
0100
,  // measure 54
1000
0000
1000
0001
0000
0001
0100
0001
,  // measure 55
0101
0001
0010
0100
1000
0000
1010
0000
,  // measure 56
1000
0100
0010
0001
1000
1010
0000
1100
,  // measure 57
0100
0000
0000
0000
0000
0000
0010
0001
0100
0000
0000
0010
0000
0000
1000
0000
,  // measure 58
0000
0000
0000
1000
0100
0010
0100
0000
0100
0000
0010
0000
,  // measure 59
0001
0010
1000
0010
0001
0000
0101
0000
,  // measure 60
0001
0100
1000
0100
0001
0000
0011
0000
,  // measure 61
0000
0000
0000
1001
,  // measure 62
0000
0000
0110
0000
,  // measure 63
0000
0000
1010
0000
;

//---------------dance-single - Blank----------------
#NOTES:
     dance-single:
     :
     Beginner:
     3:
     0.167,0.166,0.157,0.010,0.000,96.000,15.000,1.000,0.000,0.000,0.000,0.167,0.166,0.157,0.010,0.000,96.000,15.000,1.000,0.000,0.000,0.000:
0000
0000
0000
0000
,
0000
0000
0000
0000
,
0000
0000
0000
0000
,
0000
0000
0000
0000
,
0000
0000
0000
0000
,
0000
0000
0000
0000
,
0000
0000
0000
1010
,
0000
0000
0000
0000
0000
1100
0000
0000
,
1000
0000
1000
0000
,
0001
0000
0000
0101
,
0000
0000
0000
0000
,
0001
0000
0001
0000
,
1000
0000
1000
0000
,
0100
0000
0010
0000
,
0100
0000
0100
0000
,
1000
0000
0010
0000
,
1000
0000
0001
0000
,
0010
0000
0001
0000
,
0010
0000
0100
0000
,
1100
0000
1000
0000
,
0000
0000
1000
0000
,
1001
0000
0001
0000
,
0000
0000
0001
0000
,
0101
0000
0001
0000
,
0000
0000
0001
0000
,
1001
0000
1000
0000
,
0000
0000
1000
0000
,
0010
0000
0000
0000
,
0100
0000
0000
0000
,
0001
0000
0000
0000
,
1000
0000
0000
0000
,
0100
0000
0010
0000
,
0100
0000
0100
0000
,
1000
0000
0100
0000
,
0010
0000
0001
0000
,
1000
0000
1000
0000
,
0001
0000
0001
0000
,
0200
0000
0310
0000
,
0010
0010
0010
0000
,
0100
0000
0001
0000
,
1000
0000
0100
0000
,
1000
0000
1000
0000
,
0001
0000
0000
0000
,
0100
0000
0001
0000
,
1000
0000
0100
0000
,
0010
0000
0000
0000
,
0110
0000
0000
0000
,
0100
0000
0000
0000
,
0100
0000
0000
0000
,
1000
0100
0001
0000
,
1000
0100
0001
0000
,
1000
0000
1000
0000
,
0001
0000
0001
0000
,
1000
0000
0100
0000
,
0010
0000
0001
0000
,
0000
0000
0000
1001
,
0000
0000
0000
0000
0000
0110
0000
0000
,
0010
0000
1000
0000
,
1000
0001
0001
0000
,
0000
0000
0000
0101
,
0000
0000
0000
0011
,
0000
0000
0000
0110
,
0000
0000
1001
0000
,
0000
0000
1001
0000
;

//---------------dance-single - Blank----------------
#NOTES:
     dance-single:
     :
     Easy:
     6:
     0.322,0.332,0.334,0.031,0.000,181.000,32.000,3.000,0.000,0.000,0.000,0.322,0.332,0.334,0.031,0.000,181.000,32.000,3.000,0.000,0.000,0.000:
0000
0000
0000
0000
,
0000
0000
0000
0000
,
0000
0000
0000
0000
,
0000
0000
0000
0000
,
0000
0000
0000
0000
,
0000
0000
0000
0000
,
1000
0100
0010
0110
,
0010
0100
1000
1100
,
1000
0000
0001
0001
,
0100
0010
1000
1010
,
1000
0001
0100
0000
,
0010
0010
1000
0000
,
0001
0001
0100
0000
,
0001
0010
0100
0010
,
0001
1000
0001
0000
,
1000
1000
0010
0000
,
0100
0100
0001
0000
,
0010
0001
0100
0010
,
1000
0100
0001
0000
,
0101
0000
1100
0000
,
1010
0000
0011
0000
,
0110
0000
1001
0000
,
1000
0100
0010
0001
,
1000
0000
1000
0000
,
0001
0001
0010
0000
,
0100
0100
1000
0010
,
0100
0000
0100
0000
,
0210
0000
0001
0000
,
0010
0000
0301
0000
,
0102
0000
1000
0000
,
0100
0000
1003
0000
,
1000
0100
0010
0001
,
0010
0010
0100
0100
,
1000
0001
0100
0010
,
1000
1000
0001
0001
,
0010
0001
0100
1000
,
0100
0100
0010
0010
,
2000
0001
3001
0000
,
0001
0010
0100
1000
,
1010
0010
0100
0000
,
0110
0100
0010
0000
,
0110
0100
0001
0010
,
0100
1000
0010
0000
,
1010
1000
0001
0000
,
0011
0001
1000
0000
,
1100
1000
0001
0100
,
0001
0010
0100
0010
,
0100
0000
0100
0000
,
0010
0000
0010
0000
,
0001
0100
1000
0100
,
0001
0100
1000
0100
,
0110
0000
0110
0000
,
1001
0000
1001
0000
,
0011
0000
1100
0000
,
1010
0000
0101
0000
,
0001
0010
0100
0110
,
0010
0001
0100
0101
,
0001
0001
1000
1000
,
0100
0010
0010
0100
,
1000
0010
0100
0101
,
0001
1000
0100
1100
,
1000
1000
0001
0101
,
0000
0000
0110
0000
,
0000
0000
1001
0000
;

//---------------dance-single - Blank----------------
#NOTES:
     dance-single:
     :
     Medium:
     7:
     0.382,0.398,0.282,0.000,0.037,229.000,27.000,0.000,0.000,0.000,0.000,0.382,0.398,0.282,0.000,0.037,229.000,27.000,0.000,0.000,0.000,0.000:
0000
0000
0000
0000
,
0000
0000
0000
0000
,
0000
0000
0000
0000
,
0000
0000
0000
0000
,
0000
0000
0000
0000
,
0000
0000
0000
0000
,
1000
0010
1000
0000
0001
0000
1000
0000
,
0001
0010
0001
0000
1000
0001
0000
0000
,
1000
0000
0000
0000
0000
0000
0100
0000
0010
0000
0000
0100
0000
0000
0010
0000
,
0001
0000
0100
0001
0100
0000
0001
0000
,
1000
0000
0100
1000
0100
0000
0000
0000
,
0000
0000
0010
0100
1000
0000
0001
0000
,
0000
0000
1000
0001
0100
0000
0001
0000
,
0000
0000
0100
0010
1000
0000
0100
0010
,
0001
1000
0000
0000
,
0001
0000
1000
0100
1000
0000
0010
0000
,
0000
0000
0100
0001
0100
0000
0010
0000
,
0000
0000
1000
0001
1000
0001
1000
0000
,
0100
0010
0100
0010
0100
0000
0000
0000
,
0000
0000
1000
0100
0010
0000
0001
0000
,
0000
0000
1000
0010
0100
0000
0000
0001
,
0000
1000
0000
0000
0001
1000
0001
0000
,
1000
0001
1000
0001
0100
0000
0000
0000
,
0000
0100
0000
0010
1000
0000
0100
0000
,
0000
0100
0010
0001
0100
0000
0100
0000
,
0000
0001
0000
0000
1000
0100
1000
0000
,
0001
0100
0001
0000
0010
0000
0010
0000
,
0110
0000
0000
0000
0000
1001
0000
0000
,
0110
0000
0000
0000
0000
1010
0000
0000
,
0101
0000
0000
0000
0000
0011
0000
0000
,
1100
0000
0000
0000
0000
1001
0000
0000
,
0000
0000
1000
0100
1000
0000
0001
0000
,
0000
0000
0100
0001
0100
0000
0010
0000
,
0000
0000
1000
0010
0100
0001
0010
0100
,
1000
0000
0001
0000
0000
0000
1000
0001
,
1000
0010
0100
0010
1000
0000
0100
0000
,
0000
0010
0001
0000
0010
0000
0100
1100
,
0000
1100
0000
0000
1000
0000
0001
0000
,
0010
0100
1000
0010
,
0000
0100
0001
0100
0000
0010
0000
0100
,
0000
0100
1000
0100
0000
0010
0000
0100
,
0000
0000
0010
1000
0000
0100
0010
0001
,
0100
0001
1000
0000
1001
0000
0000
0000
,
0000
0000
1000
0100
0010
0000
0100
0000
,
0000
0000
0010
0100
0001
0000
0100
0000
,
0000
0000
0010
0000
0000
0000
0001
0000
0100
0000
0000
0001
0000
0000
1000
0000
,
0100
0010
0001
1000
0010
0000
1000
0010
,
1000
0000
0000
0000
,
0000
0000
0000
0000
,
1000
0100
0001
0100
1000
0000
0000
0000
,
1000
0100
0001
0100
1000
0000
0000
0000
,
1001
0000
0000
0000
0000
0110
0000
0000
,
1001
0000
0000
0000
0000
1010
0000
0000
,
0101
0000
0000
0000
0000
0011
0000
0000
,
1100
0000
0000
0000
0000
1001
0000
0000
,
1001
0000
0001
1000
0001
0000
1001
0000
,
1001
0000
1000
0001
1000
0001
0000
0100
,
0010
0000
0000
0000
0000
0000
0000
0000
1000
0000
0000
1000
0000
0000
1000
0000
,
0000
0000
0000
0001
0100
0001
0100
0000
0010
0000
1000
0000
,
0100
0000
0010
0100
0010
0000
0110
0000
,
0100
0000
0010
0100
0010
0000
0110
0000
,
0000
0000
0000
0011
,
0000
0000
1100
0000
,
0000
0000
1001
0000
;
