#VERSION:0.81;
#TITLE:4";
#SUBTITLE:;
#ARTIST:Amaia Montero;
#TITLETRANSLIT:;
#SUBTITLETRANSLIT:;
#ARTISTTRANSLIT:;
#GENRE:Pop-Rock;
#ORIGIN:;
#CREDIT:;
#BANNER:4-jacket.png;
#BACKGROUND:4-bg.png;
#PREVIEWVID:;
#JACKET:4-jacket.png;
#CDIMAGE:;
#DISCIMAGE:;
#LYRICSPATH:;
#CDTITLE:;
#MUSIC:4.mp3;
#OFFSET:0.500;
#SAMPLESTART:45.400;
#SAMPLELENGTH:15.000;
#SELECTABLE:YES;
#BPMS:0.000=149.060;
#STOPS:112.000=0.805;
#DELAYS:;
#WARPS:;
#TIMESIGNATURES:0.000=4=4;
#TICKCOUNTS:0.000=4;
#COMBOS:0.000=1;
#SPEEDS:0.000=1.000=0.000=0;
#SCROLLS:0.000=1.000;
#FAKES:;
#LABELS:0.000=Song Start;
#BGCHANGES:1.500=4.avi=1.000=0=0=0=StretchNoLoop====,
99999=-nosongbg-=1.000=0=0=0 // don't automatically add -songbackground-
;
#KEYSOUNDS:;
#ATTACKS:
;

//---------------dance-single - ----------------
#NOTEDATA:;
#CHARTNAME:;
#STEPSTYPE:dance-single;
#DESCRIPTION:;
#CHARTSTYLE:;
#DIFFICULTY:Hard;
#METER:11;
#RADARVALUES:0.477,0.461,0.245,0.301,0.075,297.000,26.000,32.000,0.000,0.000,0.000,0.000,0.000,0.477,0.461,0.245,0.301,0.075,297.000,26.000,32.000,0.000,0.000,0.000,0.000,0.000;
#CREDIT:RIME;
#NOTES:
// measure 0
0000
0000
0000
0000
0000
0000
0000
0000
1000
0000
0000
0001
0100
0000
0000
0000
,  // measure 1
0001
0000
0001
0010
0000
0000
0100
0010
,  // measure 2
0001
0000
0000
0011
0000
0012
0000
0000
,  // measure 3
1003
0000
1000
0010
0000
0010
1000
0010
,  // measure 4
0000
1000
0001
0100
0001
0010
0100
1000
,  // measure 5
0010
1000
0010
1000
0000
1000
0001
0100
,  // measure 6
0000
0100
0001
0010
0000
0010
0100
1000
,  // measure 7
0000
1000
0001
1000
0000
1000
0010
0001
,  // measure 8
0000
0001
0100
1000
0000
0000
0000
0000
,  // measure 9
0000
1000
0100
0010
0100
1000
0001
1000
,  // measure 10
0000
0010
1000
0100
0000
1000
0100
2000
,  // measure 11
0000
3001
1000
0010
0100
0001
0001
1000
,  // measure 12
0100
1000
0010
1000
0000
0000
1001
0000
,  // measure 13
1000
0010
0100
0010
1000
0001
0100
0010
,  // measure 14
0000
0010
1000
0100
0000
0100
0010
0001
,  // measure 15
0000
0001
1000
0001
0000
1000
0100
0001
,  // measure 16
0000
0001
0010
1000
0000
0000
1001
0000
,  // measure 17
0000
1000
0010
1000
0001
0010
0001
0200
,  // measure 18
0000
0310
1000
0100
1000
0010
0100
0001
,  // measure 19
0000
1000
0100
0001
0000
0001
0100
1000
,  // measure 20
0000
1000
0010
0001
0010
1000
0010
0000
,  // measure 21
0220
0000
0330
2020
0000
3030
1000
0010
,  // measure 22
0200
0000
0300
0022
0000
0033
0001
0010
,  // measure 23
0200
0000
0300
2020
0000
3030
1000
0001
,  // measure 24
1000
0000
0001
0000
0000
0000
0001
0000
1000
0000
0000
0100
0000
0000
1000
0000
,  // measure 25
0010
1000
0000
0000
0000
0000
0000
0000
,  // measure 26
0000
0001
0010
0100
1000
0100
0000
0010
,  // measure 27
0000
0002
0000
0000
0000
0000
0000
0000
,  // measure 28
1003
1000
1100
0000
0001
0000
0001
1000
,  // measure 29
0100
0000
0100
0010
0001
0001
0000
1000
,  // measure 30
1000
0000
0020
0000
0000
1030
0001
0200
,  // measure 31
0000
0000
0310
0000
,  // measure 32
0110
0000
0000
0010
0000
0000
1000
0000
0100
0000
0000
0000
0010
0000
0001
0000
,  // measure 33
0100
0000
0100
0010
1000
0000
0100
0010
,  // measure 34
0001
2000
0000
0000
0000
3001
0100
0020
,  // measure 35
0000
0000
1030
0000
,  // measure 36
1000
0000
0000
0001
0000
0000
0100
0000
0001
0000
0000
0000
0010
0000
0100
0000
,  // measure 37
1000
0000
0000
0001
0000
0000
0100
0000
0010
0000
0100
0000
0000
0000
0001
0000
,  // measure 38
0100
0000
0120
0000
0000
1030
0100
0002
,  // measure 39
0000
0000
0103
0000
,  // measure 40
1100
0000
0000
0100
0000
0000
0010
0000
0011
0000
0000
0000
0100
0000
1000
0000
,  // measure 41
1010
0000
0100
0001
0101
0001
0000
1000
,  // measure 42
0001
0000
0102
0000
0000
1003
0100
0020
,  // measure 43
0000
0000
0130
0000
,  // measure 44
1000
0000
0000
0100
0000
0000
0010
0000
0110
0000
0000
0000
0100
0000
1000
0000
,  // measure 45
0001
0000
1000
0001
0100
0100
0000
0010
,  // measure 46
1000
0000
0002
0000
0000
0103
0010
2000
,  // measure 47
0000
0000
3001
0000
,  // measure 48
1001
0000
0000
1000
0000
0000
0010
0000
0110
0000
0000
0010
0000
0000
0100
0000
,  // measure 49
0101
0000
0000
0001
0000
0000
1001
0000
1000
0000
0100
0000
0000
0000
0010
0000
,  // measure 50
0001
0000
2000
0000
0000
3100
0010
0002
,  // measure 51
0000
0000
1003
0000
,  // measure 52
1000
0000
0000
0100
0000
0000
0001
0000
0100
0000
0000
1000
0000
0000
0010
0000
,  // measure 53
0001
0000
0000
0100
0000
0000
1000
0000
0010
0000
0000
0000
0000
0000
0000
0000
,  // measure 54
1010
0000
0202
0000
0303
0001
0010
0100
,  // measure 55
2000
0000
3010
0000
,  // measure 56
1000
0000
0000
0001
0000
0000
0010
0000
0100
0000
0000
1000
0000
0000
0001
0000
,  // measure 57
0100
0000
0000
0010
0000
0000
1000
0000
0100
0000
1000
0000
0000
0000
0000
0000
,  // measure 58
0010
0200
0000
0000
0000
1300
0100
0020
,  // measure 59
0000
0130
0002
1000
0000
0000
0000
1003
,  // measure 60
0000
0000
1000
0000
1001
0000
0000
0011
,  // measure 61
0000
1001
0000
0000
;

//---------------dance-single - ----------------
#NOTEDATA:;
#CHARTNAME:;
#STEPSTYPE:dance-single;
#DESCRIPTION:;
#CHARTSTYLE:;
#DIFFICULTY:Medium;
#METER:7;
#RADARVALUES:0.337,0.346,0.235,0.056,0.000,220.000,25.000,6.000,0.000,0.000,0.000,0.000,0.000,0.337,0.346,0.235,0.056,0.000,220.000,25.000,6.000,0.000,0.000,0.000,0.000,0.000;
#CREDIT:;
#NOTES:
0000
0000
0000
0000
,
1000
0000
0000
1000
0000
0000
0000
0000
,
0001
0000
0000
0001
0000
0001
0000
0000
,
0010
0000
0000
0010
0000
0000
0000
0100
,
0000
1000
0001
0100
,
0001
0000
0010
0000
,
0100
0000
1000
0000
0100
0010
0001
0010
,
0000
0100
0000
1000
0000
1000
0001
0100
,
0000
0001
1000
0100
0000
0000
0000
0000
,
0000
1000
0010
0100
,
0001
0000
1000
0000
0100
0010
0001
0010
,
0000
0010
0000
0100
0000
1000
0000
0001
,
0000
1000
0001
1000
0000
0000
0000
0000
,
0000
0010
1000
0001
,
0100
0000
0100
0000
0010
1000
0010
0100
,
0000
0001
0000
0010
0000
0100
0000
1000
,
0000
0001
1000
0001
0000
0000
0000
0000
,
0000
1000
0100
1000
,
0001
0000
0100
0000
0001
0000
0010
0010
,
0000
0100
0000
0100
0000
1000
0001
0100
,
0000
0001
1000
0100
0000
0000
0000
0000
,
2100
0000
3001
0000
,
0102
0000
1003
0000
,
2010
0000
0000
0000
3001
0000
0001
1000
,
0001
1000
0000
0000
0100
0000
1000
0000
,
0020
0000
0000
0000
,
0130
0100
0001
0010
,
0100
1000
0100
1000
0100
1000
0100
1000
,
0100
0110
0001
0010
,
0100
0000
1000
0000
1000
0010
0000
1000
,
0010
0000
0100
0000
0000
0000
0001
0010
,
0000
0000
0000
0000
,
1000
1000
0001
0100
,
0001
0000
0010
0000
0100
0000
1000
0100
,
0010
0002
0000
0000
0000
0000
1000
1003
,
0000
0000
1001
0000
,
0001
0001
1000
1010
,
1000
1010
0001
0011
,
0001
0000
0011
0000
0000
0010
0100
1000
,
0000
0000
0000
0000
,
1000
1000
0001
0011
,
0001
0011
1000
1010
,
1000
0000
1010
0000
0000
0010
0100
0001
,
0000
0000
0000
0000
,
1000
0100
0010
0100
,
1000
0000
0001
0000
0100
0001
0000
0001
,
0010
0000
0100
0000
0000
0000
1000
0100
,
0000
0000
1100
0000
,
0001
0001
1000
0010
,
0100
0010
1000
0001
,
0100
0000
0001
0000
0000
0001
1000
0100
,
0000
0000
0101
0000
,
1000
1000
0100
0110
,
0100
0110
1000
1100
,
1000
0000
1100
0000
1000
0100
0010
0000
,
0002
0000
1003
0000
,
1000
0101
1000
0001
,
0001
1100
0001
1000
,
1000
0000
0101
0000
1000
0010
1000
0000
,
0100
0000
0100
0000
0010
0001
0010
0000
,
0010
0100
1000
0000
1100
0000
0000
1100
,
0000
1100
0000
0000
;

//---------------dance-single - Blank----------------
#NOTEDATA:;
#CHARTNAME:;
#STEPSTYPE:dance-single;
#DESCRIPTION:Blank;
#CHARTSTYLE:;
#DIFFICULTY:Easy;
#METER:4;
#RADARVALUES:0.145,0.173,0.094,0.000,0.000,98.000,10.000,0.000,0.000,0.000,0.000,0.000,0.000,0.145,0.173,0.094,0.000,0.000,98.000,10.000,0.000,0.000,0.000,0.000,0.000,0.000;
#CREDIT:;
#NOTES:
0000
0000
1000
1000
,
0001
0000
0001
0000
,
0100
0000
0010
0000
,
1000
0000
0100
0000
,
1000
0000
0001
0000
,
0010
0000
0010
0000
,
0100
0000
1000
0000
,
0010
0000
0010
0000
,
0100
0000
0001
0000
,
1000
0000
0001
0000
,
1000
0000
0100
0000
,
0010
0000
0001
0000
,
1000
0000
0010
0000
,
0100
0000
0001
0000
,
0100
0000
0010
0000
,
1000
0000
0100
0000
,
0010
0000
0001
0000
,
1000
0000
0001
0000
,
0010
0000
0100
0000
,
0110
0000
1001
0000
,
0110
0000
1001
0000
,
1000
0000
0000
0000
,
0001
0000
0000
0000
,
1010
0000
0000
0000
,
0011
0000
0000
0000
,
1000
0000
0000
0000
,
0001
0000
0000
0000
,
1100
0000
0000
0000
,
0101
0000
0000
0000
,
1000
0000
0001
0000
,
1000
0000
0010
0000
,
0000
0000
0010
0000
,
0000
0000
1000
0000
,
0001
0000
1000
0000
,
0001
0000
0100
0000
,
0000
0000
0100
0000
,
0000
0000
0010
0000
,
1000
0000
0100
0000
,
0010
0000
0001
0000
,
0000
0000
0000
0000
,
0000
0000
0010
0000
,
0001
0000
0100
0000
,
0010
0000
1000
0000
,
0000
0000
0000
0000
,
0010
0000
0010
0000
,
1000
0000
0001
0000
,
0100
0000
0010
0000
,
0000
0000
0010
0000
,
0010
0000
0100
0000
,
0001
0000
1000
0000
,
0100
0000
0010
0000
,
0000
0000
0000
0000
,
0100
0000
0001
0000
,
0100
0000
1000
0000
,
0010
0000
0001
0000
,
0000
0000
0000
0000
,
0100
0000
1000
0000
,
0100
0000
0001
0000
,
0010
0000
1000
0000
,
0000
0000
0000
0000
,
0000
0000
1001
0000
,
0000
1001
0000
0000
;

//---------------dance-single - Blank----------------
#NOTEDATA:;
#CHARTNAME:;
#STEPSTYPE:dance-single;
#DESCRIPTION:Blank;
#CHARTSTYLE:;
#DIFFICULTY:Beginner;
#METER:2;
#RADARVALUES:0.081,0.115,0.132,0.000,0.000,46.000,14.000,0.000,0.000,0.000,0.000,0.000,0.000,0.081,0.115,0.132,0.000,0.000,46.000,14.000,0.000,0.000,0.000,0.000,0.000,0.000;
#CREDIT:RIME;
#NOTES:
0000
0000
0000
0000
,
0000
0000
0000
0000
,
0000
0000
0000
0000
,
0000
0000
0000
0000
,
0000
0000
0000
0000
,
1000
0000
0000
0000
,
1000
0000
0000
0000
,
0010
0000
0000
0000
,
0010
0000
0000
0000
,
1000
0000
0000
0000
,
0001
0000
0000
0000
,
1000
0000
0000
0000
,
0010
0000
0000
0000
,
0100
0000
0000
0000
,
0000
0000
0000
0000
,
0001
0000
0000
0000
,
0000
0000
0000
0000
,
0010
0000
0000
0000
,
0100
0000
0000
0000
,
1000
0000
0000
0000
,
0001
0000
0000
0000
,
0101
0000
0000
0000
,
0000
0000
0000
0000
,
1010
0000
0000
0000
,
0000
0000
0000
0000
,
1001
0000
0000
0000
,
0000
0000
0000
0000
,
0110
0000
0000
0000
,
0000
0000
0010
0000
,
0000
0000
0010
0000
,
0000
0000
0100
0000
,
0000
0000
0100
0000
,
0000
0000
1000
0000
,
0000
0000
1000
0000
,
0000
0000
0001
0000
,
0000
0000
0001
0000
,
0000
0000
1100
0000
,
0000
0000
0000
0000
,
0000
0000
0011
0000
,
0000
0000
0000
0000
,
0000
0000
1010
0000
,
0000
0000
0000
0000
,
0000
0000
0101
0000
,
0000
0000
1000
0000
,
1000
0000
0001
0000
,
0000
0000
0001
0000
,
0000
0000
0010
0000
,
0000
0000
0010
0000
,
0000
0000
1000
0000
,
0000
0000
1000
0000
,
0000
0000
0100
0000
,
0000
0000
0100
0000
,
0000
0000
0110
0000
,
0000
0000
0000
0000
,
0000
0000
1001
0000
,
0000
0000
0000
0000
,
0000
0000
1010
0000
,
0000
0000
0000
0000
,
0000
0000
0101
0000
,
0000
0000
0000
0000
,
0000
0000
0011
0000
,
0000
0011
0000
0000
;
