#TITLE:break up with your girlfriend, im bored;
#SUBTITLE:;
#ARTIST:Ariana Grande;
#TITLETRANSLIT:;
#SUBTITLETRANSLIT:;
#ARTISTTRANSLIT:;
#GENRE:;
#CREDIT:;
#BANNER:;
#BACKGROUND:guffwin.jpg;
#LYRICSPATH:;
#CDTITLE:;
#MUSIC:Guffwin.ogg;
#OFFSET:0.000000;
#SAMPLESTART:40.588001;
#SAMPLELENGTH:15.000000;
#SELECTABLE:YES;
#BPMS:0.000000=170.000000
,80.000000=85.000000
,95.500000=170.000000
,191.500000=85.000000
,207.500000=170.000000
;
#STOPS:95.000000=0.353000
;
#BGCHANGES:;
#KEYSOUNDS:;
#ATTACKS:;

//---------------dance-single - ----------------
#NOTES:
     dance-single:
     :
     Hard:
     13:
     0.632069,0.799386,0.441615,0.433283,0.170813,531.000000,478.000000,53.000000,52.000000,0.000000,0.000000,0.632069,0.799386,0.441615,0.433283,0.170813,531.000000,478.000000,53.000000,52.000000,0.000000,0.000000:
0000
0000
0000
0000
,
0000
0000
0000
0000
,
0000
0000
0000
0000
,
0000
0000
0000
0000
,
0000
0000
0000
0000
0000
0000
0000
0000
0001
0000
0000
0100
0000
0000
0010
0000
,
1000
0000
0000
0100
0000
0000
0001
0000
0100
0000
0000
0000
1000
0000
0000
0000
,
0110
0000
0000
0000
1001
0000
0000
0000
0100
0000
0000
0010
0000
0000
1000
0000
,
0001
0000
0000
0100
0000
0000
1000
0000
0100
0000
0000
0000
0001
0000
0000
0000
,
0220
0000
0000
0000
0330
0000
0000
0000
0001
0000
0000
0100
0000
0000
0010
0000
,
1000
0000
0000
0100
0000
0000
0010
0000
0001
0000
0000
0000
0110
0000
0000
0000
,
2002
0000
0000
0003
0002
0000
0000
3000
2000
0000
3003
0000
1000
0000
0100
0000
,
0010
0001
0010
0100
1000
0010
0001
0010
,
1000
0000
0000
0000
0000
0000
0100
0000
0010
0000
0000
0001
0000
0000
0100
0000
,
0010
0000
0000
1000
0000
0000
0100
0000
1000
0000
0000
0000
0110
0000
0000
0000
,
0011
0000
0000
0000
0000
0000
0100
0000
0010
0000
0000
1000
0000
0000
0010
0000
,
0100
0000
0000
0001
0000
0000
0010
0000
1000
0000
0010
0000
0001
0010
0001
0000
,
0011
0000
0000
0000
0000
0000
0000
0000
0100
0000
0000
0001
0000
0000
0010
0000
,
0100
0000
0000
1000
0000
0000
0100
0000
0001
0000
0000
0000
0100
0000
0000
0000
,
2200
0000
0000
0300
0200
0000
0000
3000
2000
0000
0000
3300
1000
0000
0010
0000
,
0100
0001
0010
0100
1000
0100
0001
0100
,
1000
0000
0010
0000
0100
0000
0001
0010
0000
0001
0010
0000
0110
0000
1100
0000
,
0011
0000
0010
0000
0001
0000
1000
0100
0000
0010
0001
0000
0020
0000
0130
0000
,
1010
0000
0100
0000
0001
0000
0010
0001
0000
1000
0100
0000
0010
0000
0100
0000
,
0011
0000
1100
0000
0010
0000
0100
0001
0000
0010
0100
0000
2000
0000
3010
0000
,
1000
0100
0001
1000
0000
1010
0000
0101
,
0000
0002
0010
0103
0010
1000
0100
0010
,
0001
0010
0001
0100
0010
1000
0001
1000
,
0000
0000
0020
0000
0130
0000
1000
0000
0001
0000
0100
0010
0100
0000
1010
0000
,
0000
0002
0103
0010
0000
1000
0010
0100
,
0001
0010
1000
0010
0002
0100
0013
0100
,
1000
0001
0010
0001
0100
0010
1000
0100
,
1000
0000
0010
0000
0100
0000
0011
0000
0000
0000
0001
0010
0001
0000
0110
0000
,
0000
2000
0000
3002
0000
0023
0000
2030
,
0000
3020
0000
0230
0000
0302
0000
2003
,
0000
3020
0000
0230
0000
1300
0000
0001
,
0010
0000
0100
0000
1000
0000
0001
0000
0010
0000
0100
0010
0100
0000
0010
0000
,
0001
0100
0010
0100
0001
0100
0010
2000
,
0010
3100
0010
0001
0010
0100
0010
0100
,
1000
0010
0100
0001
0010
0001
0100
0010
,
1000
0000
0010
0000
0100
0000
0011
0000
0000
0000
1000
0001
1000
0000
1001
0000
,
0000
0100
0101
0000
0010
1010
0000
0002
,
0103
0000
0000
0000
2000
0000
3010
0000
0000
0000
0001
0010
0001
0000
0101
0000
,
0000
0001
1010
0000
1000
0110
0000
0000
,
0001
0010
0100
1000
0020
0130
0000
0001
,
0000
0020
1030
0000
0010
0001
0000
0100
,
1000
0000
0000
0000
0100
0000
0001
0000
0010
0000
0100
1000
0100
0000
1010
0000
,
0000
0100
0011
0000
0001
1100
0000
1000
,
0010
0100
0000
0001
0010
0001
0100
0001
,
0100
0000
0010
0000
1000
0100
0000
1000
0100
0000
0110
0000
0011
0000
1100
0000
,
0100
0000
1000
0000
0001
0010
0000
0100
1000
0000
0200
0000
0310
0000
0101
0000
,
0010
0000
1000
0000
0100
1000
0000
0001
0010
0000
0100
0000
0010
0000
0001
0100
,
0010
0000
1000
0100
0010
0000
0101
0000
1010
0000
0110
0000
1001
0000
0010
0000
,
1000
0100
0001
1000
0000
1010
0000
0101
,
0000
0002
0010
0103
0010
1000
0100
0010
,
0001
0010
0001
0100
0010
1000
0001
1000
,
0000
0000
0020
0000
0130
0000
1000
0000
0001
0000
0100
0010
0100
0000
1010
0000
,
0000
0002
0103
0010
0000
1000
0010
0100
,
0001
0010
1000
0010
0002
0100
0013
0100
,
1000
0001
0010
0001
0100
0010
1000
0100
,
1000
0000
0010
0000
0100
0000
0011
0000
0000
0000
0001
0010
0001
0000
0110
0000
,
0000
2000
0000
3002
0000
0023
0000
2030
,
0000
3020
0000
0230
0000
0302
0000
2003
,
0000
3020
0000
0230
0000
1300
0000
0001
,
0010
0000
0100
0000
1000
0000
0001
0000
0010
0000
0100
0010
0100
0000
0010
0000
,
0001
0100
0010
0100
0001
0100
0010
2000
,
0010
3100
0010
0001
0010
0100
0010
0100
,
1000
0010
0100
0001
0010
0001
0100
0010
,
1000
0000
0010
0000
0100
0000
0011
0000
0000
0000
1000
0001
1000
0000
1001
0000
,
0000
0100
0101
0000
0010
1010
0000
0002
,
0103
0000
0000
0000
2000
0000
3010
0000
0000
0000
0001
0010
0001
0000
0101
0000
,
0000
0001
1010
0000
1000
0110
0000
0000
,
0001
0010
0100
1000
0020
0130
0000
0001
,
0000
0020
1030
0000
0010
0001
0000
0100
,
1000
0000
0000
0000
0100
0000
0001
0000
0010
0000
0100
1000
0100
0000
1010
0000
,
0000
0100
0011
0000
0001
1100
0000
1000
,
0010
0100
0000
0001
0010
0001
0100
0020
,
0000
0000
0000
0030
;

//---------------dance-single - ----------------
#NOTES:
     dance-single:
     :
     Medium:
     10:
     0.489229,0.736633,0.216641,0.183312,0.037496,411.000000,385.000000,26.000000,22.000000,0.000000,0.000000,0.489229,0.736633,0.216641,0.183312,0.037496,411.000000,385.000000,26.000000,22.000000,0.000000,0.000000:
0000
0000
0000
0000
,
0000
0000
0000
0000
,
0000
0000
0000
0000
,
0000
0000
0000
0000
,
0000
0000
0000
0000
0001
0100
0001
0000
,
1000
0010
1000
0000
0200
0000
0000
0000
,
1300
0000
0000
0000
0001
0100
0010
0000
,
1000
0010
0100
0000
0001
0000
1100
0000
,
0011
0000
0000
0000
1000
0001
1000
0000
,
0001
1000
0001
0000
0200
0000
0000
0000
,
0310
0000
1000
0000
0001
0000
1000
0001
,
1000
0100
0010
0001
0010
0100
1000
0001
,
1000
0000
0000
0000
0001
0010
0100
0000
,
0100
0001
0010
0000
0002
0000
0000
0000
,
1003
0000
0000
0000
0010
1000
0010
0000
,
0100
0001
0100
0000
0001
0000
1100
0000
,
0011
0000
0000
0000
1000
0100
0001
0000
,
1000
0010
0001
0000
0202
0000
0000
0303
,
1010
0000
0001
0000
1000
0000
0001
0100
,
0001
0010
0100
1000
0100
0010
0001
1000
,
0001
0100
0101
0000
1000
0010
1010
0000
,
1000
0100
0011
0000
0001
0010
1100
0000
,
1000
0100
0001
0100
1000
0010
0101
0000
,
0001
0100
1000
0100
0001
0010
1100
1100
,
0000
1000
0000
0001
0000
0200
0000
0310
,
0000
1000
0100
0010
0002
0000
0000
0103
,
0000
0010
0000
1000
0000
0001
0100
0010
,
0000
1000
0100
2000
0000
3002
0000
0103
,
0000
0001
0000
1000
0000
0010
1000
0001
,
0010
0100
1000
0100
0020
0000
0000
0031
,
0100
0010
0000
1000
0000
0001
0000
0100
,
0000
0001
0010
0100
0000
1000
0000
0020
,
0000
1030
0000
0001
0000
0100
0000
0001
,
0010
0100
0000
1010
0000
0010
0000
1000
,
0100
0010
0000
0200
0000
0000
0000
1300
,
0001
0100
0010
1000
0001
0010
0100
1000
,
0000
0001
0000
0101
0000
0002
0000
0103
,
0000
0010
1000
0100
0000
1000
0001
0100
,
0000
0001
0000
1100
0000
0001
0100
0010
,
0000
1000
0100
0001
0000
0100
0000
1000
,
0000
0001
0100
0000
0010
1000
0000
0001
,
0100
0010
0000
1000
0000
0001
0000
0100
,
0000
0010
1000
0000
0001
0100
0000
0001
,
0010
0100
0000
1000
0000
0010
0000
0100
,
0000
0001
1000
0000
0001
1000
0000
0001
,
0010
0100
0000
1000
0000
0001
0000
0100
,
0000
0001
0010
0000
0100
1000
0000
0001
,
0100
0010
1000
0100
1000
0010
0100
0001
,
0100
0000
1010
0000
1000
0100
0000
0010
0001
0000
0110
0000
0000
0000
1000
0000
,
0100
0000
0110
0000
0001
0010
0000
0100
1000
0000
0110
0000
0001
0000
0100
0000
,
0010
0000
1010
0000
0010
1000
0000
0001
0100
0000
0011
0000
1000
0000
0010
0000
,
1000
0000
0001
0000
0100
0010
0000
1000
0100
0000
1000
0001
0100
0000
1100
0000
,
0000
1000
0000
0001
0000
0200
0000
0310
,
0000
1000
0100
0010
0002
0000
0000
0103
,
0000
0010
0000
1000
0000
0001
0100
0010
,
0000
1000
0100
2000
0000
3002
0000
0103
,
0000
0001
0000
1000
0000
0010
1000
0001
,
0010
0100
1000
0100
0020
0000
0000
0031
,
0100
0010
0000
1000
0000
0001
0000
0100
,
0000
0001
0010
0100
0000
1000
0000
0020
,
0000
1030
0000
0001
0000
0100
0000
0001
,
0010
0100
0000
1010
0000
0010
0000
1000
,
0100
0010
0000
0200
0000
0000
0000
1300
,
0001
0100
0010
1000
0001
0010
0100
1000
,
0000
0001
0000
0101
0000
0002
0000
0103
,
0000
0010
1000
0100
0000
1000
0001
0100
,
0000
0001
0000
1100
0000
0001
0100
0010
,
0000
1000
0100
0001
0000
0100
0000
1000
,
0000
0001
0100
0000
0010
1000
0000
0001
,
0100
0010
0000
1000
0000
0001
0000
0100
,
0000
0010
1000
0000
0001
0100
0000
0001
,
0010
0100
0000
1000
0000
0010
0000
0100
,
0000
0001
1000
0000
0001
1000
0000
0001
,
0010
0100
0000
1000
0000
0001
0000
0100
,
0000
0001
0010
0000
0100
1000
0000
0001
,
0100
0010
1000
0100
1000
0010
0000
0200
,
0000
0000
0000
0000
0000
0000
0000
0300
;

//---------------dance-single - ----------------
#NOTES:
     dance-single:
     :
     Easy:
     7:
     0.267826,0.384330,0.066659,0.083324,0.000000,225.000000,217.000000,8.000000,10.000000,0.000000,0.000000,0.267826,0.384330,0.066659,0.083324,0.000000,225.000000,217.000000,8.000000,10.000000,0.000000,0.000000:
0000
0000
0000
0000
,
0000
0000
0000
0000
,
0000
0000
0000
0000
,
0000
0000
0000
0000
,
0000
0000
1000
0001
,
0100
0010
2000
0000
,
3001
0000
1000
0100
,
1000
0010
0100
0001
,
0020
0000
0031
0100
,
0010
1000
0100
1000
,
0020
0000
0000
0130
,
0001
0010
0100
1000
,
0002
0000
1003
0010
,
0100
0001
0020
0000
,
0230
0000
1300
0010
,
0100
0001
0010
0100
,
1000
0000
0010
1000
,
0001
0100
0002
0000
,
1003
0000
0000
0100
,
0010
0100
1000
0001
,
1001
1010
0001
0100
,
0010
1000
0001
0100
,
1010
0101
0010
1000
,
0100
0000
1000
0000
0010
0000
0100
0001
,
0000
0100
0000
0001
0000
0000
0000
1000
,
0000
0010
0000
0100
0000
0000
0000
0001
,
0000
0100
0000
0001
0000
0000
0000
1000
,
0000
0100
0000
1000
0000
0000
0000
0010
,
0000
0100
0000
0001
0000
0000
0000
0100
,
0000
0001
0000
0100
0000
0000
0000
0010
,
0000
1000
0000
0010
0000
0000
0000
1000
,
0000
0100
0000
0010
0000
0000
0000
0001
,
0000
0001
0000
0100
0000
0100
0000
0010
,
0000
0000
0000
0010
0000
1000
0000
0100
,
0000
1000
0000
0020
0000
0000
0000
0130
,
0000
0000
0000
0001
0000
0000
0000
1000
,
0000
0001
0000
1000
0000
0000
0000
0010
,
0000
0100
0000
0001
0000
0000
0000
1000
,
0000
0100
0000
1000
0000
0000
0000
0001
,
0000
0100
0000
0010
0000
1000
0000
0100
,
0000
0000
0000
1000
0000
0000
0000
0001
,
0000
0000
0000
0100
0000
0000
0000
0010
,
0000
0000
0000
1000
0000
0000
0000
0100
,
0000
0000
0000
1000
0000
0010
0000
0100
,
0000
0000
0000
0001
0000
0000
0000
1000
,
0000
0000
0000
0100
0000
0000
0000
1000
,
0000
0000
0000
0010
0000
0000
0000
0100
,
0000
0000
0000
0001
0000
0100
0000
0010
,
0000
1000
0000
0101
0000
1010
0000
1000
,
0000
0100
0000
0010
0000
0001
0000
0100
,
0000
0010
0000
1000
0000
0101
0000
1010
,
0000
0100
0000
0001
0000
0100
0000
0001
,
0000
1000
0000
0001
0000
0000
0000
1000
,
0000
0010
0000
0100
0000
0000
0000
0001
,
0000
0100
0000
0001
0000
0000
0000
1000
,
0000
0100
0000
1000
0000
0000
0000
0010
,
0000
0100
0000
0001
0000
0000
0000
0100
,
0000
0001
0000
0100
0000
0000
0000
0010
,
0000
1000
0000
0010
0000
0000
0000
1000
,
0000
0100
0000
0010
0000
0000
0000
0001
,
0000
0001
0000
0100
0000
0100
0000
0010
,
0000
0000
0000
0010
0000
1000
0000
0100
,
0000
1000
0000
0020
0000
0000
0000
0130
,
0000
0000
0000
0001
0000
0000
0000
1000
,
0000
0001
0000
1000
0000
0000
0000
0010
,
0000
0100
0000
0001
0000
0000
0000
1000
,
0000
0100
0000
1000
0000
0000
0000
0001
,
0000
0100
0000
0010
0000
1000
0000
0100
,
0000
0000
0000
1000
0000
0000
0000
0001
,
0000
0000
0000
0100
0000
0000
0000
0010
,
0000
0000
0000
1000
0000
0000
0000
0100
,
0000
0000
0000
1000
0000
0010
0000
0100
,
0000
0000
0000
0001
0000
0000
0000
1000
,
0000
0000
0000
0100
0000
0000
0000
1000
,
0000
0000
0000
0010
0000
0000
0000
0100
,
0000
0000
0000
0001
0000
0100
0000
0020
,
0000
0000
0000
0000
0000
0000
0000
0030
;

//---------------dance-single - ----------------
#NOTES:
     dance-single:
     :
     Beginner:
     4:
     0.171409,0.284498,0.008332,0.033329,0.000000,144.000000,143.000000,1.000000,4.000000,0.000000,0.000000,0.171409,0.284498,0.008332,0.033329,0.000000,144.000000,143.000000,1.000000,4.000000,0.000000,0.000000:
// measure 0
0000
0000
0000
0000
,  // measure 1
0000
0000
0000
0000
,  // measure 2
0000
0000
0000
0000
,  // measure 3
0000
0000
0000
0000
,  // measure 4
0001
0000
0000
0000
,  // measure 5
1000
0000
0000
0000
,  // measure 6
0001
0000
0000
0000
,  // measure 7
1000
0000
0000
0000
,  // measure 8
0010
0000
0000
0000
,  // measure 9
0100
0000
0000
0000
,  // measure 10
0010
0000
0000
0000
,  // measure 11
0100
0000
0000
0000
,  // measure 12
0001
0000
0000
0000
,  // measure 13
0010
0000
0000
0000
,  // measure 14
0100
0000
0000
0000
,  // measure 15
1000
0000
0000
0000
,  // measure 16
0001
0000
0000
0000
,  // measure 17
0100
0000
0000
0000
,  // measure 18
0010
0000
0000
0000
,  // measure 19
1000
0000
0000
0000
,  // measure 20
0001
1000
0001
1000
,  // measure 21
0010
0100
0010
0100
,  // measure 22
0001
0010
0100
0010
,  // measure 23
0001
0000
0100
0000
0010
0000
1000
0001
,  // measure 24
0000
0000
0000
1000
0000
0000
0000
0001
,  // measure 25
0000
0000
0000
1000
0000
0000
0000
0010
,  // measure 26
0000
0000
0000
0100
0000
0000
0000
0010
,  // measure 27
0000
0000
0000
0100
0000
0000
0000
0001
,  // measure 28
0000
0000
0000
0010
0000
0000
0000
0100
,  // measure 29
0000
0000
0000
1000
0000
0000
0000
0010
,  // measure 30
0000
0000
0000
1000
0000
0000
0000
0001
,  // measure 31
0000
0000
0000
0200
0000
0000
0000
0310
,  // measure 32
0000
0000
0000
1000
0000
0000
0000
0010
,  // measure 33
0000
0000
0000
0100
0000
0000
0000
0001
,  // measure 34
0000
0000
0000
0010
0000
0000
0000
0100
,  // measure 35
0000
0000
0000
1000
0000
0000
0000
0010
,  // measure 36
0000
0000
0000
1000
0000
0000
0000
0001
,  // measure 37
0000
0000
0000
0100
0000
0000
0000
0001
,  // measure 38
0000
0000
0000
0010
0000
0000
0000
0100
,  // measure 39
0000
0000
0000
1000
0000
0000
0000
0001
,  // measure 40
0000
0000
0000
1000
0000
0000
0000
0001
,  // measure 41
0000
0000
0000
1000
0000
0000
0000
0010
,  // measure 42
0000
0000
0000
0100
0000
0000
0000
0010
,  // measure 43
0000
0000
0000
0100
0000
0000
0000
0001
,  // measure 44
0000
0000
0000
0010
0000
0000
0000
0100
,  // measure 45
0000
0000
0000
1000
0000
0000
0000
0010
,  // measure 46
0000
0000
0000
0100
0000
0000
0000
0002
,  // measure 47
0000
0000
0000
0000
0000
0000
0000
1003
,  // measure 48
0000
0100
0000
1000
0000
0100
0000
0010
,  // measure 49
0000
0001
0000
0010
0000
0001
0000
1000
,  // measure 50
0000
0100
0000
0010
0000
0001
0000
1000
,  // measure 51
0000
0010
0000
0100
0000
0001
0000
0001
,  // measure 52
0000
0000
0000
1000
0000
0000
0000
0001
,  // measure 53
0000
0000
0000
1000
0000
0000
0000
0010
,  // measure 54
0000
0000
0000
0100
0000
0000
0000
0010
,  // measure 55
0000
0000
0000
0100
0000
0000
0000
0001
,  // measure 56
0000
0000
0000
0010
0000
0000
0000
0100
,  // measure 57
0000
0000
0000
1000
0000
0000
0000
0010
,  // measure 58
0000
0000
0000
1000
0000
0000
0000
0001
,  // measure 59
0000
0000
0000
0200
0000
0000
0000
0310
,  // measure 60
0000
0000
0000
1000
0000
0000
0000
0010
,  // measure 61
0000
0000
0000
0100
0000
0000
0000
0001
,  // measure 62
0000
0000
0000
0010
0000
0000
0000
0100
,  // measure 63
0000
0000
0000
1000
0000
0000
0000
0010
,  // measure 64
0000
0000
0000
1000
0000
0000
0000
0001
,  // measure 65
0000
0000
0000
0100
0000
0000
0000
0001
,  // measure 66
0000
0000
0000
0010
0000
0000
0000
0100
,  // measure 67
0000
0000
0000
1000
0000
0000
0000
0001
,  // measure 68
0000
0000
0000
1000
0000
0000
0000
0001
,  // measure 69
0000
0000
0000
1000
0000
0000
0000
0010
,  // measure 70
0000
0000
0000
0100
0000
0000
0000
0010
,  // measure 71
0000
0000
0000
0100
0000
0000
0000
0001
,  // measure 72
0000
0000
0000
0010
0000
0000
0000
0100
,  // measure 73
0000
0000
0000
1000
0000
0000
0000
0010
,  // measure 74
0000
0000
0000
0100
0000
0000
0000
0002
,  // measure 75
0000
0000
0000
0000
0000
0003
0000
1001
;
