#TITLE:Zwist;
#SUBTITLE:;
#ARTIST:Critikal;
#TITLETRANSLIT:;
#SUBTITLETRANSLIT:;
#ARTISTTRANSLIT:;
#GENRE:;
#CREDIT:;
#BANNER:ZWISTER.png;
#BACKGROUND:ZWIST.jpg;
#LYRICSPATH:;
#CDTITLE:;
#MUSIC:Zwist.ogg;
#OFFSET:0.000000;
#SAMPLESTART:92.210999;
#SAMPLELENGTH:15.000000;
#SELECTABLE:YES;
#DISPLAYBPM:190.000000;
#BPMS:0.000000=190.000000
,114.000000=95.000000
,115.000000=380.000000
,119.000000=190.000000
,129.000000=142.500000
,132.000000=190.000000
,196.000000=95.000000
,212.000000=190.000000
,272.000000=95.000000
,273.000000=285.000000
,276.000000=190.000000
;
#STOPS:
;
#BGCHANGES:;
#KEYSOUNDS:;
#ATTACKS:;

//---------------dance-single - ----------------
#NOTES:
     dance-single:
     :
     Hard:
     14:
     0.740757,0.981866,0.900528,0.450264,0.148878,714.000000,590.000000,124.000000,62.000000,0.000000,0.000000,0.740757,0.981866,0.900528,0.450264,0.148878,714.000000,590.000000,124.000000,62.000000,0.000000,0.000000:
0000
0000
0000
0000
,
0000
0000
0000
0000
,
0000
0000
0000
0000
,
0000
0000
0000
0000
,
0000
0000
0000
0000
,
0000
0000
0000
0000
,
0000
0000
0000
0000
,
0000
0000
0000
0000
,
1010
0101
1100
0011
,
0110
1001
1010
0110
,
0011
1001
0110
1100
,
0101
1010
0110
1001
,
1000
0100
0010
0001
0010
0100
0010
0001
,
0100
0010
1000
0100
1000
0010
0100
0001
,
1000
0010
1000
0010
1000
0001
1000
0001
0100
0001
0100
0001
0010
0100
0010
0100
,
2000
0000
0000
0000
0000
0000
0000
0000
0000
3000
0000
0000
2000
0000
0000
0000
0000
0000
0000
0000
0000
3000
0000
0000
2000
0000
0000
0000
0000
0000
0000
0000
0000
3000
0000
0000
2000
0000
0000
0000
0000
0000
0000
0000
3010
0000
0000
0000
,
1000
0100
0001
1000
0010
0001
1000
0000
0000
0101
0000
0000
,
1100
0101
0011
1010
,
0011
0101
1100
1010
,
2000
3100
0001
0100
1000
0000
0101
0000
,
1010
0000
1000
0100
0101
0000
0110
0000
,
1100
0000
1000
0100
1000
0000
0100
0000
1010
0000
0000
0000
0101
0000
0000
0000
,
0110
1001
1100
0101
,
1000
0100
0001
0000
0100
0000
1000
0000
0010
0000
0100
0000
0001
0000
0010
0000
,
0200
0000
1300
0020
0000
0130
0002
0000
,
1003
0010
0101
0000
0011
0000
1010
0000
,
0110
0011
0110
1100
,
1000
0010
1000
0000
1010
0000
0000
0000
0110
0000
0000
0000
1001
0000
0000
0000
,
0101
0000
0000
0000
0000
0000
0000
0000
0011
0000
0000
0000
0000
0000
0000
0000
0020
0000
0000
0000
0000
0000
0000
0030
1000
0000
0000
0000
0000
0000
0000
0000
,
0010
0001
0010
1000
,
1010
1100
1010
0101
,
0011
0000
1000
0100
0010
0000
0101
0000
,
1010
0000
0000
0000
0000
0000
0000
0000
2000
0000
0000
0000
0000
0000
3010
0000
0000
0200
0000
0000
0000
0000
0000
0301
0000
0000
0010
0000
0000
0000
0000
0000
,
1000
0010
0001
0010
1000
0010
0100
0001
,
1000
0001
0100
1000
0100
0001
0010
0100
,
1000
0001
0100
0001
1000
0100
0001
0100
,
1000
0010
0100
0010
1000
0001
0010
1000
,
0001
0010
1000
0010
0001
0100
0010
1000
,
0100
0001
0100
1000
0010
0100
0001
0010
,
1000
0010
0001
0100
1000
0100
0001
0100
,
0110
0000
0100
0101
0000
0001
0011
0000
,
1010
0101
0110
1001
,
1100
0011
1010
1100
,
0101
0011
0110
1100
,
0101
0000
0000
0000
0011
0000
0000
0000
1001
0000
1000
0000
0001
0100
1000
0100
,
0001
1010
0101
0110
,
1001
1010
0011
0101
,
1010
1100
0110
1001
,
1000
0100
1000
0010
1000
0001
2000
0000
0000
0000
0000
0000
0000
0000
0000
0000
,
3002
0203
2300
3200
0302
0023
0230
0320
,
0032
2003
3200
0320
0230
2300
3020
0032
,
0023
2030
3200
0302
0203
2300
3020
0230
,
0302
0000
0000
0000
,
1003
0010
0101
0000
1000
0001
0000
1000
,
0001
0100
1010
0000
0001
1000
0000
0001
,
0100
0010
1000
0100
0010
0011
0000
0100
,
0010
1000
0100
0010
0001
0101
0000
0101
,
0010
1000
1100
0000
1000
0100
0010
0001
,
0010
0100
1100
0000
0001
0100
1000
0100
,
0001
0010
1100
0000
1000
0010
0001
0010
,
1000
0100
0011
0000
0010
0100
0000
1000
,
0010
0100
0001
0010
0001
0100
0010
1000
,
0100
1000
0010
0100
0001
0010
1000
0010
,
0001
0100
0010
1000
0010
1000
0100
0001
,
0100
1000
0010
0100
0001
0100
1000
0100
,
0001
0010
0100
1000
0010
0100
0001
0010
,
0100
0010
0001
1000
0100
0010
0100
1000
,
0001
0000
0100
0000
0010
0000
1000
0000
0100
0000
0001
0100
1000
0000
0200
0000
,
0000
0000
0000
0000
0000
1300
0000
0000
,
1100
0000
0011
0000
1000
0001
0010
0200
,
0000
0301
1000
0200
0000
0310
0001
0100
,
0101
1010
0110
1001
,
1000
0100
0010
0002
0000
0103
0010
1000
,
0101
0000
1010
0000
0001
0010
0100
0020
,
0000
0031
0100
0020
0000
1030
0100
0010
,
0110
1100
0011
1001
,
0001
0100
1000
0200
0000
0301
0010
0100
,
1100
0000
0011
0000
1000
0001
0010
0200
,
0000
0301
1000
0200
0000
0310
0001
0100
,
0001
0000
0010
0000
0100
0000
1000
0000
0010
0000
0100
0000
0001
0010
0100
0000
,
1000
0100
0010
0002
0000
0103
0010
1000
,
0101
0000
1010
0000
0001
0010
0100
0020
,
0000
0031
0100
0020
0000
1030
0100
0010
,
0100
1000
0001
0100
0010
0100
0001
0010
,
0001
1000
0001
1000
0010
0100
0010
0100
0002
0000
0000
0000
2000
0000
0000
3003
,
0110
0000
1001
0000
1000
0100
0000
0020
,
0000
0031
0100
1000
0000
0100
0001
0010
,
0100
0000
1100
0000
0100
0001
0000
0020
,
0000
0130
1000
0010
0000
0001
0010
1000
,
0100
0000
0011
0000
0001
0100
0000
0020
,
0000
1030
0100
0020
0000
0130
0001
0100
,
0010
0000
1100
0000
0010
0001
0000
0010
,
0001
1000
0001
0000
1000
0000
0100
0000
0011
0000
0000
0000
1100
0000
0000
0000
,
1000
0100
0010
0001
0010
0001
0100
0010
,
1000
0000
0100
0000
0001
0000
0100
0000
1000
0000
0010
0000
0100
0000
0001
0100
,
1000
0100
0001
0000
0100
0000
0000
0000
1010
0000
0000
0000
0100
0000
0020
0000
,
0000
1030
0100
2000
0000
3010
0100
0001
,
2000
0000
3100
0000
1000
0010
0100
0001
,
0101
0001
0010
0200
0000
1300
0100
0010
,
0101
0000
0000
0101
0000
0000
0101
0000
0101
0000
1010
0000
1000
0100
0010
0100
,
1000
0100
0010
0001
0010
0100
1000
0100
0020
0000
0000
0000
0000
0000
0030
0000
,
0022
0000
0000
0000
,
0000
0000
0000
0000
,
0000
0000
0000
0000
,
0033
0000
0000
0000
;

//---------------dance-single - ----------------
#NOTES:
     dance-single:
     :
     Medium:
     12:
     0.590323,0.660145,0.646347,0.246919,0.032680,569.000000,480.000000,89.000000,34.000000,0.000000,0.000000,0.590323,0.660145,0.646347,0.246919,0.032680,569.000000,480.000000,89.000000,34.000000,0.000000,0.000000:
0000
0000
0000
0000
,
0000
0000
0000
0000
,
0000
0000
0000
0000
,
0000
0000
0000
0000
,
0000
0000
0000
0000
,
0000
0000
0000
0000
,
0000
0000
0000
0000
,
0000
0000
0000
0000
,
0001
0101
0100
0110
,
0010
1010
1000
1100
,
1000
0110
0001
0110
,
0010
1001
0100
1001
,
1000
0100
1000
0100
0010
0001
0010
0001
,
1000
0100
0010
0001
1000
0100
0010
0001
,
1000
0010
0100
0001
1000
0010
0100
0001
,
2000
0000
0000
3000
0000
0000
2000
0000
0000
3000
0000
0000
2000
0000
0000
3000
0000
0000
1000
0000
0000
0000
1000
0000
,
0100
0000
0100
0010
0000
0010
0001
0000
0001
0100
0000
0000
,
0110
1001
1100
0011
,
0101
1010
0110
1010
,
0101
0011
1100
0110
,
1010
0101
0020
0000
,
1030
0100
0010
0000
0110
0000
0101
0000
,
1001
1100
0110
1001
,
0001
0100
0010
0000
1100
0000
0011
0000
,
2000
0000
3020
0000
0130
0001
0100
0000
,
0001
1000
0001
0000
0110
0000
1010
0000
,
1100
0011
0110
1001
,
1010
0101
0110
1010
,
0101
1001
0002
1003
,
0010
0100
0000
0101
,
1010
0110
1001
0011
,
1100
0000
0001
0100
0001
0000
1010
0000
,
0101
0000
0000
0000
0000
0000
0000
0000
0000
0000
0000
0000
0000
0000
0000
0000
0000
0000
0000
0000
0000
0000
0000
0000
0000
0000
0000
0000
0000
0000
0000
0000
0000
0000
0000
0000
0000
0000
0000
0000
0000
0000
0000
0000
0000
0000
0000
0000
0010
0000
0000
0000
0000
0000
0000
0000
0000
0000
0000
0000
0000
0000
0000
0000
0000
0000
0000
0000
0000
0000
0000
0000
0000
0000
0000
0000
0000
0000
0000
0000
0000
0000
0000
0000
2000
0000
0000
0000
0000
0000
0000
0000
0000
0000
0000
0000
0000
0000
0000
0000
0000
0000
0000
0000
3010
0000
0000
0000
0000
0000
0000
0000
0000
0000
0000
0000
0000
0000
0000
0000
0000
0000
0000
0000
0000
0000
0000
0000
0000
0000
0000
0000
0000
0000
0000
0000
0000
0000
0200
0000
0000
0000
0000
0000
0000
0000
0000
0000
0000
0000
0000
0000
0000
0000
0000
0000
0301
0000
0000
0000
0000
0000
0000
0000
0000
0000
0000
0000
0000
0000
0000
0000
0000
0000
0000
0000
0000
0000
0000
0000
0000
0000
0000
0000
0000
0000
0000
0000
0000
0000
0000
0000
,
1000
0010
0100
0000
0001
0010
0100
0000
,
1000
0001
0100
0000
0001
1000
0010
0000
,
1000
0100
1000
0010
0100
0001
0010
0000
,
0001
0100
0010
1000
0100
1000
0010
0000
,
1000
0010
1000
0000
0001
0100
0001
0000
,
1000
0100
0001
0000
0001
0100
1000
0000
,
0010
0100
0001
0000
0010
0100
1000
0000
,
0001
0000
0200
0310
0000
2000
3100
0000
,
1000
1100
0001
0101
,
0010
1001
0100
0110
,
1000
0101
0001
1010
,
0100
1010
0100
0002
,
1003
1001
0010
1010
,
1000
1100
0100
1010
,
0001
0101
1000
0110
,
0002
0000
0103
0020
0000
0000
0000
0000
,
1030
0100
1000
0010
0100
0001
0010
0100
,
1000
0100
0010
0100
1000
0001
0010
0001
,
0100
0010
0100
0001
0010
0100
1000
0100
,
0020
0000
0000
0000
,
0031
0000
0100
0000
0010
1000
0000
0010
,
0100
0000
0001
0000
0010
0100
0000
0010
,
0001
0000
0100
0000
0010
1000
0000
0001
,
0100
0000
0001
0000
1000
0100
0000
1000
,
0010
1000
0001
0000
0100
0001
0100
0000
,
0010
1000
0100
0000
1000
0001
0010
0000
,
0001
0100
1000
0000
1000
0100
0001
0000
,
1000
0100
0010
0001
0000
0100
0010
1000
,
0001
0100
0001
0000
1000
0100
0000
1000
,
0100
0010
0100
0000
1000
0001
0100
0001
,
0010
0001
0100
0000
0001
1000
0000
0100
,
1000
0001
0100
0010
0000
1000
0100
0010
,
0001
0001
0100
0100
0010
0010
1000
1000
,
0100
0100
0010
0010
0001
0001
0100
0100
,
0001
0100
0010
1000
0100
1000
0010
0200
,
0000
0000
0000
0000
0000
0301
0000
0000
,
0101
0000
1010
0000
0001
0100
0000
0020
,
0000
0000
1030
0100
0000
1000
0010
0000
,
0101
0000
1010
0000
1000
0200
0000
0310
,
0000
0000
0001
0100
0000
0010
1000
0000
,
1100
0000
0011
0000
0001
1000
0000
0020
,
0000
0000
0130
0001
0000
1000
0010
0000
,
0110
0000
1001
0000
0001
0100
0000
0010
,
1000
0100
1000
0010
0100
0000
0011
0000
,
1000
0000
1010
0000
0001
0100
0000
0020
,
0000
1030
0100
1000
0000
0001
0100
0001
,
0100
0000
1010
0000
0001
0100
0000
0020
,
0000
1030
0100
1000
0000
0010
0100
0001
,
0101
0000
1010
0000
1000
0100
0000
2000
,
0000
3010
0100
0010
0000
1000
0001
0010
,
0101
0000
0110
0000
0001
1000
0000
0020
,
0000
0000
2030
0000
,
3001
0000
1001
0000
0001
0100
0000
0010
,
0000
1000
0100
1000
0000
0001
0100
1000
,
0100
0000
0011
0000
1000
0010
0000
0200
,
0000
0301
1000
0100
0000
1000
0010
0100
,
0110
0000
1001
0000
1000
0002
0000
0203
,
0000
0310
1000
0100
0000
1000
0001
0100
,
0010
0000
1010
0000
0001
0100
0000
0010
,
1000
0100
1000
0010
0100
0000
0011
0000
,
1000
0000
0110
0000
0001
0100
0000
0020
,
0000
1030
0001
0100
0000
0010
0100
0001
,
1100
0000
0110
0000
1000
0100
0000
0020
,
0000
0130
1000
0001
0000
0100
0010
1000
,
2020
0000
0000
3030
,
0202
0000
0000
0303
,
0001
0000
0000
0100
0000
0000
0010
0000
1000
0000
0100
0000
1000
0000
0010
0000
,
0100
0001
0010
0100
2000
0000
0000
0000
,
3001
0000
0000
0000
;

//---------------dance-single - ----------------
#NOTES:
     dance-single:
     :
     Easy:
     8:
     0.283231,0.366747,0.130722,0.137984,0.000000,273.000000,255.000000,18.000000,19.000000,0.000000,0.000000,0.283231,0.366747,0.130722,0.137984,0.000000,273.000000,255.000000,18.000000,19.000000,0.000000,0.000000:
0000
0000
0000
0000
,
0000
0000
0000
0000
,
0000
0000
0000
0000
,
0000
0000
0000
0000
,
0000
0000
0000
0000
,
0000
0000
0000
0000
,
0000
0000
0000
0000
,
0000
0000
0000
0000
,
0001
1000
0001
1000
,
0010
0100
0010
0100
,
0001
0010
0100
1000
,
0001
0100
0010
1000
,
0010
0010
0100
0100
,
0001
0001
1000
1000
,
0010
1000
0001
0100
,
0020
0000
0000
0000
,
2030
0000
0002
3003
,
1001
0000
1001
0000
,
0001
0100
0010
0000
,
0110
0000
0110
0000
,
0100
0001
1000
0000
,
1001
0000
1001
0000
,
0001
1000
0010
0000
,
1010
0000
1010
0000
,
0020
0000
0000
0000
,
0130
0001
0100
0001
,
0100
0001
0200
0000
,
0310
1000
0010
1000
,
0010
1000
0010
1000
,
0000
0001
0000
1000
,
0010
0100
0001
0010
,
0100
1000
0001
0100
,
0010
2000
0000
0000
,
3001
0000
1000
0000
,
0001
0100
0001
0000
,
1000
0000
0010
0000
,
0100
0001
0100
0000
,
0001
0000
1000
0000
,
0100
0010
0100
0000
,
1000
0000
0010
0000
,
0100
0001
0100
0000
,
1001
0000
0110
0000
,
1100
0000
0011
0000
,
1010
0000
0101
0000
,
0001
0100
0010
1000
,
0002
0103
0020
1030
,
0002
0013
0200
1300
,
0001
0000
1000
0000
,
1001
0000
0110
0000
,
2002
0000
0000
3003
,
2000
0000
0000
3000
,
0002
0000
0000
0003
,
0200
0000
0000
0000
,
0310
0000
1000
0000
,
0010
0000
1000
0000
,
0001
0000
0100
0000
,
0001
0000
0100
0000
,
0001
0000
0010
0000
,
0100
0000
1000
0000
,
0001
0000
0100
0000
,
0010
0000
1000
0000
,
0010
1000
0010
1000
,
0001
0100
0001
0100
,
0001
0010
0100
1000
,
0001
0100
0010
1000
,
0010
0010
0100
0100
,
0001
0001
0010
0010
,
0100
0100
1000
1000
,
0020
0000
0000
0000
,
1030
0000
0001
0000
,
1000
0001
1000
0001
,
0100
0000
0010
0000
,
0100
0010
0100
0010
,
1000
0000
0010
0000
,
1000
0010
1000
0010
,
0100
0000
0001
0000
,
0100
0001
0100
0001
,
1000
0000
0001
0000
,
0100
0010
1000
0000
,
0001
0000
1000
0000
,
0010
1000
0100
0000
,
0010
0001
0010
0001
,
1000
0100
1000
0100
,
0010
0100
1000
0001
,
0200
0000
0000
0000
,
0310
0000
1000
0000
,
0001
0100
0010
1000
,
0100
0000
1000
0000
,
0001
0010
0001
0100
,
0010
0000
1000
0000
,
0100
1000
0010
0100
,
0001
0000
1000
0000
,
0010
1000
0001
0100
,
0001
0000
0010
0000
,
0100
1000
0010
0000
,
0100
0000
0010
0000
,
0100
0100
0001
0000
,
2000
0000
0000
0000
,
3002
0000
0000
0000
,
0103
0000
0010
0000
,
1000
0000
0001
0000
,
1001
0000
0000
0000
;

//---------------dance-single - ----------------
#NOTES:
     dance-single:
     :
     Beginner:
     6:
     0.209570,0.330073,0.029049,0.188820,0.000000,202.000000,198.000000,4.000000,26.000000,0.000000,0.000000,0.209570,0.330073,0.029049,0.188820,0.000000,202.000000,198.000000,4.000000,26.000000,0.000000,0.000000:
// measure 0
0000
0000
0000
0000
,  // measure 1
0000
0000
0000
0000
,  // measure 2
0000
0000
0000
0000
,  // measure 3
0000
0000
0000
0000
,  // measure 4
0000
0000
0000
0000
,  // measure 5
0000
0000
0000
0000
,  // measure 6
0000
0000
0000
0000
,  // measure 7
0000
0000
0000
0000
,  // measure 8
0001
0000
1000
0000
,  // measure 9
0001
0000
1000
0000
,  // measure 10
0010
0000
0100
0000
,  // measure 11
0010
0000
0100
0000
,  // measure 12
0001
0000
0010
0000
,  // measure 13
0100
0000
1000
0000
,  // measure 14
0002
0000
0000
0000
,  // measure 15
1003
0000
0000
0000
,  // measure 16
0020
0000
0000
0030
,  // measure 17
1010
0000
1000
0000
,  // measure 18
0100
0000
1000
0000
,  // measure 19
0010
0000
0100
0000
,  // measure 20
0001
0000
0010
0000
,  // measure 21
0001
0000
0100
0000
,  // measure 22
0010
0000
1000
0000
,  // measure 23
0100
0000
1000
0000
,  // measure 24
0020
0000
0000
0030
,  // measure 25
1010
0000
1000
0000
,  // measure 26
0100
0000
1000
0000
,  // measure 27
0010
0000
0100
0000
,  // measure 28
0001
0000
0200
0320
,  // measure 29
0000
0000
0000
1030
,  // measure 30
0000
0100
0000
1000
,  // measure 31
0000
0010
0000
0100
,  // measure 32
0000
0002
0000
0003
,  // measure 33
0101
0000
0100
0000
,  // measure 34
0001
0000
1000
0000
,  // measure 35
0100
0000
1000
0000
,  // measure 36
0010
0000
0100
0000
,  // measure 37
0001
0000
0010
0000
,  // measure 38
0100
0000
1000
0000
,  // measure 39
0010
0000
0100
0000
,  // measure 40
0020
0000
0000
0000
,  // measure 41
1030
0000
0100
0000
,  // measure 42
1000
0000
0010
0000
,  // measure 43
0100
0000
0001
0000
,  // measure 44
0010
0000
0200
0000
,  // measure 45
1300
0000
0010
0000
,  // measure 46
0100
0000
0001
0000
,  // measure 47
0010
0000
0001
0000
,  // measure 48
1000
0000
0010
0000
,  // measure 49
0200
0320
2030
3200
,  // measure 50
2300
3020
0230
0302
,  // measure 51
0023
0032
0203
0320
,  // measure 52
2030
0000
0000
0000
,  // measure 53
3001
0000
0100
0000
,  // measure 54
0010
0000
1000
0000
,  // measure 55
0100
0000
1000
0000
,  // measure 56
0001
0010
0100
1000
,  // measure 57
0001
0000
0100
0000
,  // measure 58
0010
0000
0100
0000
,  // measure 59
0001
0000
1000
0000
,  // measure 60
0010
0100
0001
1000
,  // measure 61
0100
0000
1000
0000
,  // measure 62
0010
0000
0100
0000
,  // measure 63
0001
0000
0010
0000
,  // measure 64
0100
1000
0010
0100
,  // measure 65
0001
0000
1000
0000
,  // measure 66
0010
0000
0100
0000
,  // measure 67
0001
0000
1000
0000
,  // measure 68
0200
0000
0000
0000
,  // measure 69
1300
0000
0001
0000
,  // measure 70
0100
0000
0010
0000
,  // measure 71
1000
0000
0100
0000
,  // measure 72
1000
0010
0100
0001
,  // measure 73
0010
0000
0001
0000
,  // measure 74
1000
0000
0010
0000
,  // measure 75
1000
0000
0001
0000
,  // measure 76
0010
0100
0010
0001
,  // measure 77
1000
0000
0010
0000
,  // measure 78
0100
0000
0001
0000
,  // measure 79
0010
0000
0001
0000
,  // measure 80
0100
0010
1000
0100
,  // measure 81
1000
0000
0010
0000
,  // measure 82
0100
0000
0001
0000
,  // measure 83
0010
0000
0100
0000
,  // measure 84
2000
0000
0000
0000
,  // measure 85
3001
0000
0100
0000
,  // measure 86
0010
0000
1000
0000
,  // measure 87
0001
0000
0010
0000
,  // measure 88
0100
1000
0010
0100
,  // measure 89
0001
0000
1000
0000
,  // measure 90
0010
0000
0100
0000
,  // measure 91
0010
0000
1000
0000
,  // measure 92
0002
0000
1003
0000
,  // measure 93
0010
0000
0100
0000
,  // measure 94
0001
0010
0100
0000
,  // measure 95
1000
0000
0001
0000
,  // measure 96
1000
0100
0010
0000
,  // measure 97
0002
0000
0000
0000
,  // measure 98
2003
0000
0000
0000
,  // measure 99
3010
0000
0100
0000
,  // measure 100
0001
0000
1000
0000
,  // measure 101
1001
0000
0000
0000
;
