#TITLE:Virus Funk;
#SUBTITLE:;
#ARTIST:Nhato;
#TITLETRANSLIT:;
#SUBTITLETRANSLIT:;
#ARTISTTRANSLIT:;
#GENRE:;
#CREDIT:;
#BANNER:;
#BACKGROUND:;
#LYRICSPATH:;
#CDTITLE:;
#MUSIC:virusfunk.ogg;
#OFFSET:0.000000;
#SAMPLESTART:87.273003;
#SAMPLELENGTH:12.000000;
#SELECTABLE:YES;
#BPMS:0.000000=132.000000
;
#STOPS:72.000000=1.364000
;
#BGCHANGES:;
#KEYSOUNDS:;
#ATTACKS:;

//---------------dance-single - ----------------
#NOTES:
     dance-single:
     :
     Hard:
     13:
     0.580425,0.711944,0.320113,0.352945,0.406297,495.000000,456.000000,39.000000,43.000000,0.000000,0.000000,0.580425,0.711944,0.320113,0.352945,0.406297,495.000000,456.000000,39.000000,43.000000,0.000000,0.000000:
0000
0000
0000
0000
,
0000
0000
0000
0000
,
0000
0000
0000
0000
,
0000
0000
0000
0000
,
0000
0000
0000
0000
,
0000
0000
0000
0000
0002
0000
0000
0003
0002
0000
0000
0003
0001
0020
0000
0030
,
0200
0000
0000
0000
1300
0010
0000
0010
1000
0000
0000
0000
0101
0000
0000
0000
,
0000
0000
0010
0000
0100
0000
0010
0001
0000
0000
1000
0000
0001
0000
0010
0100
,
0010
1100
0110
0011
,
0000
0200
1300
0100
0010
0001
0100
1000
,
0001
0000
0020
0000
1030
0000
0100
0010
0100
0000
0000
1000
0000
0000
0001
0000
,
0000
0002
0013
0001
0000
0020
0130
0010
,
0000
0200
1300
0100
0010
0001
1001
0000
,
0000
0002
0013
1000
0000
0002
0103
1000
,
0000
2000
3010
0100
0000
0002
0103
0010
,
1001
0000
0001
0010
0000
0000
2002
0000
0003
0020
0000
0000
0000
0000
0000
3030
,
0101
0110
1010
1100
,
0001
1000
0001
1000
0001
1000
0001
1000
,
0002
0000
0003
0000
1000
0000
0010
0000
1000
0000
0000
0000
0001
0100
0001
0100
,
0001
0000
0010
0000
0011
0000
0000
0101
0000
0000
0110
0000
0000
1010
0000
0000
,
1001
0000
0000
0000
0020
0000
1030
0000
0100
0000
0000
0000
1000
0001
1000
0001
,
1000
0000
1000
0000
0001
1000
0001
1000
0001
0000
0001
0000
1000
0100
0010
0001
,
1000
0000
0000
0000
1001
0000
0000
0000
0110
0000
0000
0000
0001
0010
0001
0010
,
0001
0000
0100
0000
0101
0000
0000
0110
0000
0000
1010
0000
0000
0110
0000
0000
,
2002
0000
0000
3003
0001
0000
1000
0000
0001
0000
0000
0000
1000
0010
1000
0010
,
1000
0001
0200
0300
0200
0300
0200
0300
,
0200
0300
1000
0001
0010
1000
0100
1000
,
0010
0100
0001
0010
1000
0010
0001
0100
,
0010
1000
0100
0010
0001
0010
0000
0100
,
0010
0100
0000
1000
0100
1000
0010
0100
,
0001
0010
0100
1000
0001
0000
1000
0001
1000
0000
0010
0000
1000
0000
0100
0000
,
1000
0000
0001
0000
0100
0000
0001
1000
0001
0000
0100
0000
0010
0000
1000
0000
,
0100
0000
1000
0000
0001
0000
1000
0100
0000
0010
0001
0000
0100
0010
0000
1000
,
0010
0100
0101
0000
1010
0000
1100
0000
,
0110
0000
1000
0000
1000
0002
0203
0320
,
0000
2030
3001
0000
0100
0000
0010
0000
,
1000
0000
0001
0000
0100
0000
0010
2000
,
0000
0010
0000
0000
3001
0000
0000
0000
1000
0000
0000
0000
0100
0000
0000
0000
,
1000
0000
0000
0000
0001
0000
0100
0000
0001
0000
1000
0000
0100
0000
1000
0010
,
0000
0200
0301
0000
1000
0000
0100
0000
,
1000
0000
0001
0000
0100
0020
0000
1030
,
0100
1000
0002
0000
1000
0000
2003
0000
,
0001
0000
0000
0000
3001
0010
0001
0010
0001
0100
0001
0100
0010
1000
0010
1000
,
0100
1000
0100
1000
0001
0000
0100
0010
0000
0000
1001
0000
0001
2000
0000
0000
,
3001
0000
1000
0100
0010
0001
1000
0100
,
0001
0000
0100
0000
1000
0001
1000
0000
0001
1000
0001
0000
1000
0100
1000
0100
,
1000
0001
1000
0001
0200
0000
0301
0000
2000
0000
3010
0000
0100
0001
1000
0010
,
2000
0000
0010
0000
3010
0000
1000
0000
0100
0000
1000
0000
0001
0100
0001
0100
,
0010
1000
0010
1000
0010
0000
0000
1001
0000
0000
0110
0000
0000
1100
0000
0000
,
0011
0000
0010
0001
0100
0000
0010
0000
1000
0000
0001
0100
0010
0000
1000
0000
,
0001
0000
0100
0000
0001
0000
0100
0000
1000
0000
0100
0000
0001
0010
0100
1000
,
0001
0100
0010
1000
0002
0000
0000
0000
0103
0000
0001
0000
1000
0000
0010
1000
,
0010
0000
0100
0000
0101
0000
0000
0110
0000
0000
1100
0000
1000
0000
0001
0010
,
0100
1000
0100
0010
0001
0000
0100
0010
1000
0100
0010
0001
1000
0000
0002
0000
,
1003
0100
1000
0001
1000
0000
0000
0100
0000
0000
0001
0000
0100
0000
1000
0100
,
1000
0000
0001
0000
1000
0000
0001
0000
0100
0000
0010
0000
1000
0000
0100
0010
,
0000
0000
0200
0000
1300
0000
0000
0011
0000
0000
1100
0000
0000
0110
0000
0000
,
1001
0000
0000
0000
1000
0000
0001
0000
0100
0000
0001
0100
0000
0000
0001
0000
,
1000
0000
0001
0100
0010
0000
1000
0100
0001
0000
1000
0010
0001
0000
1000
0001
,
1000
0000
0100
0010
0002
0003
0002
0003
,
0001
0010
0000
0010
0100
0000
1000
0000
0001
0100
0000
0100
0010
0000
0000
0000
,
1000
0000
0000
0000
0001
0000
0100
0000
0001
0000
1000
0100
0000
0000
1000
0000
,
0010
0000
0100
0001
0200
0000
0000
0000
0000
0000
0301
0100
0001
0000
1000
0010
,
1000
0000
0001
0100
0001
0000
0010
0100
0010
0000
0100
1000
0100
0000
1000
0100
,
0010
0001
0010
0100
1000
0000
0000
0000
0000
0000
0000
0000
0000
0000
0000
0000
;

//---------------dance-single - ----------------
#NOTES:
     dance-single:
     :
     Medium:
     10:
     0.412746,0.474629,0.295489,0.213409,0.045144,352.000000,316.000000,36.000000,26.000000,0.000000,0.000000,0.412746,0.474629,0.295489,0.213409,0.045144,352.000000,316.000000,36.000000,26.000000,0.000000,0.000000:
0000
0000
0000
0000
,
0000
0000
0000
0000
,
0000
0000
0000
0000
,
0000
0000
0000
0000
,
0000
0000
0000
0000
,
0000
1000
1000
0010
,
0010
0000
0100
0001
0100
0000
0020
0000
,
1030
0000
0100
1000
0000
0001
0100
0001
,
1000
1010
0110
0101
,
0000
1000
0100
2000
0000
0000
0000
0000
,
0000
3001
0100
0002
0000
0000
0000
0000
,
0000
0103
0010
0100
0000
0001
0010
0001
,
0000
1000
0010
1000
0100
1000
0020
0000
,
0030
1000
0001
2000
0000
0001
0000
3001
,
0000
0010
1000
0020
0000
1000
0000
1030
,
0100
0010
0001
0010
0100
1000
0010
0100
,
0001
1001
1000
1001
,
1000
0100
1000
0010
0100
0010
0100
0001
,
2000
0000
3010
0000
1000
0000
0001
0100
,
0001
0100
0010
0000
1000
0000
0100
0000
,
1000
0000
0002
0000
1003
0000
0010
1000
,
0010
1000
0001
0100
0001
0100
0010
1000
,
0100
0000
1100
0000
0011
0000
0100
0010
,
0100
0010
0100
0000
1000
0000
0001
0100
,
0001
0000
1100
0000
0011
0000
0010
0001
,
0100
0010
1000
0000
1100
0000
0001
0000
,
0011
0000
1000
0001
0100
0002
0000
1000
,
0000
0013
0001
0010
0100
1000
0000
0010
,
0000
0100
0000
0001
0100
0001
0000
1000
,
0010
1000
0000
0010
0100
0010
0100
0001
,
0020
0000
0130
1000
0010
0200
0000
0301
,
0000
0100
0000
0010
1000
0010
0000
0100
,
0001
0000
0100
0000
0002
0000
0000
2003
0000
0000
3020
0000
0000
0230
0000
0000
,
0301
0101
1010
0110
,
1001
0000
0001
0000
0001
0010
0100
1000
,
0000
0020
0000
0000
0000
0000
0000
0000
,
0000
0000
0130
0000
0001
0000
1000
0010
,
0000
0100
0000
0000
0010
0000
0000
0000
1000
0000
0000
0000
0100
0000
0000
0000
,
1000
0000
0000
0000
0010
0000
0000
0000
0100
0000
0001
0000
0100
0000
0000
0001
,
0000
1000
0200
0000
0000
0000
0000
0000
,
0000
0000
2300
0000
0000
3020
0000
0130
,
0001
1000
0020
0000
0000
0000
0000
2000
,
0000
3030
0010
1000
0010
1000
0001
0100
,
0001
0100
0101
0000
0110
0000
1100
0000
,
1010
0000
1000
0100
1000
0010
0100
0010
,
1000
0001
1000
0010
0100
0001
0010
0100
,
1000
0010
0200
0000
0000
0000
0000
0000
,
0000
0300
0101
0000
0001
0000
1000
0010
,
1000
0000
0010
0000
0100
0000
0000
0001
0000
0000
1000
0000
0000
0010
0000
0000
,
0100
0000
0000
0001
0000
0000
1000
0000
0100
0000
0000
1000
0000
0000
0001
0000
,
0100
0010
1000
0100
0010
0001
0010
0100
,
1000
0010
2020
3030
1000
0000
0001
0100
,
0001
0000
0100
0000
0010
0000
0000
1000
0000
0000
0100
0000
1000
0000
0010
0000
,
1000
0010
1000
0100
0001
0200
0000
1300
,
0010
0100
0011
0000
0000
0000
0110
0000
,
1001
0000
0010
0000
1000
0000
0001
0100
,
0001
0000
0100
0000
0010
0000
0000
1000
0000
0000
0100
0000
0000
1000
0000
0000
,
1100
0000
0010
0001
0010
0001
1000
0100
,
1000
0100
0010
0001
0100
0010
1000
0100
,
2000
3001
1001
0001
,
1000
0100
1000
0000
0001
0010
0001
0000
,
1001
0000
0001
0100
0001
0100
0010
1000
,
0010
1000
1100
0000
0110
0000
0011
0000
,
0110
1001
1010
0101
,
0110
1001
0000
0000
;

//---------------dance-single - ----------------
#NOTES:
     dance-single:
     :
     Easy:
     8:
     0.317768,0.395524,0.221617,0.098496,0.016416,271.000000,244.000000,27.000000,12.000000,0.000000,0.000000,0.317768,0.395524,0.221617,0.098496,0.016416,271.000000,244.000000,27.000000,12.000000,0.000000,0.000000:
0000
0000
0000
0000
,
0000
0000
0000
0000
,
0000
0000
0000
0000
,
0000
0000
0000
0000
,
0000
0000
0000
0000
,
0000
0001
0001
1000
,
1000
0010
1000
0100
,
0000
1000
0001
1000
,
0002
0000
0103
0100
,
0001
1000
0001
0100
,
0010
1000
0100
1000
,
0010
0100
0001
0010
,
0001
0100
0010
1000
,
1001
1000
0100
1000
,
0010
0100
0001
0010
,
0100
0000
0000
1000
0000
0000
0010
0000
0000
0200
0000
0000
0002
0000
0303
0000
,
0101
0001
1001
1000
,
1000
0000
0100
0000
0010
0001
0010
0001
,
0020
0130
1000
0001
,
0100
0010
0010
1000
,
1000
0100
1000
0010
,
0100
0000
0001
0000
0001
0000
0010
0100
,
1000
0000
1001
0000
0001
0000
1000
0100
,
1000
0010
0010
0100
,
0100
0000
0001
0000
1000
0000
0001
0010
,
0001
1001
1001
1001
,
1001
1000
0100
1000
,
0010
0100
0001
0010
,
0100
0000
1000
0000
0001
1000
0001
0000
,
1000
0001
1000
0000
0010
0000
0100
0000
,
1001
0110
0001
0010
,
0100
1000
0010
0100
,
0001
0000
0000
0000
1000
0000
0000
0100
0000
0000
0010
0000
0000
0002
0000
0000
,
1003
1001
0110
1010
,
0101
0000
0001
0000
0001
0000
1000
0100
,
1000
0100
2000
0000
0000
0000
0000
0000
,
0000
3002
0000
0103
,
0010
1001
1000
0100
,
0010
0001
0000
0100
,
0010
1000
0100
1000
,
0010
0100
0001
0010
,
0001
2000
0000
0002
,
3003
1001
1010
1100
,
0110
0001
0100
0010
,
1000
0000
0001
0100
0001
0000
0100
0001
,
0100
0000
0010
1000
0010
0000
1000
0010
,
1000
0200
0000
0000
,
1300
0011
0001
1000
,
0100
1000
0010
0100
,
0010
1000
0100
1000
,
0001
0000
0010
0000
0001
0000
1000
0001
,
1000
0001
1000
0000
0010
0000
0100
0000
,
0001
1000
0100
1000
,
0010
0100
0001
1000
,
0100
2100
0100
0100
,
3100
1100
0001
0100
,
0010
1000
0100
1000
,
0010
0100
0001
0010
,
0001
0000
0100
0000
0010
0000
1000
0100
,
1000
0001
0100
0010
,
1000
0100
1000
0010
,
0200
0301
0010
0001
,
1000
0110
1001
1100
,
0011
1000
0100
0010
,
0001
1001
0000
0000
;

//---------------dance-single - ----------------
#NOTES:
     dance-single:
     :
     Beginner:
     5:
     0.177059,0.263683,0.016416,0.090288,0.000000,151.000000,149.000000,2.000000,11.000000,0.000000,0.000000,0.177059,0.263683,0.016416,0.090288,0.000000,151.000000,149.000000,2.000000,11.000000,0.000000,0.000000:
// measure 0
0000
0000
0000
0000
,  // measure 1
0000
0000
0000
0000
,  // measure 2
0000
0000
0000
0000
,  // measure 3
0000
0000
0000
0000
,  // measure 4
0000
0000
0000
0000
,  // measure 5
0001
0000
1000
0000
,  // measure 6
0001
0000
1000
0000
,  // measure 7
0010
0000
0100
0000
,  // measure 8
0010
0000
0100
0000
,  // measure 9
0001
0010
0100
1000
,  // measure 10
0001
0100
0010
1000
,  // measure 11
0010
0000
1000
0000
,  // measure 12
0001
0000
0100
0000
,  // measure 13
0010
1000
0100
0010
,  // measure 14
0001
0100
0001
0010
,  // measure 15
1000
0000
0001
0000
,  // measure 16
1000
0001
1000
0001
,  // measure 17
1000
0001
1000
0001
,  // measure 18
1000
0001
0000
0100
,  // measure 19
0000
0001
0000
0010
,  // measure 20
0000
0100
0000
1000
,  // measure 21
0000
0010
0000
1000
,  // measure 22
0000
0001
0000
0100
,  // measure 23
0000
0001
0000
0010
,  // measure 24
0000
0100
0000
1000
,  // measure 25
0000
0100
0000
1000
,  // measure 26
0000
0001
1000
0001
,  // measure 27
0000
1000
0001
1000
,  // measure 28
0000
0010
0100
0010
,  // measure 29
0000
0100
0010
0100
,  // measure 30
0000
0001
0000
0010
,  // measure 31
0000
0100
0000
1000
,  // measure 32
0000
0001
0000
0100
,  // measure 33
0000
0010
0000
1000
,  // measure 34
0000
0001
0001
0001
,  // measure 35
0001
2000
0000
0000
,  // measure 36
0000
3002
0000
0000
,  // measure 37
0000
0203
0000
0000
,  // measure 38
0000
0320
0000
0000
,  // measure 39
0000
2030
0000
0000
,  // measure 40
0000
3200
0000
0000
,  // measure 41
0000
0320
0000
0000
,  // measure 42
0000
0032
0000
0000
,  // measure 43
0000
1003
0100
1000
,  // measure 44
0100
0010
0001
0010
,  // measure 45
0001
1000
0010
0100
,  // measure 46
0001
2002
0000
0000
,  // measure 47
3003
0001
0000
1000
,  // measure 48
0000
0001
0000
1000
,  // measure 49
0000
0010
0000
0100
,  // measure 50
0000
0010
0000
0100
,  // measure 51
0000
0001
0000
0010
,  // measure 52
0000
0100
0000
1000
,  // measure 53
0000
0001
0000
0100
,  // measure 54
0000
0010
0010
0010
,  // measure 55
0010
1000
0100
1000
,  // measure 56
0000
0001
0010
0001
,  // measure 57
0000
1000
0001
1000
,  // measure 58
0000
0010
0100
0020
,  // measure 59
0000
0000
1030
0100
,  // measure 60
1000
0100
0010
0001
,  // measure 61
0010
0000
0100
1000
,  // measure 62
0100
1000
0010
0100
,  // measure 63
0001
0010
0100
1000
,  // measure 64
0001
1001
0000
0000
;
