#TITLE:Smile;
#SUBTITLE:;
#ARTIST:Katy Perry;
#TITLETRANSLIT:;
#SUBTITLETRANSLIT:;
#ARTISTTRANSLIT:;
#GENRE:;
#CREDIT:;
#BANNER:SMILE.jpg;
#BACKGROUND:smell.jpg;
#LYRICSPATH:;
#CDTITLE:;
#MUSIC:Smile.ogg;
#OFFSET:0.000000;
#SAMPLESTART:4.286000;
#SAMPLELENGTH:15.000000;
#SELECTABLE:YES;
#BPMS:0.000000=98.000000
;
#STOPS:
;
#BGCHANGES:;
#KEYSOUNDS:;
#ATTACKS:;

//---------------dance-single - ----------------
#NOTES:
     dance-single:
     :
     Hard:
     10:
     0.411679,0.412240,0.235566,0.314088,0.164896,367.000000,337.000000,30.000000,40.000000,0.000000,0.000000,0.411679,0.412240,0.235566,0.314088,0.164896,367.000000,337.000000,30.000000,40.000000,0.000000,0.000000:
0000
0000
0000
0000
,
0000
0000
0000
0000
0000
0000
2000
3100
,
1001
0000
0000
0000
0110
0000
0000
0000
0001
0000
0010
0000
0100
1000
0100
0000
,
1010
0000
0000
0000
0101
0000
0000
0000
0010
0001
0010
0000
0001
0010
0001
0000
,
0020
0000
0000
0000
0130
0000
0000
0000
1000
0010
1000
0000
0001
0000
0010
0000
,
0200
0000
1300
0010
0100
0000
0002
0013
,
1001
0000
0000
0000
0110
0000
0000
0000
0001
0000
0010
0000
0100
1000
0100
0000
,
1010
0000
0000
0000
0101
0000
0000
0000
0010
0001
0010
0000
0001
0010
0001
0000
,
0020
0000
0000
0000
0130
0000
0000
0000
1000
0010
1000
0000
0001
0000
0010
0000
,
0200
0000
1300
0010
0100
0000
1001
0000
,
1000
0010
1000
0001
0010
0001
0200
0000
,
0310
1000
0100
1000
0010
0100
0002
0000
,
0013
0100
1000
0100
0010
0001
0200
0000
,
0310
1000
0100
1000
0010
0100
0101
0000
,
1000
0000
0100
0000
1000
0000
0010
0100
0010
0000
0100
0000
0002
0000
0000
0000
,
0013
0000
0100
0000
0010
0000
0001
0100
0001
0000
0100
0000
0020
0000
0000
0000
,
1030
0000
0100
0000
0010
0000
0001
0100
0001
0000
0010
0000
0200
0000
0000
0000
,
1300
0000
0010
0000
0100
0001
0100
0000
0010
1000
0010
0000
2000
0000
3100
0000
,
1001
0000
0000
0000
0110
0000
0000
0000
0001
0000
0010
0000
0100
1000
0100
0000
,
1010
0000
0000
0000
0101
0000
0000
0000
0010
0001
0010
0000
0001
0010
0001
0000
,
0020
0000
0000
0000
0130
0000
0000
0000
1000
0010
1000
0000
0001
0000
0010
0000
,
0200
0000
1300
0010
0100
0000
0002
0013
,
1001
0000
0000
0000
0110
0000
0000
0000
0001
0000
0010
0000
0100
1000
0100
0000
,
1010
0000
0000
0000
0101
0000
0000
0000
0010
0001
0010
0000
0001
0010
0001
0000
,
0020
0000
0000
0000
0130
0000
0000
0000
1000
0010
1000
0000
0001
0000
0010
0000
,
0200
0000
1300
0010
0100
0000
1001
0000
,
1000
0100
0010
0100
1000
0001
0020
0000
,
0031
0100
0010
1000
0100
0010
0002
0000
,
1003
0010
0100
0001
0010
0100
2000
0000
,
3010
0100
0001
0010
0001
0010
0110
0000
,
2002
0000
0000
0000
0000
3003
0010
0100
0010
0000
1000
0000
0002
0000
0000
0000
,
0103
0000
0010
0000
1000
0000
0100
1000
0100
0000
0010
0000
0200
0000
0000
0000
,
1300
0000
0010
0000
0100
0000
0001
0100
0001
0000
0010
0000
0002
0000
0000
0000
,
1003
0000
0010
0000
0100
0001
0100
0000
0010
1000
0010
0000
2000
0000
3100
0000
,
1001
0000
0000
0000
0110
0000
0000
0000
0001
0000
0010
0000
0100
1000
0100
0000
,
1010
0000
0000
0000
0101
0000
0000
0000
0010
0001
0010
0000
0001
0010
0001
0000
,
0020
0000
0000
0000
0130
0000
0000
0000
1000
0010
1000
0000
0001
0000
0010
0000
,
0200
0000
1300
0010
0100
0000
0002
0013
,
1001
0000
0000
0000
0110
0000
0000
0000
0001
0000
0010
0000
0100
1000
0100
0000
,
1010
0000
0000
0000
0101
0000
0000
0000
0010
0001
0010
0000
0001
0010
0001
0000
,
0020
0000
0000
0000
0130
0000
0000
0000
1000
0010
1000
0000
0001
0000
0010
0000
,
0200
0000
1300
0010
0100
0000
1001
0000
,
1000
0000
0000
0010
0000
0000
0100
0000
0001
0000
0010
0000
0002
0000
0000
0000
,
1003
0000
0000
0001
0000
0000
0010
0000
0100
0000
1000
0000
0020
0000
0000
0000
,
0130
0000
0000
0010
0000
0000
1000
0000
0100
0000
0010
0000
0002
0000
0000
0000
,
0103
0000
0000
0010
0000
0000
1000
0000
0100
0000
1000
0000
0020
0000
0000
0000
,
1030
0000
0000
0010
0000
0000
0100
0000
0001
0000
0010
0000
0002
0000
0000
0000
,
1003
0000
0000
0001
0000
0000
0010
0000
0100
0000
1000
0000
0020
0000
0000
0000
,
0130
0000
0000
0010
0000
0000
1000
0000
0100
0000
0010
0000
0002
0000
0000
0000
,
0103
0000
0000
0010
0000
0000
1000
0000
0100
0000
1000
0000
0020
0000
0000
0000
,
0030
0000
0000
0000
;

//---------------dance-single - ----------------
#NOTES:
     dance-single:
     :
     Medium:
     8:
     0.384757,0.353349,0.392610,0.070670,0.000000,343.000000,293.000000,50.000000,9.000000,0.000000,0.000000,0.384757,0.353349,0.392610,0.070670,0.000000,343.000000,293.000000,50.000000,9.000000,0.000000,0.000000:
0000
0000
0000
0000
,
0000
0000
0000
0000
,
1001
0000
0110
0000
0001
0010
0100
1000
,
0110
0000
1001
0000
0001
0100
0010
1000
,
1100
0000
0011
0000
1000
0100
0010
0001
,
0101
0000
1010
0000
1000
0010
0100
0001
,
1001
0000
0110
0000
0001
0010
0100
1000
,
0110
0000
1001
0000
0001
0100
0010
1000
,
1100
0000
0011
0000
1000
0100
0010
0001
,
0101
0000
1010
0000
1000
0010
0100
0000
,
0001
0100
0001
0000
1000
0010
1000
0000
,
0001
0010
0100
1000
0100
0010
0001
0000
,
1000
0100
1000
0000
0001
0010
0001
0000
,
1000
0100
0010
0001
0010
0100
1000
0000
,
1001
0000
0020
0000
1030
0100
1000
0000
,
0001
0100
0010
1000
0100
0010
0002
0000
,
1003
0000
0020
0000
1030
0100
1000
0000
,
0001
1000
0100
0010
0100
1000
0020
0030
,
1001
0000
0110
0000
0001
0010
0100
1000
,
0110
0000
1001
0000
0001
0100
0010
1000
,
1100
0000
0011
0000
1000
0100
0010
0001
,
0101
0000
1010
0000
1000
0010
0100
0001
,
1001
0000
0110
0000
0001
0010
0100
1000
,
0110
0000
1001
0000
0001
0100
0010
1000
,
1100
0000
0011
0000
1000
0100
0010
0001
,
0101
0000
1010
0000
1000
0010
0100
0000
,
0001
0100
0001
0000
1000
0010
1000
0000
,
0001
0010
0100
1000
0100
0010
0001
0000
,
1000
0100
1000
0000
0001
0010
0001
0000
,
1000
0100
0010
0001
0010
0100
1000
0000
,
1001
0000
0020
0000
1030
0100
1000
0000
,
0001
0100
0010
1000
0100
0010
0002
0000
,
1003
0000
0020
0000
1030
0100
1000
0000
,
0001
1000
0100
0010
0100
1000
0020
0030
,
1001
0000
0110
0000
0001
0010
0100
1000
,
0110
0000
1001
0000
0001
0100
0010
1000
,
1100
0000
0011
0000
1000
0100
0010
0001
,
0101
0000
1010
0000
1000
0010
0100
0001
,
1001
0000
0110
0000
0001
0010
0100
1000
,
0110
0000
1001
0000
0001
0100
0010
1000
,
1100
0000
0011
0000
1000
0100
0010
0001
,
0101
0000
1010
0000
1000
0010
0100
0000
,
0001
0100
0001
0000
1000
0010
1000
0000
,
0001
0010
0100
1000
0100
0010
0001
0000
,
1000
0100
1000
0000
0001
0010
0001
0000
,
1000
0100
0010
0001
0010
0100
1000
0000
,
0001
0100
0001
0000
1000
0010
1000
0000
,
0001
0010
0100
1000
0100
0010
0001
0000
,
1000
0100
1000
0000
0001
0010
0001
0000
,
1000
0100
0010
0001
0010
0100
2000
0000
,
3000
0000
0000
0000
;

//---------------dance-single - ----------------
#NOTES:
     dance-single:
     :
     Easy:
     6:
     0.283801,0.294457,0.086374,0.023557,0.000000,253.000000,242.000000,11.000000,3.000000,0.000000,0.000000,0.283801,0.294457,0.086374,0.023557,0.000000,253.000000,242.000000,11.000000,3.000000,0.000000,0.000000:
0000
0000
0000
0000
,
0000
0000
0000
0000
,
1000
0001
1000
0001
,
0100
0000
0010
0000
0100
0010
0100
0000
,
0001
0010
0100
1000
,
0100
0000
0010
0000
0001
0100
0001
0000
,
1000
0001
1000
0001
,
0100
0000
0010
0000
0100
0010
0100
0000
,
0001
0010
0100
1000
,
0100
0000
0010
0000
0001
0100
0001
0000
,
1000
0000
0010
0000
1000
0010
1000
0000
,
0001
0000
0100
0000
0001
0100
0001
0000
,
0010
1000
0010
0000
0100
0001
0100
0000
,
0001
0010
0001
0000
1000
0100
1000
0000
,
0010
0000
1000
0000
0010
1000
0010
0000
,
0100
0000
0001
0000
0100
0001
0100
0000
,
0001
1000
0001
0000
0010
0100
0010
0000
,
0001
0010
0100
1000
0100
0010
0001
0000
,
1000
0001
1000
0001
,
0100
0000
0010
0000
0100
0010
0100
0000
,
0001
0010
0100
1000
,
0100
0000
0010
0000
0001
0100
0001
0000
,
1000
0001
1000
0001
,
0100
0000
0010
0000
0100
0010
0100
0000
,
0001
0010
0100
1000
,
0100
0000
0010
0000
0001
0100
0001
0000
,
1000
0000
0010
0000
1000
0010
1000
0000
,
0001
0000
0100
0000
0001
0100
0001
0000
,
0010
1000
0010
0000
0100
0001
0100
0000
,
0001
0010
0001
0000
1000
0100
1000
0000
,
2002
0000
0000
3003
0010
0000
1000
0000
,
0100
0010
0001
0010
0100
1000
0100
0000
,
0101
0000
1010
0000
1000
0001
1000
0000
,
0001
0010
0100
1000
0100
0010
0001
0000
,
1000
0001
1000
0001
,
0100
0000
0010
0000
0100
0010
0100
0000
,
0001
0010
0100
1000
,
0100
0000
0010
0000
0001
0100
0001
0000
,
1000
0001
1000
0001
,
0100
0000
0010
0000
0100
0010
0100
0000
,
0001
0010
0100
1000
,
0100
0000
0010
0000
0001
0100
0001
0000
,
1010
0000
1010
0000
1000
0010
1000
0000
,
0101
0000
0101
0000
0001
0100
0001
0000
,
0010
1000
0010
0000
0100
0001
0100
0000
,
0001
0010
0001
0000
1000
0100
1000
0000
,
1010
0000
1010
0000
0010
1000
0010
0000
,
0101
0000
0101
0000
0100
0001
0100
0000
,
0001
1000
0001
0000
0010
0100
0010
0000
,
0001
0010
0100
1000
0100
0010
0002
0000
,
0003
0000
0000
0000
;

//---------------dance-single - ----------------
#NOTES:
     dance-single:
     :
     Beginner:
     3:
     0.212009,0.196305,0.251270,0.243418,0.000000,189.000000,157.000000,32.000000,31.000000,0.000000,0.000000,0.212009,0.196305,0.251270,0.243418,0.000000,189.000000,157.000000,32.000000,31.000000,0.000000,0.000000:
// measure 0
0000
0000
0000
0000
,  // measure 1
0000
0000
0000
0000
,  // measure 2
1001
0000
0110
0000
,  // measure 3
1000
0100
0010
0001
,  // measure 4
0110
0000
1001
0000
,  // measure 5
0001
0010
0100
1000
,  // measure 6
0011
0000
1100
0000
,  // measure 7
1000
0010
0100
0001
,  // measure 8
1010
0000
0101
0000
,  // measure 9
0001
0100
0010
1000
,  // measure 10
0002
0103
0020
1030
,  // measure 11
0200
0310
0002
1003
,  // measure 12
2000
3100
0020
0031
,  // measure 13
0020
0130
0002
0013
,  // measure 14
2000
3010
0200
0301
,  // measure 15
0020
0031
2000
3100
,  // measure 16
2000
3010
0200
0301
,  // measure 17
0020
0130
1000
0000
,  // measure 18
1001
0000
0110
0000
,  // measure 19
1000
0100
0010
0001
,  // measure 20
0110
0000
1001
0000
,  // measure 21
0001
0010
0100
1000
,  // measure 22
0011
0000
1100
0000
,  // measure 23
1000
0010
0100
0001
,  // measure 24
1010
0000
0101
0000
,  // measure 25
0001
0100
0010
1000
,  // measure 26
0002
0103
0020
1030
,  // measure 27
0200
0310
0002
1003
,  // measure 28
2000
3100
0020
0031
,  // measure 29
0020
0130
0002
0013
,  // measure 30
0200
0000
0320
0031
,  // measure 31
0200
0301
2000
3100
,  // measure 32
2000
3010
0200
0301
,  // measure 33
0020
0130
1000
0000
,  // measure 34
1001
0000
0110
0000
,  // measure 35
1000
0100
0010
0001
,  // measure 36
0110
0000
1001
0000
,  // measure 37
0001
0010
0100
1000
,  // measure 38
0011
0000
1100
0000
,  // measure 39
1000
0010
0100
0001
,  // measure 40
1010
0000
0101
0000
,  // measure 41
0001
0100
0010
1000
,  // measure 42
1001
0000
0110
0000
,  // measure 43
1000
0100
0010
0001
,  // measure 44
0110
0000
1001
0000
,  // measure 45
0001
0010
0100
1000
,  // measure 46
0011
0000
1100
0000
,  // measure 47
1000
0010
0100
0001
,  // measure 48
1010
0000
0101
0000
,  // measure 49
0001
0100
0010
2000
,  // measure 50
3000
0000
0000
0000
;
