#TITLE:Odin;
#SUBTITLE:;
#ARTIST:Gram;
#TITLETRANSLIT:;
#SUBTITLETRANSLIT:;
#ARTISTTRANSLIT:;
#GENRE:;
#CREDIT:;
#BANNER:Odeen.png;
#BACKGROUND:Odin.jpg;
#LYRICSPATH:;
#CDTITLE:;
#MUSIC:SOdin.ogg;
#OFFSET:0.000000;
#SAMPLESTART:51.599998;
#SAMPLELENGTH:12.000000;
#SELECTABLE:YES;
#BPMS:0.000000=200.000000
,100.000000=100.000000
,104.000000=200.000000
,168.000000=400.000000
,296.000000=200.000000
,456.000000=100.000000
;
#STOPS:
;
#BGCHANGES:;
#KEYSOUNDS:;
#ATTACKS:;

//---------------dance-single - ----------------
#NOTES:
     dance-single:
     :
     Hard:
     16:
     0.809436,1.281745,0.470963,0.217368,0.311560,782.000000,717.000000,65.000000,30.000000,0.000000,0.000000,0.809436,1.281745,0.470963,0.217368,0.311560,782.000000,717.000000,65.000000,30.000000,0.000000,0.000000:
0000
0000
0000
0000
,
0000
0000
0000
0000
,
0000
0000
0000
0000
,
0000
0000
0000
0000
,
0000
0000
0000
0000
,
0000
0000
0000
0000
,
0000
0000
0000
0000
,
0000
0000
0000
0000
,
0000
0000
0000
0000
,
1001
0000
1100
0011
,
0110
0000
1010
0101
,
0110
0000
0000
0000
1000
0100
0010
0000
,
0001
0000
0000
0100
0001
0000
0010
0000
0100
0000
0000
0000
1000
0010
1000
0010
,
1000
0000
0101
0011
,
0110
0000
1010
1100
,
0110
0000
0000
0000
0001
0010
0100
0000
,
1000
0000
0010
0000
0100
0000
0001
0010
0100
0000
1000
0000
0001
0010
0100
1000
,
0001
0100
0010
1000
0101
0000
1100
0000
,
0011
0000
1000
0100
0001
0000
1100
0000
,
0110
0000
1000
0100
0010
0001
0010
0100
,
1000
0000
0000
0001
0100
0000
1000
0000
0100
0000
0001
0000
0010
0100
1000
0100
,
1000
0010
0100
0001
0010
1000
0010
0001
,
0101
1000
0010
0100
0001
0010
0100
1000
,
0001
0100
0001
0100
0010
1000
0010
1000
0100
0010
0100
0010
0001
0100
0010
1000
,
0100
0010
0001
0010
0100
1000
0010
0000
,
2020
0000
0000
0000
0000
0000
0030
3010
,
1010
0000
1000
0100
0000
0010
0001
0000
,
0200
0000
0310
1000
0000
0001
0100
0000
,
0002
0000
0013
0100
0000
0010
0001
0000
,
2000
0000
0000
0000
3001
0000
0100
0000
0000
0000
0001
0000
0100
0010
0100
0010
,
0200
0000
0301
0010
0000
0001
0010
0000
,
2000
0000
3010
0100
0000
0001
0010
0000
,
0200
0000
0301
1000
0000
0001
1000
0000
,
0010
0000
0000
1000
0000
0000
0100
0000
1000
0000
0100
0000
0010
0001
0010
0001
,
0010
0001
1000
0100
0001
0100
1000
0010
,
0100
0001
1000
0010
0100
0001
0010
0001
,
1000
0010
0001
0010
1000
0100
0010
0100
,
1000
0001
0010
0100
0010
0100
0001
1000
,
0010
0001
0100
0010
1000
0100
1000
0010
,
1010
1000
0100
1000
0010
0100
0001
0010
,
0011
0000
0001
0000
0100
0000
0010
0000
1000
0100
1000
0100
1000
0100
1000
0100
,
2000
0000
0000
0000
,
3001
0100
0010
1000
,
0100
0000
1000
0000
0010
0000
0100
0001
,
0100
0010
1000
0100
,
0001
0100
1000
0010
,
0100
0001
0010
0001
,
0100
0010
1000
0100
,
1000
0010
0100
0001
,
0200
0000
0000
0000
0301
1000
0001
1000
,
0001
0100
0010
1000
,
0100
0001
0100
1000
,
0010
0100
0001
0010
,
0001
0000
1000
0000
0100
0000
1000
0100
,
0010
0001
0100
0001
,
1000
0010
0100
0001
,
0101
0000
0000
1010
0000
0000
1100
0000
,
1000
0000
0100
0000
0010
0001
0010
0001
,
0010
0100
1000
0010
,
0100
0001
0010
0001
,
1000
0010
0100
0001
,
1000
0000
0100
0000
0001
0000
0100
1000
,
0100
0010
0001
1000
,
0010
0100
0001
1000
,
0010
0100
0010
1000
,
0002
0000
0000
0000
1003
0001
1000
0001
,
1000
0010
0100
0001
,
2000
0000
0000
0000
3001
0000
0100
0001
,
0010
0100
1000
0010
,
0100
0000
0001
0000
0010
0000
0100
1000
,
0100
0000
1000
0000
0010
0100
0010
0100
,
0010
1000
0100
1000
,
0002
0000
0103
0010
,
1000
0000
0200
0000
,
1300
0000
0001
0010
0001
0000
0110
0000
,
1001
0000
0001
0100
0010
0000
1100
0000
,
0011
0000
1000
0010
1000
0010
2000
0000
,
3001
0000
0000
0100
0000
0000
0010
0000
1000
0000
0000
0000
0001
1000
0001
1000
,
0001
1000
0100
1000
0010
0100
0001
0100
,
0010
1000
0100
0001
0100
1000
0010
0100
,
0001
1000
0001
1000
0001
1000
0001
1000
0001
1000
0001
1000
0001
1000
0001
1000
,
0002
0000
0000
0103
,
0001
1000
0100
1000
0010
0100
0001
0010
,
1000
0010
0001
0100
0010
1000
0100
1000
,
0010
0100
0001
0100
1000
0100
0001
0010
,
0100
0000
1000
0100
0000
0000
1000
0000
0020
0000
0000
0000
0130
0001
0100
0001
,
0100
0001
1000
0010
0100
0001
1000
0100
,
0001
0100
1000
0010
0100
0001
1000
0010
,
0100
0000
0000
0000
0001
0000
0010
0000
1000
0000
0010
0000
0001
0000
1000
0001
,
1000
0010
0100
0001
1000
0001
2000
3000
,
1010
1000
0010
0100
0001
1000
0100
1000
,
0001
0100
1000
0100
0001
0010
0100
1000
,
1010
0000
1000
0010
0100
0001
0010
0001
,
1000
0000
0000
0010
0000
0000
0100
0000
0001
0000
0000
0000
1000
0010
1000
0010
,
1000
0100
0010
0100
1000
0000
1010
0000
,
0101
0000
0001
0100
0010
1000
1100
0000
,
1000
0001
1000
0001
1000
0001
1000
0001
0100
0010
0100
0010
0100
0010
0100
0010
,
0200
0000
0000
0000
0301
0010
0100
0000
,
1100
0000
1000
0010
0100
0001
0010
0000
,
1100
0000
0001
0100
0010
0000
1100
0000
,
0011
0000
1000
0001
1000
0010
0100
0001
,
0010
0000
0000
0200
0000
0000
1000
0000
0010
0000
0000
0300
1000
0001
1000
0001
,
1000
0010
0100
0001
0010
0000
0011
0000
,
1100
0000
0001
0100
1000
0000
1001
0000
,
0110
0000
1000
0100
0010
0001
0010
0100
,
1000
0000
0001
0000
0100
0000
0001
0100
0001
0000
1000
0000
0200
0000
0300
0000
,
1100
0000
1000
0010
0100
0001
0010
0000
,
1100
0000
0001
0100
0010
0000
1100
0000
,
0011
0000
1000
0001
1000
0010
0100
0001
,
0010
0000
0000
0200
0000
0000
1000
0000
0010
0000
0000
0300
1000
0001
1000
0001
,
1000
0010
0100
0001
0010
0000
0011
0000
,
1100
0000
0001
0100
1000
0000
1001
0000
,
0110
0000
1000
0100
0010
0001
0010
0100
,
1000
0000
0001
0000
0100
0000
0001
0100
0001
0000
1000
0000
0200
0000
0000
0000
,
1300
0000
0000
0000
0000
0000
0001
1000
0001
0000
0000
0000
0000
0000
1000
0001
1000
0000
0000
0010
0000
0000
0100
0000
0001
0000
0000
0000
0020
0000
0000
0000
,
0130
0000
0000
0000
0000
0000
1000
0100
1000
0000
0000
0000
0010
0000
0100
0000
0001
0000
0000
0010
0000
0000
0001
0000
0100
0000
0000
0000
0020
0000
0030
0000
,
1010
0000
1000
0100
0010
0000
0002
0000
0103
0000
0001
1000
0001
0000
2000
0000
,
3100
0000
0000
0000
0000
0000
1000
0001
1000
0000
0000
0000
0001
0100
0001
0100
0001
0000
1000
0000
0100
0000
1000
0000
0010
0000
0100
0000
0001
0000
0000
0000
,
0101
0000
1100
0101
1010
0000
0101
1100
,
0110
0000
0000
0000
0001
0100
0010
0000
2000
0000
3001
0000
0010
0000
0000
0000
,
0200
0300
1100
0110
0011
0000
1001
0110
,
0101
0000
0000
0000
0001
0000
0100
0000
0010
1000
0001
0100
0010
1000
0100
0020
,
0030
0000
0000
0000
;

//---------------dance-single - ----------------
#NOTES:
     dance-single:
     :
     Medium:
     14:
     0.644857,1.147973,0.311560,0.173894,0.057965,623.000000,580.000000,43.000000,24.000000,0.000000,0.000000,0.644857,1.147973,0.311560,0.173894,0.057965,623.000000,580.000000,43.000000,24.000000,0.000000,0.000000:
0000
0000
0000
0000
,
0000
0000
0000
0000
,
0000
0000
0000
0000
,
0000
0000
0000
0000
,
0000
0000
0000
0000
,
0000
0000
0000
0000
,
0000
0000
0000
0000
,
0000
0000
0000
0000
,
0000
0000
0000
0000
,
1001
0000
1000
0100
,
0010
0000
0001
0100
,
0010
0000
1000
0100
,
1000
0000
0001
0100
0001
0000
1000
0000
,
0110
0000
0001
1000
,
0001
0000
0100
0010
,
0100
0000
0000
0000
0001
1000
0001
0000
,
1000
0100
1000
0010
0100
0001
0010
0000
,
1000
0000
0001
0100
0001
0000
2000
0000
,
3100
0000
1000
0100
0010
0000
0002
0000
,
0103
0000
0010
1000
0001
0100
0010
1000
,
0100
0000
2000
0000
3010
0000
0100
0001
,
0100
0000
0001
1000
0001
0000
0110
0000
,
1001
0000
1000
0100
0010
0000
0101
0000
,
1000
0100
1000
0010
0100
0001
0010
0100
,
1000
0001
1000
0001
,
2002
0000
0000
0000
0000
0000
0003
3001
,
1000
0000
0001
0100
0000
0001
0100
0000
,
0010
0000
1000
0001
0000
1000
0001
0000
,
2000
0000
3001
0100
0000
0010
1000
0000
,
0200
0000
0310
1000
0000
0001
0100
0010
,
1000
0000
1000
0100
0000
0010
0100
0000
,
0010
0000
0001
0010
0000
0100
0010
0000
,
0100
0000
1000
0001
0000
0010
0001
0000
,
0100
0000
0000
0001
0000
0000
0100
0000
0001
0000
1000
0000
0100
0000
0010
0000
,
0011
0000
1000
0001
1000
0000
0010
0100
,
0010
0000
1000
0100
0010
0001
0010
0100
,
1000
0000
0001
0100
0001
0000
1000
0010
,
1000
0000
0001
0010
0100
0010
0001
0100
,
0010
0000
1000
0001
1000
0000
0002
0000
,
0103
0000
0010
1000
0010
0000
2000
0000
,
3100
0000
0010
0001
0010
0100
1000
0010
,
0100
0001
1000
0010
0001
0010
2000
0000
,
3001
0000
1000
0100
,
1000
0000
0011
0000
,
1100
0000
0001
0100
,
1000
0100
0001
0010
,
0100
0000
1000
0001
,
0010
0001
1000
0100
,
0010
0000
1000
0001
,
1000
0000
0001
1000
,
0001
0100
0010
1000
,
0000
0000
0001
0010
,
0001
0000
1000
0100
,
0010
0000
1000
0010
,
0001
0000
0100
0010
,
1000
0000
0001
0010
,
0001
0000
0000
1000
0000
0000
0100
0000
,
1000
0000
0001
0000
0100
0010
0100
0000
,
0002
0000
0103
0010
,
1000
0000
0100
1000
,
0010
0000
0100
0001
,
0010
0000
0100
0010
,
0001
0000
1000
0010
,
0100
0001
0010
0001
,
0100
0000
0010
1000
,
0010
0000
0000
0000
1000
0010
1000
0000
,
0001
0000
1000
0100
,
1000
0000
0010
0100
,
0001
0000
1000
0100
,
1000
0000
0001
0010
,
1000
0010
0001
0100
,
0010
1000
0100
1000
,
0002
0000
0000
0000
,
2000
0000
0000
3003
,
1001
0000
1000
0001
1000
0000
0110
0000
,
1001
0000
1000
0100
0010
0000
0011
0000
,
0110
0000
1000
0001
1000
0010
0100
0001
,
0010
0000
0100
1000
0200
0000
0000
0300
,
1100
1000
0100
0000
0010
0001
0010
0000
,
1000
0010
1000
0000
0001
0100
0001
0000
,
1000
0010
0100
0001
1000
0100
0010
0001
,
2000
0000
0000
0000
,
3001
0000
1000
0100
0010
0100
1000
0010
,
0100
0000
0001
1000
0100
1000
0010
0100
,
0001
0000
0100
0001
0010
0001
0100
1000
,
0010
0000
0000
0000
0100
0000
0001
0000
0010
0000
0000
0000
0100
1000
0100
0000
,
1000
0000
0010
0100
0001
0010
0001
0000
,
1100
0000
1000
0010
0100
0010
1000
0000
,
1100
0000
0001
0010
0001
0100
0010
1000
,
0001
1000
0100
1000
0010
0100
0002
0000
,
1003
0000
0010
1000
0010
1000
0100
0010
,
1000
0000
0010
0001
0100
0001
0010
0100
,
1000
0000
0001
0100
0010
1000
0100
1000
,
0010
0000
0000
0000
0010
0000
0100
0000
0001
0000
0000
0000
1000
0001
1000
0000
,
0010
0000
1000
0100
1000
0010
0100
0001
,
0010
0000
1000
0001
0010
1000
0010
0001
,
0100
0000
0010
1000
0010
0100
0010
0001
,
1000
0100
0001
0010
0100
1000
0010
0000
,
1010
0000
1000
0001
1000
0000
0110
0000
,
1001
0000
0001
0100
0010
0000
1100
0000
,
0011
0000
1000
0100
0010
0001
0010
0100
,
2000
0000
3001
0100
0001
0000
2000
0000
,
3010
0000
1000
0001
1000
0000
0110
0000
,
1100
0000
1000
0100
0010
0000
0011
0000
,
0110
0000
1000
0001
1000
0001
1000
0000
,
0010
0100
0010
0100
0010
0100
0010
0000
,
1000
0000
0001
0000
1000
0100
0010
0000
,
0011
0000
1000
0000
0001
0100
0010
0000
,
1100
0000
1000
0100
1000
0010
0100
0001
,
0020
0000
0031
0100
0020
0000
0000
0000
,
1030
0100
1000
0100
0010
0001
0010
0001
,
1000
0010
1000
0010
0100
0001
0100
0001
,
1000
0100
0010
0001
1000
0010
0001
0010
,
1000
0100
0001
0100
1000
0010
0200
0000
,
1300
0000
0000
0010
0100
0000
0000
0001
0010
0000
0100
1000
0100
0000
0000
0000
,
1000
0000
0000
0100
0010
0000
0000
0100
1000
0000
0001
0010
0001
0000
0200
0000
,
0310
0000
0000
1000
0001
0000
0000
0100
0010
0000
1000
0100
1000
0000
0002
0000
,
0103
0000
0000
0010
1000
0000
0100
0000
1000
0010
1000
0010
0100
0001
0100
0000
,
0010
0000
1100
0110
0011
0000
0011
0110
,
1100
0000
0110
1001
0110
1000
0200
0000
,
1300
0000
1010
0101
0110
0000
1100
0101
,
0011
0000
1000
0100
1000
0010
0100
0001
;

//---------------dance-single - ----------------
#NOTES:
     dance-single:
     :
     Easy:
     10:
     0.420244,0.750598,0.130421,0.072456,0.003623,406.000000,388.000000,18.000000,10.000000,0.000000,0.000000,0.420244,0.750598,0.130421,0.072456,0.003623,406.000000,388.000000,18.000000,10.000000,0.000000,0.000000:
0000
0000
0000
0000
,
0000
0000
0000
0000
,
0000
0000
0000
0000
,
0000
0000
0000
0000
,
0000
0000
0000
0000
,
0000
0000
0000
0000
,
0000
0000
0000
0000
,
0000
0000
0000
0000
,
0000
0000
0000
0000
,
1000
0000
0001
1000
,
0001
0000
0100
0010
,
0100
0000
0001
0010
,
0100
1000
0100
0010
,
0001
0000
1000
0100
,
0001
0000
1000
0010
,
0001
0000
1000
0001
,
0100
0010
1000
0100
,
1000
0001
0100
0010
,
1000
0001
0010
0001
,
0100
0010
1000
0100
,
1000
0010
0100
0001
,
0010
0000
0100
0000
1000
0100
1000
0000
,
0001
0000
0100
0000
0001
0100
0001
0000
,
1000
0000
0100
0000
1000
0100
1000
0100
,
2000
0000
0000
0000
,
0002
0000
0000
3003
,
0110
1000
0100
1000
,
0010
0100
0001
0010
,
0001
1000
0100
0001
,
0100
1000
0010
0200
,
0301
0010
0001
1000
,
0100
1000
0010
0100
,
0001
1000
0010
0100
,
1001
0000
0110
0000
,
1000
0100
1000
0100
,
0010
0001
0010
0001
,
1000
0010
1000
0010
,
0100
0001
0100
0001
,
1000
0100
0001
0100
,
1000
0010
0001
0010
,
1000
0100
1000
0010
,
0200
0000
0000
0000
,
0310
0000
1000
0000
,
0100
0000
1000
0000
,
0001
0000
0010
0000
,
0001
0000
0100
0000
,
0010
0000
1000
0000
,
0100
0000
1000
0000
,
0001
0000
0010
0000
,
0001
0000
1000
0001
,
1000
0000
0010
0000
,
0100
0000
0001
0000
,
0010
0000
0001
0000
,
1000
0000
0100
0000
,
0001
0100
0000
1000
,
0010
0000
0100
0000
,
0001
0000
1000
0000
,
0001
1000
0001
1000
,
0100
0000
1000
0000
,
0010
0000
0100
0000
,
0001
0000
0010
0000
,
0001
0000
0100
0000
,
0010
0000
1000
0000
,
0100
0000
1000
0000
,
0010
0000
0100
0000
,
0001
0000
1000
0001
,
1000
0000
0010
0000
,
0100
0000
0001
0000
,
0101
0000
0001
0000
,
1000
0000
0100
0000
,
1100
0000
1000
0000
,
0010
0000
0100
0000
,
0001
0000
1000
0000
,
0100
0000
0001
0000
,
0100
1000
0010
0100
,
0110
1000
0100
1000
,
0110
0001
0010
0100
,
2000
0000
3010
0100
,
0001
0010
0001
0010
,
0100
1000
0100
1000
,
0001
1000
0001
0000
1000
0001
1000
0000
,
0002
0000
0000
0000
,
1003
0100
1000
0010
,
0100
0001
1000
0100
,
0001
0100
1000
0010
,
0100
0000
0001
0000
1000
0000
0001
0100
,
0001
1000
0100
1000
,
0010
0100
0001
0010
,
0100
1000
0100
0010
,
0001
0000
0000
1000
0000
0000
0100
0000
1000
0000
0000
0000
0010
0000
0000
0000
,
0100
0001
1000
0010
,
0100
0001
0010
1000
,
0010
0001
0100
0010
,
1000
0000
0100
0000
1000
0000
0001
1000
,
0001
0100
0001
1000
,
0100
1000
0010
0100
,
0001
0010
0100
1000
,
2020
0000
0000
3030
,
0101
0001
0010
0000
,
1010
0100
0010
0000
,
1000
0100
0010
0001
,
0010
0100
2000
0000
,
3001
0100
0101
0000
,
1000
0010
1010
0000
,
1000
0100
0010
0001
,
0010
0100
0010
0001
,
1000
0001
0100
0010
,
1001
1000
0100
1000
,
1100
1000
0010
0100
,
0002
0000
0103
0000
,
1000
0100
1000
0100
,
0010
0001
0010
0001
,
1000
0010
0100
0001
,
1000
0100
0010
0001
,
1000
0000
0001
0000
1000
0010
1000
0000
,
0001
0000
0100
0000
0010
1000
0010
0000
,
0100
0000
0001
0000
0010
0001
0010
0000
,
1000
0100
0010
0001
0010
0001
0100
0010
,
1000
0000
0100
1000
1100
0000
1000
0100
,
1100
0000
0010
0001
0010
0001
0100
0010
,
1000
0000
0001
0010
0011
0000
0010
0001
,
0011
0000
1000
0100
1000
0010
0100
0001
;

//---------------dance-single - ----------------
#NOTES:
     dance-single:
     :
     Beginner:
     7:
     0.244280,0.618773,0.173894,0.065210,0.000000,236.000000,212.000000,24.000000,9.000000,0.000000,0.000000,0.244280,0.618773,0.173894,0.065210,0.000000,236.000000,212.000000,24.000000,9.000000,0.000000,0.000000:
// measure 0
0000
0000
0000
0000
,  // measure 1
0000
0000
0000
0000
,  // measure 2
0000
0000
0000
0000
,  // measure 3
0000
0000
0000
0000
,  // measure 4
0000
0000
0000
0000
,  // measure 5
0000
0000
0000
0000
,  // measure 6
0000
0000
0000
0000
,  // measure 7
0000
0000
0000
0000
,  // measure 8
0000
0000
0000
0000
,  // measure 9
1000
0000
0001
0000
,  // measure 10
1000
0000
0001
0000
,  // measure 11
0100
0000
0010
0000
,  // measure 12
0100
0000
0010
0000
,  // measure 13
1000
0000
0100
0000
,  // measure 14
0010
0000
0001
0000
,  // measure 15
1000
0000
0010
0000
,  // measure 16
0100
0000
0001
0000
,  // measure 17
1000
0000
0010
0000
,  // measure 18
1000
0000
0010
0000
,  // measure 19
0100
0000
0001
0000
,  // measure 20
0100
0000
0001
0000
,  // measure 21
1000
0000
0001
0000
,  // measure 22
0100
0000
0010
0000
,  // measure 23
1000
0000
0100
0000
,  // measure 24
0010
0000
0001
0000
,  // measure 25
2002
0000
3003
0000
,  // measure 26
0110
0000
0010
0000
,  // measure 27
1000
0000
0100
0000
,  // measure 28
1000
0000
0010
0000
,  // measure 29
0100
0000
0001
0000
,  // measure 30
0010
0000
0001
0000
,  // measure 31
0100
0000
0010
0000
,  // measure 32
1000
0000
0100
0000
,  // measure 33
1000
0000
0010
0000
,  // measure 34
0100
0000
0010
0000
,  // measure 35
1000
0000
0100
0000
,  // measure 36
1000
0000
0010
0000
,  // measure 37
0100
0000
0001
0000
,  // measure 38
0010
0000
0001
0000
,  // measure 39
0100
0000
0010
0000
,  // measure 40
0100
0000
0001
0000
,  // measure 41
0010
0000
0100
0000
,  // measure 42
1000
0000
0000
0000
,  // measure 43
0001
0000
0000
0000
,  // measure 44
1000
0000
0000
0000
,  // measure 45
0001
0000
0000
0000
,  // measure 46
0100
0000
0000
0000
,  // measure 47
0010
0000
0000
0000
,  // measure 48
0100
0000
0000
0000
,  // measure 49
0010
0000
0000
0000
,  // measure 50
1000
0000
0000
0000
,  // measure 51
0100
0000
0000
0000
,  // measure 52
0010
0000
0000
0000
,  // measure 53
0001
0000
0000
0000
,  // measure 54
1000
0000
0000
0000
,  // measure 55
0010
0000
0000
0000
,  // measure 56
0100
0000
0000
0000
,  // measure 57
0001
0000
0000
0000
,  // measure 58
1001
0000
0000
0000
,  // measure 59
0110
0000
0000
0000
,  // measure 60
1010
0000
0000
0000
,  // measure 61
0101
0000
0000
0000
,  // measure 62
1100
0000
0000
0000
,  // measure 63
0011
0000
0000
0000
,  // measure 64
1010
0000
0000
0000
,  // measure 65
0110
0000
0000
0000
,  // measure 66
1001
0000
0000
0000
,  // measure 67
0101
0000
0000
0000
,  // measure 68
1010
0000
0000
0000
,  // measure 69
0110
0000
0000
0000
,  // measure 70
1100
0000
0000
0000
,  // measure 71
0011
0000
0000
0000
,  // measure 72
1000
0000
0100
0000
,  // measure 73
0010
0000
0001
0000
,  // measure 74
2000
0000
3001
0000
,  // measure 75
0002
0000
1003
0000
,  // measure 76
0200
0000
0310
0000
,  // measure 77
0020
0000
0130
0000
,  // measure 78
1000
0000
0100
0000
,  // measure 79
0010
0000
0001
0000
,  // measure 80
1000
0000
0001
0000
,  // measure 81
0100
0000
0010
0000
,  // measure 82
1000
0000
0010
0000
,  // measure 83
0100
0000
0001
0000
,  // measure 84
1000
0000
0001
0000
,  // measure 85
0010
0000
0100
0000
,  // measure 86
1000
0000
0010
0000
,  // measure 87
0100
0000
0001
0000
,  // measure 88
0010
0000
0001
0000
,  // measure 89
0100
0000
0010
0000
,  // measure 90
1000
0000
0100
0000
,  // measure 91
1000
0000
0100
0000
,  // measure 92
0010
0000
0001
0000
,  // measure 93
0010
0000
0001
0000
,  // measure 94
1000
0000
0001
0000
,  // measure 95
1000
0000
0001
0000
,  // measure 96
0100
0000
0010
0000
,  // measure 97
1000
0100
0010
0001
,  // measure 98
1000
0000
1000
0000
,  // measure 99
0001
0000
0001
0000
,  // measure 100
0100
0000
0100
0000
,  // measure 101
0010
0000
0020
0000
,  // measure 102
1030
0000
0100
0000
,  // measure 103
0001
0000
0100
0000
,  // measure 104
1000
0000
0010
0000
,  // measure 105
0001
0000
0010
0000
,  // measure 106
1000
0000
0001
0000
,  // measure 107
0010
0000
0001
0000
,  // measure 108
0100
0000
0010
0000
,  // measure 109
1000
0000
0010
0000
,  // measure 110
0100
0000
0001
0000
,  // measure 111
0010
0000
0001
0000
,  // measure 112
0010
0000
0100
0000
,  // measure 113
2000
0000
0000
0000
,  // measure 114
3001
1000
0010
0100
,  // measure 115
0001
0010
0100
1000
,  // measure 116
0001
0010
0001
0100
,  // measure 117
0010
1000
0100
1000
,  // measure 118
1100
0100
0110
0010
,  // measure 119
0011
0001
0101
0100
,  // measure 120
0110
0010
1010
1000
,  // measure 121
1100
0100
0110
0020
,  // measure 122
0030
0000
0000
0000
;
