#TITLE:MEJIRUSHI;
#SUBTITLE:;
#ARTIST:Zekk;
#TITLETRANSLIT:;
#SUBTITLETRANSLIT:;
#ARTISTTRANSLIT:;
#GENRE:;
#CREDIT:NateRizzle;
#BANNER:MEJI.png;
#BACKGROUND:MRI.jpg;
#LYRICSPATH:;
#CDTITLE:;
#MUSIC:MRI.ogg;
#OFFSET:0.000000;
#SAMPLESTART:75.077003;
#SAMPLELENGTH:12.000000;
#SELECTABLE:YES;
#BPMS:0.000000=195.000000
,84.000000=390.000000
,212.000000=97.500000
,228.000000=195.000000
,292.000000=390.000000
,420.000000=195.000000
,452.000000=390.000000
,516.000000=97.500000
;
#STOPS:
;
#BGCHANGES:;
#KEYSOUNDS:;
#ATTACKS:;

//---------------dance-single - ----------------
#NOTES:
     dance-single:
     :
     Hard:
     14:
     0.684449,1.633344,0.318293,0.301540,0.104702,572.000000,534.000000,38.000000,36.000000,0.000000,0.000000,0.684449,1.633344,0.318293,0.301540,0.104702,572.000000,534.000000,38.000000,36.000000,0.000000,0.000000:
0000
0000
0000
0000
,
0000
0000
0000
0000
,
0000
0000
0000
0000
,
0000
0000
0000
0000
,
0000
0000
0000
0000
,
0000
0000
0000
0000
,
0000
0000
0000
0000
,
0000
0000
0000
0000
,
0000
0000
0000
0000
,
1000
0000
1000
0010
0000
0010
0000
0100
,
0001
0000
0001
0010
0000
0010
0000
0100
,
1000
0000
0010
0001
0000
0010
0000
1000
,
0001
0000
0010
1000
0000
0010
0000
0001
,
1000
0000
0010
0100
0000
0001
0000
0010
,
0001
0000
1000
0100
0000
1000
0000
0010
,
0100
0000
0001
0010
0000
0100
0010
0001
,
0200
0000
0000
0000
0000
0000
0000
0300
,
1001
1100
0110
0011
,
0101
1100
0110
0011
,
1000
0100
0001
1000
0010
0001
1000
0100
,
0001
0000
0100
1000
0100
0000
0010
0000
0100
0000
0002
0000
0023
0000
0130
0000
,
1001
0000
0000
0000
0001
1000
0001
0000
,
0100
0010
1000
0001
,
0010
0000
0100
0000
0001
0010
0001
0000
,
0010
0100
1000
0010
,
0100
0000
0001
0000
0010
0100
0010
0000
,
1000
0100
0001
0100
,
1000
0000
0010
0000
0100
0001
0100
0000
,
0001
0010
1000
0010
,
1001
0000
0000
0000
0010
0100
0010
0000
,
1000
0010
0100
0001
,
0010
0000
0001
0000
1000
0010
1000
0000
,
0100
0010
0001
0010
,
0001
0000
0100
0000
0010
1000
0010
0000
,
0100
0001
0010
1000
,
0010
0000
0001
0000
0100
0010
0100
0000
,
1000
0000
0010
0100
0000
0010
0100
0000
,
1001
0000
0000
0000
1000
0001
1000
0001
,
1000
0010
0100
0001
,
0010
0000
0001
0000
0100
0010
0100
0000
,
0001
0010
0100
1000
,
0010
0000
0100
0000
0010
1000
0010
0000
,
0100
0001
0010
0001
,
1000
0000
0010
0000
0100
0001
0100
0000
,
0010
1000
0100
0000
,
1001
0000
0000
0000
0010
0100
0010
0100
,
0010
1000
0001
0010
,
0001
0000
0100
0000
0010
1000
0010
0000
,
0100
0001
0010
0001
,
1000
0000
0010
0000
1000
0100
0001
0100
,
1000
0010
0100
0001
,
0010
0000
0100
0000
0010
0001
0010
0000
,
0100
0000
1000
0000
0020
0000
0000
0030
,
2000
3020
0230
0302
0023
0000
0230
0000
2300
0000
0000
0000
3010
0010
0010
0010
,
0200
0301
0020
1030
0010
0001
1001
1001
,
1000
0010
0100
0000
0002
0013
0000
0200
1300
0000
0010
0100
0002
0013
0000
0002
,
0103
0000
0000
0000
0010
0000
1000
0000
0100
0000
2000
0000
0000
0000
3010
0000
0100
0000
0001
0100
0001
0000
0010
0100
0010
0000
0001
1000
0001
0000
0100
0000
,
2000
0000
0000
0000
,
3020
0000
0000
0230
,
0302
0000
0000
0000
,
0023
0000
0230
0000
,
0320
0000
0000
0000
,
0032
0000
0000
2003
,
3020
0000
0000
0000
,
0230
0000
0000
0300
,
1001
0110
1100
0011
,
0101
1010
0110
0011
,
1100
0110
1001
1010
,
0101
1100
0011
0110
,
1000
0010
0100
0010
1000
0001
0010
0001
,
0100
0010
1000
0010
0100
0001
0010
0001
,
0100
0001
0100
0000
0010
0000
1000
0000
0100
0010
0100
0000
0001
0000
0100
0000
,
0010
1000
0010
1000
0010
0000
0100
0000
0002
0000
0000
0000
0000
0000
0000
0003
,
1000
0100
0010
0000
,
1000
0100
0001
0000
,
1000
0100
0010
0001
,
0100
0010
1000
0000
,
0001
0100
0010
0000
,
0001
0100
1000
0000
,
0100
0000
0001
0100
0001
0000
0010
0100
,
0010
0000
0100
1000
0100
0000
0010
0000
,
0001
0100
0010
0000
,
0001
0010
1000
0000
,
0010
1000
0100
0010
,
0001
0100
0010
0000
,
1000
0010
0100
0000
,
1000
0100
0001
0000
,
1000
0000
0000
1000
0100
0000
0000
0100
,
0010
0000
0000
0010
0001
0000
0100
0000
,
0010
0000
1000
0000
0001
0100
0001
0000
,
0010
0000
0100
1000
,
0010
0100
0010
0000
1000
0000
0000
0000
,
0001
0100
1000
0100
,
0001
0000
1000
0000
0100
0010
0100
0000
,
1000
0000
0001
0100
,
0010
1000
0010
0000
1000
0000
0010
0000
,
1000
0100
0001
0100
,
1000
0000
1000
0000
0010
0100
0010
0000
,
0110
0000
0001
0010
,
0100
1000
0100
0000
1100
0000
0000
0000
,
1000
0100
0010
0001
,
1001
0000
0000
0000
0010
0100
0010
0000
,
1001
0000
0000
0000
0100
0010
0100
0000
,
0020
0000
0000
0000
,
2030
0000
0000
0000
,
3010
0000
0100
0001
0100
0000
0010
1000
,
0010
0000
1000
0100
0001
0100
1000
0010
,
0100
0000
0001
0010
0001
0000
0010
0100
,
0010
0000
0100
1000
0010
0100
0001
0010
,
0001
0000
0100
0010
0100
0000
0010
1000
,
0010
0000
0100
0001
0010
0001
0100
0010
,
1000
0000
0100
1000
0100
0000
0010
0001
,
0010
0000
0000
0000
1000
0100
0001
0100
,
1000
0000
0010
0100
,
0001
0000
0010
0100
,
1000
0001
1000
0000
0010
0000
0100
0000
,
0001
0000
1000
0100
,
0010
0000
0100
0001
,
0010
0000
0100
1000
,
0010
0100
0010
0000
0002
0000
0013
0000
,
0100
1000
0100
0010
,
1001
1001
1001
0000
,
1000
0001
1000
0000
0010
0000
0100
0000
,
0001
0010
0100
0010
,
0001
1000
0001
0000
0100
0000
0010
0000
,
1000
0100
0010
0001
,
0100
0010
1000
0100
,
2000
0000
0000
0000
,
0000
0000
3000
0000
,
0220
0000
0000
0000
,
0330
0000
0000
0000
;

//---------------dance-single - ----------------
#NOTES:
     dance-single:
     :
     Medium:
     11:
     0.551627,1.252230,0.276412,0.385302,0.046069,461.000000,428.000000,33.000000,46.000000,0.000000,0.000000,0.551627,1.252230,0.276412,0.385302,0.046069,461.000000,428.000000,33.000000,46.000000,0.000000,0.000000:
0000
0000
0000
0000
,
0000
0000
0000
0000
,
0000
0000
0000
0000
,
0000
0000
0000
0000
,
0000
0000
0000
0000
,
0000
0000
0000
0000
,
0000
0000
0000
0000
,
0000
0000
0000
0000
,
0000
0000
0000
0000
,
0002
0000
0013
0001
0000
0010
0000
0100
,
2000
0000
3010
1000
0000
0010
0000
0100
,
0002
0000
0103
0001
0000
1000
0000
0010
,
2000
0000
3001
1000
0000
0010
0000
0100
,
0020
0000
1030
0010
0000
0100
0000
0001
,
0200
0000
0310
0100
0000
0001
1000
0100
,
0020
0000
0032
0000
2003
0000
3020
0030
,
2002
0000
0000
3003
,
1001
0001
0101
0100
,
0110
0010
1010
1000
,
0001
0010
0100
1000
0001
0100
0010
1000
,
0010
0000
0010
0000
0010
1000
0100
0010
,
0002
0000
0103
0000
,
0010
1000
0010
0000
,
1000
0100
0010
0001
,
1000
0010
0100
0000
,
0002
0000
0013
0000
,
0100
1000
0100
0000
,
1000
0010
0100
0001
,
0010
0100
1000
0000
,
0020
0000
1030
0000
,
0001
0100
0001
0000
,
0010
0100
0001
1000
,
0100
0010
0001
0000
,
0200
0000
0310
0000
,
1000
0001
1000
0000
,
0002
0000
0000
0000
,
0103
0000
0000
0100
0000
0000
0100
0000
,
0020
0000
1030
0000
,
0001
0100
0010
0000
,
1000
0100
1000
0100
,
0010
0001
0010
0000
,
0002
0000
0103
0000
,
0010
1000
0100
0000
,
0001
0100
1000
0100
,
0001
0010
0100
0000
,
1000
0100
0010
0001
,
0100
0010
1000
0001
,
0010
0100
1000
0100
,
0010
0001
0100
0010
,
1000
0001
0010
0000
,
0100
1000
0010
0000
,
2002
0000
0000
0000
,
0000
0000
0000
3003
,
0010
1000
0010
1000
0010
0000
0100
0000
0011
0000
0100
0000
1000
0000
0010
0000
,
0100
0001
0100
0000
0010
1000
0010
0000
0100
0000
0100
0000
0010
0000
0010
0000
,
2000
0000
3100
0000
0010
0001
0010
0000
0002
0000
0013
0000
0100
1000
0100
0000
,
0010
0000
0001
0000
0100
0000
0010
0000
1000
0001
1000
0001
1000
0010
1000
0010
,
2000
0000
0000
0000
,
3020
0000
0000
0230
,
0302
0000
0000
0000
,
0023
0000
0000
0000
0230
2300
3020
0230
,
0302
0000
0000
0000
,
0203
0000
0320
0000
,
2030
0000
0000
0000
0000
0000
0000
3000
,
0220
0000
0000
0000
0000
0000
0000
0330
,
0110
1001
0110
1001
,
1100
0011
1001
1010
,
0110
1001
0110
1001
,
1100
0011
1001
0101
,
0001
0100
0001
0000
1000
0010
1000
0000
,
0001
0010
0100
0000
1000
0100
0010
0000
,
0001
0100
0010
1000
0001
0010
0100
1000
,
0020
0000
0000
0000
0000
0000
0000
0000
1030
0000
0000
1000
0000
0000
1000
0000
,
0010
0000
0100
0001
,
1000
0000
0001
0100
,
0010
1000
0100
0000
,
1000
0010
1000
0010
,
1000
0000
0001
0100
,
0010
0000
1000
0100
,
0001
0100
1000
0000
,
0001
0100
1000
0100
,
0001
0000
1000
0010
,
1000
0000
0001
0100
,
0001
0100
0001
0000
,
1000
0100
0010
0001
,
0100
0000
0001
1000
,
0001
0000
0010
0100
,
1000
0100
0010
0000
,
0001
0000
0100
0001
0000
0000
0100
0000
,
0020
0000
1030
0100
,
1000
0000
0001
0100
,
0010
1000
0100
0000
,
1000
0100
0010
0001
,
2000
0000
3001
0100
,
0010
0000
1000
0001
,
0100
0010
1000
0000
,
0001
0100
1000
0100
,
0001
0010
0100
1000
,
0100
0000
1000
0010
,
1000
0001
1000
0000
,
0001
0010
1000
0010
,
0001
0000
1000
0100
,
1000
0000
0001
0100
,
0001
0000
1000
0100
,
0010
0001
0010
0100
,
1000
0000
0001
0100
0001
0000
1000
0100
,
1000
0000
0010
0100
0010
0000
0100
0001
,
0100
0000
0001
0010
0100
0000
1000
0001
,
0100
0000
0010
1000
0100
0000
1000
0001
,
1001
0000
0110
0000
,
1100
0000
0011
0000
,
2002
0000
0000
0000
0000
0000
0000
3003
,
0020
0000
0000
0000
1030
0100
0010
0001
,
1000
0000
0001
0100
,
0001
0000
1000
0100
,
1000
0000
0001
0100
,
1000
0000
1001
0000
,
0110
0000
1000
0100
,
0010
0000
0100
0010
,
0001
0000
1000
0100
,
0001
0000
1001
0000
,
0010
0010
0010
0000
,
0110
0000
1000
0100
,
0010
0000
0001
0100
,
0010
0000
1000
0001
,
0100
0000
0010
1000
,
0100
0010
0001
0010
,
0200
0000
0000
0000
,
0000
0000
0000
0000
,
0320
0000
0000
0000
,
0030
0000
0000
0000
;

//---------------dance-single - ----------------
#NOTES:
     dance-single:
     :
     Easy:
     8:
     0.324276,0.598893,0.100513,0.402054,0.000000,271.000000,259.000000,12.000000,48.000000,0.000000,0.000000,0.324276,0.598893,0.100513,0.402054,0.000000,271.000000,259.000000,12.000000,48.000000,0.000000,0.000000:
0000
0000
0000
0000
,
0000
0000
0000
0000
,
0000
0000
0000
0000
,
0000
0000
0000
0000
,
0000
0000
0000
0000
,
0000
0000
0000
0000
,
0000
0000
0000
0000
,
0000
0000
0000
0000
,
0000
0000
0000
0000
,
0002
0000
2003
0000
,
3020
0000
0230
0000
,
0302
0000
0023
0000
,
0230
0000
2300
0000
,
3002
0000
0203
0000
,
0320
0000
0230
0000
,
0302
0000
0000
0000
,
1003
0000
0000
0010
0000
0000
0100
0000
,
0001
0100
0010
1000
,
0100
1000
0010
0100
,
0001
0100
0001
0010
,
0200
0000
0000
0000
,
0301
0000
0000
0000
,
1000
0000
0000
0000
,
0001
0000
0100
0000
,
0010
0000
1000
0000
,
0100
0000
0000
0000
,
1000
0000
0000
0000
,
0001
0000
0100
0000
,
0010
0000
1000
0000
,
1001
0000
0000
0000
,
1000
0000
0010
0000
,
0100
0000
0001
0000
,
0010
0000
0100
0000
,
1000
0000
0001
0000
,
0100
0000
0010
0000
,
2000
0000
0000
0000
,
0000
0000
0000
0000
,
3001
0000
0000
0000
,
0100
0000
0000
0000
,
0010
0000
1000
0000
,
0001
0000
0100
0000
,
0010
0000
0000
0000
,
1000
0000
0000
0000
,
0001
0000
0010
0000
,
0100
0000
1000
0000
,
0110
0000
0000
0000
,
1001
0000
0000
0000
,
0001
0000
0100
0000
,
0010
0000
1000
0000
,
0100
0000
1000
0000
,
0010
0000
0100
0001
,
0100
0000
0010
0000
,
1000
0000
0001
0000
,
0200
0000
0320
0000
2030
0000
3001
0100
,
0020
0000
2030
0000
3002
0000
0103
0001
,
0010
0100
1000
0100
,
0010
0000
0001
0000
0100
0010
0100
0010
,
2000
0000
0000
0000
,
3002
0000
0000
0000
,
0203
0000
0000
0000
,
0320
0000
2030
0000
,
3002
0000
0000
0000
,
0203
0000
0320
0000
,
2030
0000
0000
3000
,
1001
0000
0000
0000
,
0001
0100
0010
1000
,
0100
0000
1000
0000
0010
0000
0100
0001
,
0100
0010
1000
0100
,
1000
0000
0001
0000
0100
0000
0001
0010
,
0001
0100
0010
0100
,
0001
0010
0100
1000
,
0010
0100
0001
0010
,
0002
0000
0000
0000
2000
0000
0000
3003
,
1000
0000
0010
0000
,
0100
0000
0001
0000
,
0100
0000
0001
0000
,
0020
0000
0000
0000
,
0031
0000
1000
0000
,
0010
0000
1000
0000
,
0010
0000
0100
0000
,
0002
0000
0000
0000
,
0103
0000
0010
0000
,
1000
0000
0100
0000
,
0010
0000
0001
0000
,
0200
0000
0000
0000
,
0310
0000
1000
0000
,
0100
0000
1000
0000
,
0020
0000
0000
0000
,
0130
0000
0100
0000
,
1001
0000
0001
0000
,
1000
0000
0010
0000
,
0100
0000
0001
0000
,
0020
0000
0000
0000
,
0130
0000
1000
0000
,
0100
0000
0010
0000
,
0001
0000
0100
0000
,
0010
0000
1000
0000
,
0010
0000
0100
0000
,
0001
0000
1000
0000
,
0100
0000
1000
0000
,
0010
0000
0100
0000
,
0002
0000
0103
0000
,
0020
0000
1030
0000
,
0200
0000
0310
0000
,
0002
0000
0103
0000
,
0010
0000
1000
0000
,
0100
0000
1000
0000
,
0001
0000
0100
0000
,
0010
0000
1000
0002
,
1003
0000
0110
0000
,
1001
0000
0110
0000
,
2002
0000
0000
3003
,
0220
0000
0000
0330
,
1000
0000
0001
0100
,
0001
1000
0010
0000
,
0100
0001
0100
0000
,
0010
0000
1000
0000
,
0100
1000
0010
0000
,
0100
0000
0001
0000
,
0010
0001
0100
0000
,
0010
1000
0010
0100
,
0010
0100
1001
0000
,
0110
0000
1000
0100
,
0010
0000
0001
0100
,
0010
0000
1000
0010
,
0100
0000
0001
0100
,
0010
0000
1000
0100
,
0020
0000
0000
0000
,
0000
0000
0000
0000
,
0032
0000
0000
0000
,
0003
0000
0000
0000
;

//---------------dance-single - ----------------
#NOTES:
     dance-single:
     :
     Beginner:
     6:
     0.245301,0.762227,0.083761,0.217779,0.000000,205.000000,195.000000,10.000000,26.000000,0.000000,0.000000,0.245301,0.762227,0.083761,0.217779,0.000000,205.000000,195.000000,10.000000,26.000000,0.000000,0.000000:
// measure 0
0000
0000
0000
0000
,  // measure 1
0000
0000
0000
0000
,  // measure 2
0000
0000
0000
0000
,  // measure 3
0000
0000
0000
0000
,  // measure 4
0000
0000
0000
0000
,  // measure 5
0000
0000
0000
0000
,  // measure 6
0000
0000
0000
0000
,  // measure 7
0000
0000
0000
0000
,  // measure 8
0000
0000
0000
0000
,  // measure 9
0001
0000
0000
0000
,  // measure 10
1000
0000
0000
0000
,  // measure 11
0010
0000
0000
0000
,  // measure 12
0100
0000
0000
0000
,  // measure 13
0001
0000
0000
0000
,  // measure 14
0010
0000
0000
0000
,  // measure 15
0100
0000
0000
0000
,  // measure 16
1000
0000
0000
0000
,  // measure 17
0001
0000
1000
0000
,  // measure 18
0001
0000
1000
0000
,  // measure 19
0010
0000
0100
0000
,  // measure 20
0020
0000
0000
0000
,  // measure 21
1030
0000
0000
0000
,  // measure 22
0001
0000
0000
0000
,  // measure 23
0100
0000
0000
0000
,  // measure 24
0010
0000
0000
0000
,  // measure 25
1000
0000
0000
0000
,  // measure 26
0001
0000
0000
0000
,  // measure 27
1000
0000
0100
0000
,  // measure 28
0010
0000
0001
0000
,  // measure 29
0110
0000
0000
0000
,  // measure 30
1001
0000
0000
0000
,  // measure 31
0001
0000
0000
0000
,  // measure 32
1000
0000
0000
0000
,  // measure 33
0010
0000
0000
0000
,  // measure 34
0100
0000
0000
0000
,  // measure 35
0001
0000
0010
0000
,  // measure 36
0100
0000
1000
0000
,  // measure 37
0002
0000
1003
0000
,  // measure 38
0001
0000
0000
0000
,  // measure 39
1000
0000
0000
0000
,  // measure 40
0001
0000
0000
0000
,  // measure 41
0100
0000
0000
0000
,  // measure 42
0010
0000
0000
0000
,  // measure 43
0100
0000
0001
0000
,  // measure 44
1000
0000
0010
0000
,  // measure 45
0110
0000
0000
0000
,  // measure 46
1000
0000
0000
0000
,  // measure 47
0001
0000
0000
0000
,  // measure 48
0100
0000
0000
0000
,  // measure 49
0010
0000
1000
0000
,  // measure 50
0001
0000
0100
0000
,  // measure 51
0001
0000
0010
0000
,  // measure 52
0100
0000
1000
0000
,  // measure 53
0001
0100
0010
0000
1000
0000
0001
0000
,  // measure 54
0100
0001
0010
0000
0100
0000
1000
0000
,  // measure 55
0010
0100
0001
0000
1000
0010
0100
0000
,  // measure 56
0001
0010
0100
1000
0100
0010
0001
0000
,  // measure 57
2000
0000
0000
0000
,  // measure 58
3002
0000
0000
0000
,  // measure 59
0203
0000
0000
0000
,  // measure 60
0320
0000
0000
0000
,  // measure 61
2030
0000
0000
0000
,  // measure 62
3020
0000
0000
0000
,  // measure 63
0230
0000
0000
0000
,  // measure 64
0301
0000
0000
0000
,  // measure 65
1000
0000
0100
0000
,  // measure 66
1000
0000
0010
0000
,  // measure 67
0100
0000
0001
0000
,  // measure 68
0100
0000
0010
0000
,  // measure 69
1000
0100
1000
0010
,  // measure 70
0100
0001
0010
0100
,  // measure 71
1000
0100
0010
0001
,  // measure 72
0200
0000
0000
0000
,  // measure 73
0301
0000
0000
0000
,  // measure 74
1000
0000
0000
0000
,  // measure 75
0010
0000
0000
0000
,  // measure 76
0100
0000
0000
0000
,  // measure 77
0001
0000
0010
0000
,  // measure 78
0100
0000
1000
0000
,  // measure 79
0100
0000
0010
0000
,  // measure 80
0001
0000
0100
0000
,  // measure 81
0010
0000
0000
0000
,  // measure 82
1000
0000
0000
0000
,  // measure 83
0001
0000
0000
0000
,  // measure 84
0100
0000
0000
0000
,  // measure 85
0010
0000
1000
0000
,  // measure 86
0100
0000
1000
0000
,  // measure 87
0001
0000
0100
0000
,  // measure 88
0010
0000
1000
0000
,  // measure 89
0001
0000
0000
0000
,  // measure 90
0100
0000
0000
0000
,  // measure 91
0010
0000
0000
0000
,  // measure 92
0100
0000
0000
0000
,  // measure 93
0001
0000
0010
0000
,  // measure 94
0100
0000
1000
0000
,  // measure 95
0001
0000
0100
0000
,  // measure 96
0010
0000
1000
0000
,  // measure 97
0010
0000
0000
0000
,  // measure 98
1000
0000
0000
0000
,  // measure 99
0100
0000
0000
0000
,  // measure 100
1000
0000
0000
0000
,  // measure 101
0010
0000
1000
0000
,  // measure 102
0100
0000
1000
0000
,  // measure 103
0010
0000
0100
0000
,  // measure 104
0001
0000
0010
0000
,  // measure 105
0002
0000
0000
0000
,  // measure 106
2003
0000
0000
0000
,  // measure 107
3020
0000
0000
0000
,  // measure 108
0230
0000
0000
0300
,  // measure 109
2002
3003
0220
0330
,  // measure 110
2002
3003
0220
0330
,  // measure 111
2002
0000
0000
0000
,  // measure 112
3003
0000
0000
0000
,  // measure 113
1000
0000
0010
0000
,  // measure 114
0100
0000
0001
0000
,  // measure 115
0010
0000
0001
0000
,  // measure 116
0100
0000
0010
0000
,  // measure 117
1000
0000
0100
0000
,  // measure 118
1000
0000
0010
0000
,  // measure 119
0100
0000
0001
0000
,  // measure 120
0100
0000
0010
0000
,  // measure 121
1001
0000
0000
0000
,  // measure 122
0110
0000
0000
0000
,  // measure 123
1000
0000
0100
0000
,  // measure 124
1000
0000
0010
0000
,  // measure 125
0100
0000
0001
0000
,  // measure 126
0010
0000
0100
0000
,  // measure 127
2000
0000
0000
0000
,  // measure 128
0000
0000
0000
0000
,  // measure 129
3002
0000
0000
0000
,  // measure 130
0003
0000
0000
0000
;
