#TITLE:Gods & Machines;
#SUBTITLE:;
#ARTIST:Bury Tomorrow;
#TITLETRANSLIT:;
#SUBTITLETRANSLIT:;
#ARTISTTRANSLIT:;
#GENRE:;
#CREDIT:;
#BANNER:;
#BACKGROUND:cannibal.jpg;
#LYRICSPATH:;
#CDTITLE:;
#MUSIC:G&M.ogg;
#OFFSET:0.000000;
#SAMPLESTART:15.200000;
#SAMPLELENGTH:12.000000;
#SELECTABLE:YES;
#BPMS:0.000000=150.000000
;
#STOPS:64.000000=1.200000,
229.000000=1.200000
;
#BGCHANGES:;
#KEYSOUNDS:;
#ATTACKS:;

//---------------dance-single - ----------------
#NOTES:
     dance-single:
     :
     Challenge:
     15:
     0.766366,0.765086,0.186664,0.211012,1.444618,661.000000,638.000000,23.000000,26.000000,0.000000,0.000000,0.766366,0.765086,0.186664,0.211012,1.444618,661.000000,638.000000,23.000000,26.000000,0.000000,0.000000:
0000
0000
0000
0000
,
0001
0000
0000
0100
0000
0010
1000
0000
0100
1000
0100
0001
,
0100
0000
0000
1000
0000
0010
0100
0000
0001
0100
0001
0010
,
0001
0000
0000
1000
0000
0010
0100
0000
0001
0010
0100
0010
,
0001
0000
0000
1000
0000
0010
1000
0000
0010
0100
0001
0100
,
1000
0000
0010
0100
0000
0001
0010
0000
0100
1000
0000
0010
,
1000
0000
1000
0000
1000
0000
0001
0100
1000
0100
0001
0100
,
1001
0000
1000
0200
0000
0310
0001
0000
0000
0010
0000
0000
,
0100
0010
0100
0000
0010
0000
0001
0100
0001
0000
0100
0000
0010
1000
0010
0000
1000
0000
0010
0000
0100
0000
0001
0000
,
1000
0000
1000
0001
0000
0001
0010
0000
0010
1000
0000
1000
,
0010
0000
0010
0100
0010
1000
0010
0000
1000
0001
0000
0010
,
1000
0000
0001
0010
0000
0001
0100
0000
0010
1000
0100
1000
,
0100
0000
0010
0001
0100
0001
0100
0000
1000
0100
0000
0000
,
1000
0000
1000
0100
0000
0100
0010
0000
0010
0001
0000
0001
,
1000
0000
0100
0001
0000
0100
1000
0010
0100
0001
1000
0100
,
0010
0000
0010
1000
0000
0010
0100
0001
0100
1000
0100
0001
,
2002
0000
3003
0110
0000
1000
0100
0010
0001
0100
0000
0001
,
0100
0010
1000
0010
0000
0100
0010
0000
1000
0001
0000
1000
,
0001
0100
1000
0002
0000
0013
1000
0000
0100
0010
0001
0100
,
0001
1000
0010
1000
0000
0001
0100
0000
0010
1000
0000
0100
,
0010
0001
1000
0010
0000
0000
1000
0100
0010
0100
0000
1000
,
0000
1000
0010
0001
0000
0010
1000
0100
0010
0001
0000
1000
,
0001
0100
0010
1000
0100
0010
0001
0010
0100
1000
0001
0100
,
0010
0001
0100
1000
0010
0100
0001
0010
0100
1000
0000
0001
,
1000
0100
0010
0011
0000
0001
1000
0100
1000
0010
0000
0200
,
0310
0000
2000
3100
0000
0010
0001
0100
0010
1000
0000
0100
,
0000
0011
0000
1001
0000
0001
1000
0100
1000
0010
0000
0100
,
0000
0100
0001
1000
0000
0010
1000
0100
1000
0010
0100
0001
,
0010
1000
0010
0001
0000
0000
1000
0010
1000
0010
0100
0002
,
0000
0003
0001
1000
0100
1000
0000
0010
0100
0001
1000
0100
,
1000
0010
0100
0001
0000
1000
0100
0000
0010
0002
0000
0100
,
0000
1003
0000
1001
0000
1010
0000
0110
0000
1001
0000
0001
,
1000
0100
1000
0010
0010
0010
1000
0100
1000
0100
0010
0001
,
1000
1000
1000
0020
0000
0000
1030
0100
0001
2000
0000
0000
,
0000
0000
0000
3002
0000
0000
0103
0010
0100
0001
0000
0000
,
1100
0000
0000
0011
0000
0000
0001
0100
0010
0100
0001
0010
,
1000
0010
0001
1000
0000
0000
0010
1000
0100
0011
0000
0000
,
1000
0000
0000
1001
0000
0000
0010
0000
0100
0001
1000
0100
,
0001
1000
0010
0001
0000
0000
0001
0100
0010
1000
0000
0000
,
0100
0000
0000
0011
0000
0000
1000
0000
0010
0100
0001
0010
,
0001
0100
1000
0100
0000
0000
0001
0001
0001
0010
0000
0000
,
0100
0000
0000
0000
0000
0000
2000
0000
0000
0000
0000
0000
0000
0000
0000
0000
3001
1000
0001
0000
0100
0000
0010
0000
,
1000
0100
1000
0001
0000
0000
1000
0010
0100
0001
0000
0000
,
0010
0000
0000
1010
0000
0000
0001
0100
0010
1000
0000
0000
,
0001
0010
0100
1000
0000
0000
0001
0100
1000
0001
0000
0000
,
0010
0000
0000
0100
0000
0000
0001
0000
0000
1000
0100
1000
,
0010
0100
0001
0010
0100
1000
0010
0000
1000
1000
0000
0000
,
0001
0100
0010
0001
1000
0100
0001
0010
0001
2000
0000
0000
,
3020
0230
0000
0302
,
0000
0000
0000
0000
1003
0001
1000
0000
0010
0000
0100
0000
0001
0000
1000
0000
0100
0000
1000
0000
0001
0000
0010
0000
,
0100
1000
0001
1000
0000
1000
0001
0000
0001
0010
0000
0010
,
1000
0000
1000
0010
0000
0010
0100
0010
1000
0010
0000
1000
,
0001
0000
0010
1000
0000
0001
0010
0000
0001
0100
0000
0010
,
1000
0100
1000
0100
0000
0010
0001
0100
0001
0100
0000
1000
,
0100
0000
0000
1000
0000
1000
0100
0000
0100
0010
0000
0010
,
0001
0000
0001
1000
0000
0100
0001
0000
0100
1000
0010
0100
,
0001
1000
0100
0010
0000
0010
1000
0000
0010
0001
0001
0100
,
1000
0100
0001
2002
0000
3003
1001
0000
0000
0001
0100
0010
,
1000
0000
0000
0010
1000
0001
0010
0000
0000
1000
0001
1000
,
0001
0000
0000
0200
0000
0300
0110
0000
0000
1000
0001
0100
,
0010
0000
0000
1000
0100
0001
0100
1000
0010
0100
0001
0010
,
1000
0010
0001
0100
0010
1000
1010
0000
0000
0001
0100
0010
,
1000
0100
1000
0010
0010
0010
0100
0001
1000
0100
1000
0010
,
1000
0001
0100
1000
0100
0001
1000
0000
0000
0001
1000
0100
,
0010
0000
0000
1000
0001
1000
0001
0100
0010
1000
0100
1000
,
0010
0100
0001
1000
0100
1000
1100
0000
0001
0200
0000
0310
,
1000
0000
0000
1000
0100
0001
0100
0000
2000
3001
0000
0002
,
0103
0000
0000
0010
1000
0010
1000
0001
0100
0010
0000
0020
,
1030
0000
0000
1000
0100
0010
1000
0000
0010
0000
0001
0100
,
0010
0000
0000
1000
0001
1000
1001
0000
0000
0001
1000
0100
,
0010
0000
0000
0001
0100
0010
1000
0000
0000
0010
0000
0010
,
1000
0000
0000
1001
0000
0000
0001
0000
0100
0000
1000
0000
,
0200
0000
0301
0020
,
0230
0000
0000
0300
0000
0000
1000
0100
1000
0001
0010
0001
,
0100
0001
0100
0010
1000
0010
0100
0010
0100
0001
1000
0001
,
0010
0100
1000
0001
0100
0010
0000
0000
0000
0000
0000
0000
;

//---------------dance-single - ----------------
#NOTES:
     dance-single:
     :
     Hard:
     13:
     0.635353,0.642672,0.227243,0.162317,0.953610,548.000000,520.000000,28.000000,20.000000,0.000000,0.000000,0.635353,0.642672,0.227243,0.162317,0.953610,548.000000,520.000000,28.000000,20.000000,0.000000,0.000000:
0000
0000
0000
0000
,
0001
0000
0000
1000
0000
0000
0100
0000
0000
1000
0000
0010
,
0100
0000
0000
0001
0000
0010
0001
0000
0100
0010
0000
0000
,
1000
0000
0000
0001
0000
0100
0010
0000
1000
0100
0000
0010
,
0001
0000
0100
0001
0000
1000
0100
0000
0000
1100
0000
0000
,
0002
0203
2300
3200
,
0301
0000
1000
0000
0001
0000
1000
0000
0000
0001
1000
0001
,
1000
0000
0000
0001
0000
0010
0100
0000
1000
0010
0000
0000
,
1000
0010
1000
0010
0100
0001
0100
0001
0100
0001
0010
0100
,
1000
0000
1000
0001
0000
0001
0100
0000
0100
0010
0000
0010
,
1000
0000
0100
1000
0000
0010
0100
0000
0001
1000
0000
0000
,
0110
0000
0000
1001
0000
0000
2000
0000
0000
3100
0000
0100
,
0010
0000
0010
0001
0000
0001
0100
0000
0010
1000
0100
1000
,
0100
0000
0000
1000
0000
0000
0001
0000
0100
0001
0000
0010
,
0100
0000
1000
0100
1000
0100
0010
0000
0000
0011
0000
0000
,
0001
0000
1000
0010
0000
0000
0100
0000
0001
0010
0000
0100
,
2000
0000
0000
3001
0000
0000
1000
0010
0100
0001
0000
0001
,
0000
0010
0100
0010
0000
0001
0100
0000
0010
1000
0000
0000
,
0100
0000
1000
0001
0000
0000
0100
0000
0100
0010
0000
1000
,
0000
0100
0010
0100
0000
1000
0100
0000
0001
0100
0000
0000
,
1000
0010
0100
0001
0000
0000
1000
0000
0010
0100
0000
0001
,
0010
0000
0001
1000
0000
0100
1000
0000
0010
0100
0000
0001
,
1000
0100
1000
0100
0000
0000
0010
0001
0010
0001
0000
0000
,
1000
0100
0010
0001
0000
0000
1000
0010
0100
0001
0000
0000
,
2000
0000
0000
3001
0000
0000
1000
0010
1000
0100
0000
0100
,
0010
0000
0010
0001
0000
0000
0001
1000
0001
1000
0000
0010
,
0000
0010
0000
0110
0000
0000
1000
0010
0100
0010
0000
1000
,
0001
0000
0010
0001
0000
0100
0010
0000
1000
0100
0000
0010
,
0001
0010
0100
1000
0000
0000
0001
0100
0001
0100
0000
0010
,
1000
0000
0010
0100
0000
0001
0010
0000
0001
0100
0000
0100
,
1000
0000
0100
0001
0000
1001
0000
1100
0000
0100
0000
0110
,
0000
0011
0000
0001
0000
0101
0000
0110
0000
0010
0000
1010
,
0000
1100
0000
2000
0000
0000
3001
1000
0001
1000
0000
0000
,
0010
0100
0010
0100
0000
0000
1000
0100
0010
0001
0010
0100
,
1000
0010
0001
1000
0000
0000
0100
0001
1000
0100
0000
0000
,
0010
0000
0000
0001
0000
0000
1000
0000
0100
1000
0000
0010
,
0100
0000
0001
0010
0000
0000
0100
1000
0010
0100
0000
0000
,
0002
0000
0000
0103
0000
0000
0000
0000
0001
0010
1000
0010
,
0001
0100
0010
0100
0000
0000
0001
1000
0001
1000
0000
0000
,
0200
0000
0000
1300
0000
0000
0000
0001
0010
0001
0100
0010
,
1000
0100
1000
0100
0000
0000
0001
0100
1000
0100
0000
0000
,
0002
0000
0000
0013
0000
0000
0000
0100
1000
0100
1000
0001
,
0010
0001
0010
0100
0000
0000
0010
0001
1000
0100
0000
0000
,
2000
0000
0000
3010
0000
0000
0100
0000
0000
0001
0100
0001
,
1000
0010
1000
0001
0000
0000
1000
0000
1000
0100
0000
0000
,
0200
0000
0000
0310
0000
0000
0001
0000
1000
0100
0000
1000
,
0010
0000
0100
0002
0000
0000
0013
0000
0100
1000
0000
0000
,
0110
0000
0000
1001
0000
0000
0000
1000
0010
1000
0001
0100
,
0001
0010
0100
1000
0000
0000
0002
0000
0000
0103
0000
0000
,
0020
0000
0000
1030
0100
1000
0100
0000
0000
0010
0001
0010
,
0001
0000
0000
1000
0000
1000
0001
0000
0001
0100
0000
0100
,
0010
0000
0010
1000
0000
0100
1000
0000
0010
0100
0000
0001
,
1000
0110
1001
2000
,
3100
0000
0100
0010
0000
0010
0001
0000
0001
0100
0000
0010
,
1000
0100
1000
0100
0000
0000
1000
0000
0000
0001
0000
0100
,
0001
0000
0010
0100
0000
1000
0100
1000
0100
0010
0000
0000
,
0011
0000
0000
0001
0000
1000
0010
0000
0000
0100
0000
0001
,
0010
0000
0100
2000
0000
0000
3010
0000
0000
1000
0000
1000
,
0100
0000
0000
0010
0000
0010
0001
0000
0000
1000
0001
1000
,
0001
0000
0000
0200
0000
0000
0310
0000
0000
1000
0000
0100
,
1000
0000
0000
0010
0000
0100
0010
0000
1000
0100
0000
0001
,
0100
0000
1000
0010
0000
0001
0010
0000
0000
1000
0100
1000
,
0100
0000
0000
0010
0001
0010
0001
0000
0000
1000
0001
1000
,
0001
0000
0000
0110
0000
0000
0002
0000
0000
1003
0000
1000
,
0100
0000
0100
0010
0000
0010
0001
0000
1000
0100
0000
1000
,
0010
0100
0001
0010
0001
0010
0100
0000
1000
0100
0000
1000
,
0001
0000
0010
0100
0010
0001
0100
0000
0010
1000
0000
1000
,
0100
0000
0000
1100
0000
0000
0001
0000
0001
0100
0000
0100
,
0010
0000
0000
1010
0000
0000
1000
0000
1000
0100
0000
0100
,
0010
0000
0000
0011
0000
0000
0001
0000
0000
1000
0000
1000
,
0100
0000
0000
0011
0000
0000
0110
0000
0000
1000
0000
1000
,
0001
0000
0000
0100
0010
0100
0010
0000
0000
1000
0000
1000
,
0100
0000
0011
1100
,
0110
0000
0000
1001
0000
0000
0001
0000
0001
0100
0000
0100
,
0010
0000
0010
1000
0000
1000
0100
0000
0100
0010
0000
0010
,
0001
0000
0001
1000
0000
0001
0000
0000
0000
0000
0000
0000
;

//---------------dance-single - ----------------
#NOTES:
     dance-single:
     :
     Medium:
     10:
     0.529848,0.551471,0.186664,0.113622,0.608687,457.000000,434.000000,23.000000,14.000000,0.000000,0.000000,0.529848,0.551471,0.186664,0.113622,0.608687,457.000000,434.000000,23.000000,14.000000,0.000000,0.000000:
0000
0000
0000
0000
,
0001
0000
0000
1000
0000
0001
0010
0000
0000
0001
0000
0100
,
0010
0000
0000
1000
0000
0001
0010
0000
0000
0200
0000
0000
,
0301
0000
0000
1000
0000
0010
0100
0000
0000
0001
0000
1000
,
0010
0000
0000
0100
0000
0001
0010
0000
0000
0200
0000
0000
,
1300
0000
0000
0001
0000
0000
1000
0000
1000
0001
0000
0000
,
0001
0000
0001
0100
0000
0000
0010
0000
0010
1000
0000
0000
,
0100
0010
0001
0010
,
0100
0000
1000
0100
0000
0010
0001
0000
0001
1000
0100
0010
,
0100
0000
0000
0010
0000
0001
1000
0000
0000
0010
0000
0000
,
0100
0000
0000
0100
0000
0010
1000
0000
0000
0002
0000
0000
,
0103
0000
0000
0101
0000
0000
0010
0000
0000
1000
0000
1000
,
0100
0000
0000
0100
0000
0100
0010
0000
0000
0011
0000
0000
,
1000
0000
0000
0100
0000
0010
0100
0000
0001
0010
0000
0100
,
1000
0000
0010
0100
0000
0001
0010
0000
0000
1100
0000
0000
,
0020
0130
0001
1000
,
1001
0000
0000
0001
0000
0000
1000
0000
0100
1000
0000
0000
,
0001
0000
0100
0001
0000
0000
1000
0000
0010
0100
0000
0000
,
0001
0010
0100
1000
0000
0000
0001
0000
0001
0100
0000
0000
,
0100
0000
0100
1000
0000
0000
1000
0000
1000
0100
0000
0000
,
0100
0000
0100
0001
0000
0000
1000
0100
1000
0100
0000
0000
,
0011
0000
0000
1000
0000
1000
0100
0000
0100
0010
0000
0000
,
0011
0000
0000
0001
0000
1000
0000
0010
0000
0100
0000
0001
,
0000
0010
0000
0100
0000
1000
0000
0100
0000
0010
0000
0000
,
0001
1000
0001
1000
0000
0000
0010
0000
0000
1000
0000
0100
,
1000
0000
0001
0010
0000
0000
0100
0000
1000
0100
0000
0010
,
0000
0001
0000
0101
0000
0000
0001
0000
1000
0001
0000
0100
,
0010
0000
1000
0100
0000
0000
1000
0000
0000
0001
0000
0000
,
0100
0010
0100
0010
0000
0000
1000
0000
1000
0100
0000
0000
,
1000
0000
0010
0100
0000
0001
0010
0000
1000
0010
0000
0000
,
0001
0000
0000
1000
0000
1000
0100
0000
0100
0010
0000
0010
,
0001
0000
0001
0100
0000
0010
1000
0000
0001
0100
0000
0000
,
0020
1030
0001
0100
,
0010
1000
0010
1000
0000
0000
0001
0100
0001
0100
0000
0000
,
0110
0000
2002
3003
0001
0000
1000
0000
,
0100
0000
0000
0010
0000
0000
0001
0000
0000
1000
0100
1000
,
0100
0010
0001
0100
0000
0000
0010
0000
0010
1000
0000
0000
,
0100
0000
0100
1000
0000
0000
0001
0000
0000
0010
0000
0001
,
0100
0000
0010
1000
0000
0000
2000
0000
0000
3010
0000
0000
,
0100
0000
0000
0001
0000
0000
1000
0000
0000
0001
1000
0001
,
1000
0001
1000
0001
0000
0000
0100
0000
0100
0010
0000
0000
,
0010
0000
0010
1000
0000
0000
0000
0000
0001
0010
0100
1000
,
0100
0010
0001
1000
0000
0000
0010
0000
0100
0010
0000
0000
,
1100
0000
0000
0011
0000
0000
1000
0000
0000
0100
0000
0100
,
0010
0000
0010
0001
0000
0000
1000
0010
0100
0001
0000
0000
,
1010
0000
0000
0101
0000
0000
0001
0000
0000
1000
0100
1000
,
0001
0010
0001
0100
0000
0000
0100
0000
0010
1000
0000
0000
,
0100
0000
0000
1100
0000
0000
0001
0000
1000
0100
0000
0010
,
0001
0000
0100
0020
0000
0000
1030
0000
0000
0002
0000
0000
,
0103
0000
0000
0001
1000
0001
1000
0000
0000
0100
0010
0100
,
0010
0000
0000
0100
0000
0000
0010
0000
0001
1000
0000
0000
,
0010
0000
0000
0100
0000
0000
0100
0000
0010
1000
0000
0000
,
0002
0103
0101
0010
,
1000
0000
1000
0100
0000
0000
0100
0000
0100
0010
0000
0000
,
0011
0000
0000
1000
0000
0000
0100
0000
0010
0100
0000
0001
,
0010
0000
0100
1000
0000
0010
0100
0000
0001
0010
0000
0000
,
1100
0020
0130
0001
,
1000
0000
0000
1001
0000
0000
0001
0000
0000
1000
0000
1000
,
0100
0000
0000
0010
0000
0010
0100
0000
0000
1000
0000
1000
,
0001
0000
0000
1000
0001
1000
0001
0000
0000
0010
0000
0010
,
0001
0000
0000
1000
0000
1000
0100
0000
0000
0001
1000
0001
,
1000
0000
0000
0010
0100
0010
0100
0000
0000
1000
0000
1000
,
0010
0000
0000
0100
0000
0100
0001
0000
0000
0010
0000
0100
,
1000
0000
0000
0001
1000
0001
1000
0000
0000
0010
0000
0010
,
0100
0000
0000
0001
0000
0000
1000
0000
1000
0100
0000
0000
,
0100
0000
0100
0010
0000
0000
0001
0000
1000
0010
0000
0100
,
0001
0000
0000
0101
0000
0000
0000
0000
0001
0010
0000
0100
,
1000
0000
0000
1010
0000
0000
0000
0000
0000
0100
0000
0001
,
0100
0000
0000
0010
0000
0000
1000
0000
0100
0000
0010
0000
,
0001
0000
0000
0110
0000
0000
0001
0000
0000
1000
0010
1000
,
0010
0000
0000
0100
0000
0000
0001
0000
0000
1000
0000
1000
,
0100
0000
0000
0011
0000
0000
1100
0000
1000
0100
0000
0100
,
0010
0000
0010
0001
0000
0001
1000
0000
0100
0010
0000
0001
,
0010
0000
0100
1000
0000
0010
0200
0000
0000
0000
0000
0000
,
0000
0000
0302
0000
,
0000
0000
0003
0000
;

//---------------dance-single - ----------------
#NOTES:
     dance-single:
     :
     Easy:
     8:
     0.342024,0.428922,0.032463,0.162317,0.089274,295.000000,291.000000,4.000000,20.000000,0.000000,0.000000,0.342024,0.428922,0.032463,0.162317,0.089274,295.000000,291.000000,4.000000,20.000000,0.000000,0.000000:
0000
0000
0000
0000
,
1000
0100
1000
0010
,
0100
0001
0010
0001
,
1000
0100
0001
0100
,
1000
0010
0100
0001
,
0010
0001
1000
0010
,
0001
0010
1000
0100
,
0010
0100
1000
0001
,
1000
0000
1000
0100
0000
0100
0010
0000
0010
0001
0000
0000
,
1000
0010
0100
0010
,
1000
0001
0010
0001
,
1000
0010
0100
0001
,
1000
0100
0010
0001
,
1000
0100
1000
0010
,
0100
0010
1000
0001
,
1000
0001
0010
0100
,
2000
3010
0100
0001
,
1000
0000
0000
0100
0000
0000
1000
0000
0000
0010
0000
0010
,
1000
0001
0100
0010
,
1000
0100
1000
0010
,
0100
0000
0100
0001
0000
0000
1000
0000
0000
0010
0000
0000
,
0100
0000
0100
0001
0000
0000
0001
0000
0001
0100
0000
0000
,
0010
1000
0100
1000
,
0010
0100
0001
0010
,
0001
1000
0010
0100
,
0010
1000
0100
0010
,
0001
1000
0001
0100
,
0010
1000
0100
0010
,
0001
0000
0000
1001
0000
0000
0001
0000
0001
0100
0000
0000
,
0010
0000
0010
1000
0000
0000
0100
0000
0000
1000
0000
0000
,
0010
0100
0001
0010
,
0001
0100
0010
1000
,
0100
2000
0000
0000
,
0000
3002
0000
0000
,
0000
1003
0100
1000
,
0010
0200
0000
0301
,
0010
0100
1000
0100
,
0010
0002
0000
0103
,
0010
1000
0100
1000
,
0010
0200
0000
0301
,
0010
0001
0100
0010
,
1000
0000
0000
0200
0000
0000
0000
0000
0000
1300
0001
1000
,
0001
1000
0100
0010
,
0001
2000
0000
3010
,
0100
0001
0010
0001
,
0100
0020
0000
1030
,
0100
1000
0010
0200
,
0000
0302
0000
1003
,
0100
2000
0000
3020
,
0000
0230
0000
0000
,
0000
1300
0100
1000
,
0010
0100
0001
0010
,
0001
1000
0010
0001
,
0010
1000
0100
0001
,
0100
1000
0010
0100
,
0001
0010
0001
0100
,
0010
1000
0100
1000
,
0010
0200
0301
0000
,
1001
1000
0100
1000
,
0010
0100
0002
0003
,
0101
0100
0010
1000
,
0100
1000
0010
0100
,
0001
2000
3010
0000
,
0101
0001
1000
0100
,
1000
0000
0000
0010
0000
0000
1000
0000
0010
1000
0000
0100
,
1000
0000
0001
1000
0000
0010
0100
0000
0000
0001
0000
0000
,
1000
0100
1000
0010
,
0100
0001
0010
0001
,
0100
0000
0000
0010
0000
1000
0100
0000
0000
1000
0000
0000
,
0010
0000
0000
0100
0000
0001
0010
0000
0000
0100
0000
0000
,
1000
0100
0010
0001
,
0100
0000
0000
0010
0000
1000
0100
0000
0000
1000
0000
0010
,
0100
0000
0000
0001
0000
0010
0001
0000
0100
0010
0000
1000
,
0200
0000
2300
0000
,
0000
0000
3002
0000
,
0000
0000
0003
0000
;

//---------------dance-single - ----------------
#NOTES:
     dance-single:
     :
     Beginner:
     6:
     0.265504,0.337010,0.089274,0.137969,0.000000,229.000000,218.000000,11.000000,17.000000,0.000000,0.000000,0.265504,0.337010,0.089274,0.137969,0.000000,229.000000,218.000000,11.000000,17.000000,0.000000,0.000000:
// measure 0
0000
0000
0000
0000
,  // measure 1
0000
0000
0000
0000
,  // measure 2
0000
0000
0000
0000
,  // measure 3
0000
0000
0000
0000
,  // measure 4
0000
0000
0000
0000
,  // measure 5
1000
0100
1000
0010
,  // measure 6
0100
0001
2000
0000
,  // measure 7
3001
0100
0010
1000
,  // measure 8
0002
0000
2003
0000
,  // measure 9
3010
0010
0100
0100
,  // measure 10
0001
0001
2000
0000
,  // measure 11
3001
0010
0100
1000
,  // measure 12
0100
0010
0002
0000
,  // measure 13
1003
0100
0010
0001
,  // measure 14
0010
0100
2000
0000
,  // measure 15
3001
0100
0010
1000
,  // measure 16
0002
1003
1000
1000
,  // measure 17
0000
0010
0010
0010
,  // measure 18
0000
0100
0100
0100
,  // measure 19
0000
0001
0001
0001
,  // measure 20
0000
1000
0100
0010
,  // measure 21
0001
0010
0100
2000
,  // measure 22
0000
3001
0100
0010
,  // measure 23
1000
0100
1000
0010
,  // measure 24
0000
1010
0000
1000
,  // measure 25
0000
1100
0000
0100
,  // measure 26
0000
0110
0000
0010
,  // measure 27
0000
0011
0000
0001
,  // measure 28
0000
1000
0100
1000
,  // measure 29
0100
0010
0001
0010
,  // measure 30
0001
1000
0100
0010
,  // measure 31
0001
1000
0010
0100
,  // measure 32
0001
0200
0000
0000
,  // measure 33
0000
0320
0000
0000
,  // measure 34
0000
1030
0000
0001
,  // measure 35
0000
1000
0000
0001
,  // measure 36
0000
0100
0000
0010
,  // measure 37
0000
0100
0000
0010
,  // measure 38
0000
1000
0000
0100
,  // measure 39
0000
0010
0000
0001
,  // measure 40
0000
1000
0000
0010
,  // measure 41
0000
0100
0000
0001
,  // measure 42
1000
0100
1000
0010
,  // measure 43
0100
0010
1000
0001
,  // measure 44
1000
0001
0100
0001
,  // measure 45
0010
0100
0010
0001
,  // measure 46
0100
0001
0010
0100
,  // measure 47
1000
0020
0000
1030
,  // measure 48
0100
2000
0000
3002
,  // measure 49
0000
0203
0000
0320
,  // measure 50
0000
0130
0001
0100
,  // measure 51
0001
1000
0010
1000
,  // measure 52
0010
1000
0100
1000
,  // measure 53
0100
0010
0001
0010
,  // measure 54
0001
0100
0001
0100
,  // measure 55
0001
0010
0100
0010
,  // measure 56
0100
1000
0010
0100
,  // measure 57
0001
1001
0110
0000
,  // measure 58
0010
0000
1010
0000
,  // measure 59
1000
0000
1001
0000
,  // measure 60
0001
0000
0100
0010
,  // measure 61
1000
0001
1001
0000
,  // measure 62
0001
0000
0101
0000
,  // measure 63
0100
0000
0110
0000
,  // measure 64
0010
0000
1000
0100
,  // measure 65
1000
0100
1000
0010
,  // measure 66
0100
0001
1000
0100
,  // measure 67
0010
0001
0100
0001
,  // measure 68
0100
0001
1000
0010
,  // measure 69
1000
0010
0100
0010
,  // measure 70
0100
0010
1000
0001
,  // measure 71
1000
0001
0010
0100
,  // measure 72
1000
0001
0010
0001
,  // measure 73
0100
0010
2000
0000
,  // measure 74
0000
0000
3002
0000
,  // measure 75
0000
0000
0003
0000
;
