#TITLE:GRiDGALAXY;
#SUBTITLE:;
#ARTIST:aran;
#TITLETRANSLIT:;
#SUBTITLETRANSLIT:;
#ARTISTTRANSLIT:;
#GENRE:;
#CREDIT:;
#BANNER:GRiD.png;
#BACKGROUND:gg.jpg;
#LYRICSPATH:;
#CDTITLE:;
#MUSIC:GRiDGALAXY.ogg;
#OFFSET:0.000000;
#SAMPLESTART:23.448000;
#SAMPLELENGTH:12.000000;
#SELECTABLE:YES;
#BPMS:0.000000=174.000000
;
#STOPS:
;
#BGCHANGES:;
#KEYSOUNDS:;
#ATTACKS:;

//---------------dance-single - ----------------
#NOTES:
     dance-single:
     :
     Hard:
     11:
     0.588358,0.638089,0.541699,0.135425,0.000000,517.000000,449.000000,68.000000,17.000000,0.000000,0.000000,0.588358,0.638089,0.541699,0.135425,0.000000,517.000000,449.000000,68.000000,17.000000,0.000000,0.000000:
0000
0000
0000
0000
,
0000
0000
0000
0000
,
0000
0000
0000
0000
,
0000
0000
0000
0000
,
0000
0000
0000
0000
,
1001
0000
1000
0100
0000
0000
0011
0000
,
0110
0000
0001
0100
0000
0000
1010
0000
,
0101
0000
0010
0001
0000
0010
0001
0000
,
0110
0000
1000
0100
0000
1000
0100
0000
,
0110
0000
1000
0100
0010
0001
0010
0000
,
1001
0000
0001
0010
0100
1000
0100
0000
,
0110
0000
1000
0100
0001
0100
1000
0000
,
0110
0000
0001
0100
1000
0100
0001
0000
,
1000
0100
0010
0001
0010
0001
0100
0010
,
1000
0010
0001
0010
0100
0001
0010
0001
,
1000
0100
0010
0100
1000
0010
0100
0001
,
1001
1001
1001
1001
,
1000
0001
0100
0000
0101
0000
0000
0001
,
0100
1000
0001
0010
1000
0000
0000
0100
,
0010
0001
1000
0100
0001
0000
1001
0000
,
0110
0000
1000
0010
0002
0000
0013
0000
,
1001
0000
0110
0000
1001
0000
0000
1000
,
0010
0001
1000
0100
0001
0000
1000
0001
,
0100
1000
0001
0100
1000
0000
0110
0000
,
1001
0000
0001
0100
2000
0000
3100
0000
,
0011
0000
1100
0000
0110
0000
0000
0001
,
0100
1000
0001
0010
1000
0000
0001
1000
,
0100
0001
1000
0010
0001
0000
0110
0000
,
1001
0000
0010
0100
0001
0000
1001
0000
,
1000
0010
0100
0001
1000
0010
1000
0000
,
0001
0100
0010
1000
0100
0010
0001
0000
,
1000
0000
0001
0100
0000
0010
1000
0100
,
0000
1000
0010
0100
0001
0010
1000
0010
,
0002
0000
2003
0000
,
3020
0000
0230
0000
,
0302
0000
0023
0000
,
2030
0000
3020
0000
,
0031
0100
0010
1000
,
0001
0000
0100
0010
0000
1000
0100
0000
,
1000
0001
0100
0010
,
1000
0100
0010
0001
,
1000
0000
0010
0200
0000
0001
0000
1000
,
0000
0301
1000
0000
0011
0000
1100
0000
,
0001
0000
0000
0020
0000
1000
0000
0001
,
0000
1030
0010
0000
0001
0000
0100
0000
,
1010
0000
1000
0100
0010
0000
0001
0000
,
0101
0000
0001
0010
0100
0000
1000
0000
,
0010
1000
0100
1000
0010
0100
0001
0010
,
0100
0010
0001
0100
0010
1000
0100
1000
,
1010
0101
0110
1001
,
1010
1100
0011
0101
,
0110
1001
1010
0101
,
1010
0011
0101
1100
,
1000
0100
0001
1000
0010
0001
1000
0010
,
0100
0001
0010
0100
1000
0100
0010
0001
,
1000
0100
1000
0010
0100
0001
0100
0010
,
1000
0100
0010
0001
0010
0100
1001
0000
,
1000
0000
0010
0200
0000
0001
0000
1000
,
0000
0301
1000
0000
0011
0000
1100
0000
,
0001
0000
0000
0020
0000
1000
0000
0001
,
0000
1030
0010
0000
0001
0000
0100
0000
,
1010
0000
1000
0100
0010
0000
0001
0000
,
0101
0000
0001
0010
0100
0000
1000
0000
,
0010
1000
0100
1000
0010
0100
0001
0010
,
0100
0010
0001
0100
0010
1000
0100
1000
,
0100
1000
0100
0001
0100
0000
1100
0000
,
0010
0001
0100
1000
0100
0000
0011
0000
,
1000
0000
0010
0200
0000
0001
0000
1000
,
0000
0301
0010
0000
1100
0000
0011
0000
,
1000
0010
0100
0001
0000
0010
0100
1000
,
0000
0010
0100
0001
0010
0100
1000
0100
,
1000
0000
0010
0100
0101
0000
0001
0010
,
0110
0000
0000
1000
0100
0001
1000
0010
,
0001
0000
0100
0010
1000
0000
0100
1000
,
0000
0010
0100
0000
0001
0010
0100
0000
,
1000
0000
0001
0100
0010
0000
1000
0001
,
0000
0010
0100
0000
0001
0010
1000
0000
,
0010
0100
0000
1000
0000
0010
0000
0100
,
0001
0010
0100
1000
0000
0001
0100
1000
,
0100
0000
0001
0010
0001
0000
0100
0010
,
0100
0000
0010
1000
0100
0001
0100
1000
,
1001
0000
0010
2000
0000
0001
0000
0100
,
0000
3010
1000
0000
0101
0000
1010
0000
,
0001
0000
0010
0002
0000
0100
0000
1000
,
0000
0013
0001
0000
0110
0000
1001
0000
,
1000
0100
0010
0100
0000
1000
0000
0001
,
0000
0100
0000
0010
0000
1000
0001
0100
,
0101
0000
1010
0000
,
0110
0000
1001
0000
,
0010
0000
0000
0000
;

//---------------dance-single - ----------------
#NOTES:
     dance-single:
     :
     Medium:
     9:
     0.514386,0.602640,0.366443,0.143391,0.000000,452.000000,406.000000,46.000000,18.000000,0.000000,0.000000,0.514386,0.602640,0.366443,0.143391,0.000000,452.000000,406.000000,46.000000,18.000000,0.000000,0.000000:
0000
0000
0000
0000
,
0000
0000
0000
0000
,
0000
0000
0000
0000
,
0000
0000
0000
0000
,
0000
0000
0000
0000
,
1001
0000
0000
0110
0000
0000
1100
0000
,
0011
0000
0000
0110
0000
0000
1010
0000
,
0101
1000
0100
0010
,
0001
0010
0100
1000
,
0001
0100
0001
0000
1000
0100
1000
0000
,
0010
0100
0001
0000
1000
0010
0100
0000
,
0001
1000
0100
0000
1000
0010
0100
0000
,
0001
0010
0100
0000
0010
0001
0100
0000
,
0001
0010
0100
1000
0001
0100
0010
1000
,
0010
1000
0100
1000
0010
0100
0001
0010
,
0100
0010
0001
0100
0010
1000
0100
2000
,
0000
3010
0100
0000
0001
0000
0010
0100
,
1000
0000
0100
0000
0011
0000
0000
1000
,
0010
0000
1000
0001
0200
0000
0000
0301
,
0010
0000
0100
1000
0100
0000
1100
0000
,
0011
0000
0001
1000
0001
0000
0100
0010
,
1000
0000
0011
0000
1100
0000
0000
0001
,
0100
0000
0001
1000
0100
0000
0000
1000
,
0010
0000
0100
0001
0010
0000
1100
0000
,
0011
0000
1000
0001
1000
0000
0010
0000
,
1000
0000
0100
0000
0011
0000
0000
1000
,
0010
0000
1000
0001
0200
0000
0000
0301
,
0010
0000
0100
1000
0100
0000
1100
0000
,
0011
0000
0001
1000
0001
0000
0100
0010
,
1000
0000
0011
0000
1100
0000
0000
0001
,
0100
0000
0001
1000
0100
0000
0000
1000
,
0010
0000
0100
0001
0010
0000
1100
0000
,
0011
0000
1000
0001
1000
0000
0010
0000
,
0200
0000
0000
0000
,
0302
0000
0000
0203
,
0320
0000
0000
0000
,
2030
0000
0000
0000
0000
3020
0000
0000
,
0230
0000
0000
0301
,
2000
0000
0000
3200
0000
0000
0310
0000
,
0001
0100
0010
1000
,
0100
1000
0010
0100
,
0001
0000
1000
0010
0000
1000
0000
0010
,
0000
0100
0001
0000
0010
0000
0100
0000
,
1000
0000
0000
0001
0000
0100
0000
0010
,
0000
1000
0100
1000
,
0010
0100
0001
0010
,
0001
0100
0010
1000
,
0100
0000
1000
0010
1000
0000
0001
0100
,
0001
0000
0010
0100
0010
0000
0000
0000
,
0011
1100
0110
0000
,
1001
0110
1010
0000
,
0101
0110
1001
1100
,
0011
0110
1001
0000
,
1000
0100
0010
0001
1000
0100
0010
0001
,
1000
0010
0100
0001
1000
0010
0100
0001
,
1000
0010
0100
0010
1000
0100
0010
0100
,
1000
0001
0010
0100
1000
0010
0200
0000
,
0302
0000
0000
0103
0000
0010
0000
1000
,
0000
0010
0100
0000
0001
0000
0010
0000
,
2000
0000
0000
3010
0000
0100
0000
0001
,
0000
0010
0100
0000
1000
0000
0001
0000
,
0100
0010
0100
0000
0001
0010
0001
0000
,
1000
0100
1000
0000
0010
0100
0001
0000
,
1000
0100
0010
0000
0001
0100
0010
0000
,
1000
0100
1000
0010
0100
0001
0010
0100
,
1000
0011
1100
0001
,
0110
0101
1010
1000
,
1100
0011
0110
1001
,
1100
1010
0101
0010
,
1000
0010
1000
0000
0001
0100
0001
0000
,
0010
0100
0010
0000
0001
0100
0001
0000
,
1000
0010
1000
0000
0100
0010
0001
0010
,
0100
0000
1000
0000
0100
0000
1000
0010
,
0200
0000
0000
0301
0000
0010
0000
0100
,
0000
1000
0010
0000
0100
0000
0001
0000
,
2000
0000
0000
3010
0000
0100
0000
0001
,
0000
0010
0001
0000
0100
0000
0010
0000
,
1000
0100
1000
0000
0010
0100
0010
0000
,
0001
0100
0001
0000
0010
0100
0010
0000
,
1000
0010
1000
0000
0001
0100
0001
0000
,
0010
0100
0010
0000
0001
1000
0001
0000
,
1000
0000
0010
0100
0000
0001
0000
0010
,
0000
0100
1000
0000
0010
0000
0100
0000
,
0001
0000
0010
0100
0000
1000
0000
0100
,
0000
0010
0001
0000
0100
0000
0010
0000
,
1000
0010
1000
0010
0000
0100
0001
0100
,
0000
0010
0000
1000
0000
0010
0100
0001
,
1000
0100
1000
0000
0010
0100
0001
0000
,
0010
0100
1000
0000
0001
0200
0000
0000
,
0310
0000
0000
0000
;

//---------------dance-single - ----------------
#NOTES:
     dance-single:
     :
     Easy:
     6:
     0.314094,0.496292,0.151357,0.071695,0.000000,276.000000,257.000000,19.000000,9.000000,0.000000,0.000000,0.314094,0.496292,0.151357,0.071695,0.000000,276.000000,257.000000,19.000000,9.000000,0.000000,0.000000:
0000
0000
0000
0000
,
0000
0000
0000
0000
,
0000
0000
0000
0000
,
0000
0000
0000
0000
,
0000
0000
0000
0000
,
1000
0010
1000
0000
,
0001
0100
0001
0000
,
1000
0100
0010
0001
,
0010
0100
1000
0000
,
0010
0100
0010
0000
,
1000
0001
1000
0000
,
0001
0010
0100
1000
,
0100
0010
0001
0000
,
0100
0010
1000
0100
,
1000
0010
0100
0001
,
0010
0100
1000
0100
,
0010
0001
0100
0010
,
1100
0011
0110
0000
,
1000
0010
0100
0000
,
0001
0010
0100
1000
,
0100
1000
0010
0000
,
0110
1001
0110
0000
,
1000
0001
0100
0000
,
0001
0010
0100
1000
,
0100
0010
0001
0000
,
1000
0010
1000
0000
,
0001
0100
0010
0000
,
1000
0100
0010
0001
,
0010
0100
1000
0000
,
0001
0100
0001
0000
,
1000
0010
1000
0000
,
0100
1000
0010
0100
,
0001
0010
0100
1000
,
0020
0000
0000
0000
,
0230
0000
0000
0000
,
0302
0000
0000
0000
,
2003
0000
0000
0000
,
3020
0000
0000
0000
,
0230
0000
0000
0000
,
0320
0000
0000
0000
,
2030
0000
0000
0000
,
3010
1000
0010
0000
,
0100
0001
0100
0000
,
0001
0010
0001
0000
,
1000
0100
1000
0000
,
0010
0100
0001
0100
,
0010
0100
0001
0000
,
1000
0100
0010
0100
,
1000
0010
0100
0000
,
1100
0011
0110
0000
,
1001
0110
1001
0000
,
1010
0101
0110
0000
,
1001
1100
0011
0000
,
1000
0100
1000
0010
,
0100
0001
0010
0100
,
1000
0010
0100
0001
,
2000
0000
0000
3010
,
1000
0001
0100
0000
,
0001
0010
0100
0000
,
1000
0010
0100
0001
,
0010
0001
0100
0000
,
0010
1000
0010
0000
,
0100
0001
0100
0000
,
0010
1000
0100
1000
,
0001
0100
0010
0000
,
1000
0001
0010
0000
,
0100
0010
0100
0000
,
1000
0001
0100
0010
,
0100
0001
0010
0000
,
0001
1000
0010
0000
,
1000
0001
0100
0000
,
0010
1000
0100
1000
,
0010
0100
0001
0000
,
1000
0001
0100
0000
,
0001
0010
0100
0000
,
1000
0010
0100
0001
,
0010
0001
0100
0000
,
0010
1000
0010
0000
,
0100
0001
0100
0000
,
0010
1000
0100
1000
,
0001
0100
0010
0000
,
1000
0001
0010
0000
,
0100
0010
0100
0000
,
1000
0001
0100
0010
,
0100
0001
0010
0000
,
0001
1000
0010
0000
,
1000
0001
0100
0000
,
0010
0000
1000
0000
,
0001
0000
0100
0000
,
1001
0000
0000
0000
;

//---------------dance-single - ----------------
#NOTES:
     dance-single:
     :
     Beginner:
     4:
     0.212810,0.354494,0.135425,0.063729,0.000000,187.000000,170.000000,17.000000,8.000000,0.000000,0.000000,0.212810,0.354494,0.135425,0.063729,0.000000,187.000000,170.000000,17.000000,8.000000,0.000000,0.000000:
// measure 0
0000
0000
0000
0000
,  // measure 1
0000
0000
0000
0000
,  // measure 2
0000
0000
0000
0000
,  // measure 3
0000
0000
0000
0000
,  // measure 4
0000
0000
0000
0000
,  // measure 5
1000
0000
1000
0000
,  // measure 6
0001
0000
0001
0000
,  // measure 7
0100
0000
0100
0000
,  // measure 8
0010
0000
0010
0000
,  // measure 9
1000
0000
0001
0000
,  // measure 10
1000
0000
0001
0000
,  // measure 11
0100
0000
0010
0000
,  // measure 12
0100
0000
0010
0000
,  // measure 13
1001
0000
0110
0000
,  // measure 14
1100
0000
0011
0000
,  // measure 15
0110
0000
1001
0000
,  // measure 16
1010
0000
0000
0000
,  // measure 17
0001
0000
1000
0000
,  // measure 18
0010
0000
0100
0000
,  // measure 19
0001
0000
0010
0000
,  // measure 20
0100
0000
1000
0000
,  // measure 21
0001
0000
1000
0000
,  // measure 22
0010
0000
0100
0000
,  // measure 23
0001
0000
1000
0000
,  // measure 24
0100
0000
0010
0000
,  // measure 25
0100
0000
1000
0000
,  // measure 26
0010
0100
0010
0000
,  // measure 27
1000
0000
0001
0000
,  // measure 28
0100
0001
0100
0000
,  // measure 29
0010
0000
1000
0000
,  // measure 30
0010
1000
0010
0000
,  // measure 31
0100
0000
0001
0000
,  // measure 32
1000
0000
0010
0000
,  // measure 33
2000
0000
0000
0000
,  // measure 34
3002
0000
0000
0000
,  // measure 35
0203
0000
0000
0000
,  // measure 36
0320
0000
0000
0000
,  // measure 37
2030
0000
0000
0000
,  // measure 38
3200
0000
0000
0000
,  // measure 39
0320
0000
0000
0000
,  // measure 40
0032
0000
0000
0000
,  // measure 41
1003
0000
1000
0000
,  // measure 42
0001
0000
0001
0000
,  // measure 43
0100
0000
0100
0000
,  // measure 44
0010
0000
0010
0000
,  // measure 45
1000
0000
0100
0000
,  // measure 46
0010
0000
0001
0000
,  // measure 47
0100
0000
0010
0000
,  // measure 48
1000
0000
0001
0000
,  // measure 49
0100
0000
0001
0000
,  // measure 50
0010
0000
0100
0000
,  // measure 51
1000
0000
0100
0000
,  // measure 52
1000
0000
0010
0000
,  // measure 53
0100
0000
0001
0000
,  // measure 54
0010
0000
0100
0000
,  // measure 55
1000
0000
0001
0000
,  // measure 56
0100
0000
0001
0000
,  // measure 57
1010
0000
0101
0000
,  // measure 58
0110
0000
1001
0000
,  // measure 59
1000
0000
0100
0000
,  // measure 60
0010
0000
0001
0000
,  // measure 61
1001
0000
1010
0000
,  // measure 62
0101
0000
0110
0000
,  // measure 63
0001
0000
0100
0000
,  // measure 64
0010
0000
1000
0000
,  // measure 65
0001
0100
0001
0000
,  // measure 66
1000
0010
1000
0000
,  // measure 67
0001
0100
0010
0000
,  // measure 68
1000
0100
0010
0000
,  // measure 69
0001
0000
0001
0000
,  // measure 70
0100
0000
0100
0000
,  // measure 71
0010
0000
0010
0000
,  // measure 72
1000
0000
1000
0000
,  // measure 73
1001
0000
0001
0000
,  // measure 74
0100
0000
0010
0000
,  // measure 75
1000
0000
0100
0000
,  // measure 76
1000
0000
0010
0000
,  // measure 77
0100
0000
0001
0000
,  // measure 78
0010
0000
0001
0000
,  // measure 79
0100
0000
0010
0000
,  // measure 80
1000
0000
0100
0000
,  // measure 81
1000
0000
0010
0000
,  // measure 82
0100
0001
0100
0000
,  // measure 83
0001
0000
0010
0000
,  // measure 84
0100
1000
0100
0000
,  // measure 85
0010
0000
0100
0000
,  // measure 86
1000
0001
1000
0000
,  // measure 87
0010
0000
0100
0000
,  // measure 88
0001
0000
1000
0000
,  // measure 89
1001
0000
0000
0000
;
