#TITLE:EMOMOMO;
#SUBTITLE:;
#ARTIST:Ras;
#TITLETRANSLIT:;
#SUBTITLETRANSLIT:;
#ARTISTTRANSLIT:;
#GENRE:;
#CREDIT:;
#BANNER:;
#BACKGROUND:emomomo.jpg;
#LYRICSPATH:;
#CDTITLE:;
#MUSIC:EMOMOMO.ogg;
#OFFSET:0.000000;
#SAMPLESTART:92.690002;
#SAMPLELENGTH:12.000000;
#SELECTABLE:YES;
#BPMS:0.000000=145.000000
;
#STOPS:
;
#BGCHANGES:;
#KEYSOUNDS:;
#ATTACKS:;

//---------------dance-single - ----------------
#NOTES:
     dance-single:
     :
     Hard:
     13:
     0.629978,0.693616,0.098164,0.271840,0.464393,584.000000,571.000000,13.000000,36.000000,0.000000,0.000000,0.629978,0.693616,0.098164,0.271840,0.464393,584.000000,571.000000,13.000000,36.000000,0.000000,0.000000:
0000
0000
0000
0000
,
0000
0000
0000
0000
,
0000
0000
0000
0000
,
0000
0000
0000
0000
,
1001
0000
0000
0000
0110
0000
0000
0100
0000
0100
0010
0000
1000
0000
0001
0000
,
1100
0000
0000
0000
0011
0000
0000
0001
0000
0001
0100
0000
0010
0000
1000
0000
,
1010
0000
0000
0000
0101
0000
0000
0100
0000
0100
0001
0000
0100
0000
0010
0000
,
1001
0000
0000
0110
0000
0000
1001
0000
0010
0000
0010
0000
1000
0100
1000
0000
,
0010
0000
0000
0010
0100
0000
0000
0100
0001
0000
0000
0001
0010
0000
0010
0000
,
0200
0000
0000
1300
0200
0000
0000
0310
0001
0000
0000
0001
0100
0000
0100
0000
,
0010
1000
0010
0000
0100
0000
0010
0000
1000
0010
1000
0000
0100
0000
0010
0000
,
0022
0000
0000
0003
2000
0000
0000
3000
0002
0000
0000
0003
2000
0000
0000
3030
,
0010
0000
0000
0010
0001
0000
0000
0001
1000
0000
0000
1000
0100
0000
0100
0000
,
2000
0000
0000
3100
2000
0000
0000
3010
0200
0000
0000
0301
0010
0000
0010
0000
,
0001
0100
0001
0000
0010
0000
0100
0000
1000
0010
1000
0000
0001
0000
0100
0000
,
0202
0000
0000
0003
2000
0000
0000
3000
0002
0000
0000
0003
2000
0000
0000
3300
,
0010
0000
0000
0010
0100
0000
0000
0100
0001
0000
0000
0001
0010
0000
0010
0000
,
0200
0000
0000
1300
0200
0000
0000
0310
0001
0000
0000
0001
0100
0000
0100
0000
,
0010
1000
0010
0000
0100
0000
0010
0000
1000
0010
1000
0000
0100
0000
0010
0000
,
0022
0000
0000
0003
2000
0000
0000
3000
0002
0000
0000
0003
2000
0000
0000
3030
,
0010
0000
0000
0010
0001
0000
0000
0001
1000
0000
0000
1000
0100
0000
0100
0000
,
2000
0000
0000
3100
2000
0000
0000
3010
0200
0000
0000
0301
0010
0000
0010
0000
,
0001
0100
0001
0000
0010
0000
0100
0000
1000
0010
1000
0000
0001
0000
0100
0000
,
0202
0000
0000
0003
2000
0000
0000
3000
0002
0000
0000
0003
2000
0000
0000
3300
,
0001
0000
0000
0000
1000
0000
0001
1000
0001
0000
0000
0100
0000
0000
0010
0000
,
1000
0000
0000
0000
0001
0000
1000
0001
1000
0000
0000
0010
0000
0000
0100
0000
,
0010
0000
0000
0000
0100
0000
0001
1000
0001
0000
0000
0100
0000
0000
0010
0000
,
1000
0000
0000
0000
0100
0000
1000
0100
1000
0000
0000
0010
0000
0000
0100
0000
,
0001
0000
1000
0000
0010
0000
0100
0001
0100
0000
0000
0001
0000
0000
0100
0000
,
0010
0000
1000
0000
0001
0000
0100
0010
0100
0000
0000
0001
0000
0000
1000
0000
,
0010
0000
0100
0000
0001
0000
1000
0001
1000
0000
0100
0010
0000
0000
0100
0000
,
1000
0000
0001
0000
0100
0000
0010
1000
0001
0000
0100
0001
0000
0000
1000
0000
,
0001
0000
0000
0000
1000
0000
0001
1000
0001
0000
0000
0100
0000
0000
0010
0000
,
1000
0000
0000
0000
0001
0000
1000
0001
1000
0000
0000
0010
0000
0000
0100
0000
,
0010
0000
0000
0000
0100
0000
0001
1000
0001
0000
0000
0100
0000
0000
0010
0000
,
1000
0000
0000
0000
0100
0000
1000
0100
1000
0000
0000
0010
0000
0000
0100
0000
,
0001
0000
1000
0000
0010
0000
0100
0001
0100
0000
0000
0001
0000
0000
0100
0000
,
0010
0000
1000
0000
0001
0000
0100
0010
0100
0000
0000
0001
0000
0000
1000
0000
,
0010
0000
0100
0000
0001
0000
1000
0001
1000
0000
0100
0010
0000
0000
0100
0000
,
1000
0000
0001
0000
0100
0000
0010
1000
0001
0000
0100
0000
1000
0000
0100
0000
,
0002
0000
0000
0000
,
2003
0000
0000
0000
,
3020
0000
0000
0000
,
0230
0000
0000
0000
,
0301
0000
0000
0100
0000
0000
0010
0000
0000
1000
0000
0000
0100
0000
1000
0000
,
0010
0000
0000
0100
0000
0000
0001
0000
0000
0010
0000
0000
0100
0000
1000
0000
,
0020
0000
0000
0130
0000
0000
0002
0000
0000
0013
0000
0000
0100
0000
1000
0000
,
0010
0000
0000
1000
0000
0000
0001
0000
0000
0100
0000
0000
0010
0000
1000
0000
,
0010
0100
0001
0000
0100
0001
0010
0000
,
0100
1000
0010
0000
1000
0100
0010
0000
,
0001
1000
0001
1000
0010
0100
0001
0000
,
1000
0010
1000
0010
0100
0001
0010
0000
,
0100
1000
0100
1000
0100
0000
0000
0000
0010
0001
0010
0001
0010
0000
0000
0000
,
0001
1000
0001
1000
0001
0000
0000
0000
1000
0010
0100
0010
1000
0000
0000
0000
,
0001
0100
0001
0000
1000
0010
1000
0000
0001
0010
0001
0000
0100
1000
0100
0000
,
1000
0000
0000
0010
0000
0100
0001
0000
0010
0000
0100
0000
1000
0000
0001
0000
,
1000
0000
0001
0100
0000
0000
0001
0000
1000
0000
0010
0000
0100
0000
0001
0000
,
1000
0000
0001
0000
0100
0010
0000
0100
0010
0000
1000
0000
0100
0000
0001
0000
,
0100
0000
1000
0010
0000
0100
0001
0000
0100
0000
0001
0000
1000
0000
0010
0000
,
0100
0000
0001
1000
0000
0000
0100
0000
1000
0000
0010
0000
0100
0000
0001
0000
,
1000
0000
0010
0000
0100
0001
0010
0000
0100
0000
1000
0000
0010
0000
0100
0000
,
0001
0000
1000
0000
0001
1000
0000
0001
1000
0000
0010
0000
0100
0000
0001
0000
,
0100
0000
0001
0010
0000
0100
1000
0000
0010
0000
1000
0000
0001
0000
0100
0000
,
0001
0000
1000
0001
0000
1000
0001
0000
0100
0000
0001
1000
0001
0000
0100
0000
,
0010
0000
1000
0001
1000
0000
0010
0000
1000
0000
0001
0000
0010
0000
0100
0000
,
1000
0000
0001
0000
0100
0010
0100
0000
0001
0000
0010
0000
1000
0000
0010
0000
,
0001
0000
0100
0010
0100
0000
0001
0000
1000
0000
0010
0000
0100
0000
0010
0000
,
1000
0000
0000
0001
0000
0000
0100
0000
0001
0000
1000
0000
0100
0000
1000
0001
,
1000
0010
0100
0001
0010
0100
0010
0001
,
0100
1000
0100
0001
0010
0100
1000
0010
,
0100
0001
0010
0001
1000
0100
0001
0100
,
1000
0010
0100
0001
0010
0001
0010
0100
,
1000
0000
0000
0010
0100
0000
0001
0000
0010
0000
0100
0000
1000
0000
0001
0000
,
0010
0000
0100
0000
0001
0100
0000
0010
0000
0000
1000
0000
0100
0000
1000
0000
,
0010
0000
1000
0001
0000
0100
0001
0000
0010
0000
0100
0000
0010
0000
0100
0000
,
1000
0000
0000
0001
0000
0000
0100
0000
0001
0000
0100
0000
1000
0000
0100
0000
,
0001
0000
0100
0000
0001
0000
0010
0100
0010
0000
1000
0000
0001
0000
0100
0000
,
0010
0000
1000
0000
0001
0100
0000
0010
1000
0000
0100
0000
1000
0000
0010
0000
,
0100
0000
0001
0010
0000
0000
0001
0000
0100
0000
0010
0000
1000
0000
0000
0000
,
0001
0000
1000
0000
0001
0000
1000
0000
0010
0000
0100
0000
0010
0100
0010
0000
;

//---------------dance-single - ----------------
#NOTES:
     dance-single:
     :
     Medium:
     11:
     0.484349,0.542830,0.037756,0.158573,0.124593,449.000000,444.000000,5.000000,21.000000,0.000000,0.000000,0.484349,0.542830,0.037756,0.158573,0.124593,449.000000,444.000000,5.000000,21.000000,0.000000,0.000000:
0000
0000
0000
0000
,
0000
0000
0000
0000
,
0000
0000
0000
0000
,
0000
0000
0000
0000
,
0001
0000
0000
0000
1000
0000
0000
0100
0000
0000
1000
0000
0010
0000
0100
0000
,
0010
0000
0000
0000
1000
0000
0000
0100
0000
0000
0010
0000
0001
0000
0100
0000
,
0010
0000
0000
0000
1000
0000
0000
0001
0000
0000
0100
0000
0010
0000
1000
0000
,
1000
0000
0000
0100
0000
0000
0010
0000
0001
0000
0100
0000
0010
0000
1000
0000
,
1010
0000
1000
0100
1000
0010
0100
0001
,
0020
0000
0130
1000
0001
0010
0001
0100
,
0020
0000
1030
0001
2000
0000
3100
0010
,
0200
0001
1000
0001
,
1300
0000
0001
0100
0001
0100
0010
1000
,
0010
0000
1000
0100
1000
0010
0100
0010
,
2000
0000
3001
0100
0002
0000
0103
0010
,
0200
0001
1000
0001
,
1300
0000
0010
0100
0001
0100
0010
0000
,
0101
0000
1000
0100
1000
0010
0100
0000
,
0101
0000
1000
0001
1000
0000
0001
0100
,
0020
1000
0001
1030
,
0001
0000
1000
0100
1000
0010
0100
0001
,
0010
0000
0001
0100
0001
0100
0010
1000
,
0010
0000
1000
0100
1000
0000
0010
0001
,
0020
0001
1000
0031
,
1000
0000
0000
0000
0010
0000
0000
0100
0000
0000
0010
0000
0100
0000
0001
0000
,
1000
0000
0000
0000
0001
0000
0000
0100
0000
0000
0001
0000
0100
0000
0010
0000
,
1000
0000
0000
0000
0100
0000
0000
1000
0000
0000
0010
0000
0100
0000
0001
0000
,
1000
0000
0000
0010
0000
0000
0100
0000
0001
0000
0010
0000
0100
0000
1000
0000
,
1100
0000
1000
0010
0100
0010
1000
0100
,
2000
0000
3001
0100
0010
0100
0001
0010
,
0200
0000
0310
0001
1000
0100
1000
0010
,
0100
0000
0000
0001
0000
0000
1000
0000
0100
0000
1000
0000
0010
0000
0100
0000
,
0001
0000
1000
0000
0010
0100
0001
0100
,
0010
0000
2000
0000
3100
1000
0010
0100
,
0001
0000
0020
0000
0031
0100
0010
1000
,
0100
0000
2000
0000
3001
0100
1000
0100
,
0001
0000
0000
0000
0100
0000
0000
0010
0000
1000
0000
0000
0100
0000
0000
0000
,
1000
0000
0000
0000
0010
0000
0000
0100
0000
0001
0000
0000
0010
0000
0000
0000
,
0100
1000
0100
1000
0010
0100
0010
0100
,
0001
0010
0001
0010
0001
0100
1000
0100
,
0002
0000
0000
0000
,
2003
0000
0000
0000
,
3020
0000
0000
0000
,
0230
0000
0000
0000
,
0301
0000
0000
1000
0000
0000
0100
0000
0000
1000
0000
0000
0010
0000
0100
0000
,
0001
0000
0000
0010
0000
0000
0001
0000
0000
0100
0000
0000
0010
0000
1000
0000
,
0001
0000
0000
0010
0000
0000
1000
0000
0000
0010
0000
0000
0001
0000
0100
0000
,
0010
0000
0000
1000
0000
0000
0100
0000
0000
0001
0000
0000
0100
0000
1000
0000
,
0001
0100
0001
0000
1000
0010
1000
0000
,
0001
0100
0010
1000
0100
0010
0001
0000
,
1000
0010
1000
0000
0001
0100
0001
0000
,
1000
0100
0010
0001
0100
0010
1000
0000
,
0001
0100
0001
0100
0010
1000
0010
1000
,
0001
0010
0001
0010
0100
1000
0100
1000
,
0001
0010
0100
1000
0100
0010
0001
0100
,
0101
0000
0000
0002
,
1003
0000
0010
0000
0100
0001
0100
0000
,
0001
0010
0001
0100
0010
1000
0100
0000
,
1000
0010
0100
0000
0001
0100
1000
0000
,
0001
0010
1000
0100
0010
0001
0200
0000
,
0310
0000
0000
1000
0000
0000
0100
0000
0000
1000
0000
0000
0010
0000
0100
0000
,
0000
0001
0000
0000
1000
0000
0000
0100
0000
0000
1000
0000
0010
0000
0100
0000
,
0001
0000
0000
0100
0000
0000
0100
0000
0000
0010
0000
0000
1000
0000
1000
0000
,
0100
1000
0010
0100
0001
0010
0001
0100
,
0010
0000
1000
0100
1000
0000
0010
0010
,
0000
0100
0001
0100
0001
0000
1000
1000
,
0010
0000
0100
0001
0100
0001
1000
0000
,
0001
0100
0001
0100
0010
1000
0010
1000
,
0100
0000
0000
1000
0000
0000
0100
0000
0000
1000
0000
0000
0100
0000
0010
0000
,
0000
0001
0000
0000
0100
0000
0000
0010
0000
0000
1000
0000
0100
0000
0010
0000
,
0100
0000
0000
1000
0000
0000
0001
0000
0000
0100
0000
0000
0010
0000
1000
0000
,
0001
0100
0001
0100
0010
1000
0010
1000
,
0100
1000
0010
0100
,
0001
0100
0010
1000
0001
0000
0100
0000
,
0010
0000
1000
0001
0100
0010
1000
0000
,
0010
0001
0100
0010
2000
0000
3000
0000
,
1000
0100
1000
0000
0000
0001
0000
0000
,
0100
0010
0100
0000
0000
0001
0000
0000
,
1000
0100
0010
0000
0000
0100
0000
0000
,
1000
0000
0001
0000
1000
0001
1000
0001
;

//---------------dance-single - ----------------
#NOTES:
     dance-single:
     :
     Easy:
     7:
     0.282627,0.452358,0.015102,0.090613,0.000000,262.000000,260.000000,2.000000,12.000000,0.000000,0.000000,0.282627,0.452358,0.015102,0.090613,0.000000,262.000000,260.000000,2.000000,12.000000,0.000000,0.000000:
0000
0000
0000
0000
,
0000
0000
0000
0000
,
0000
0000
0000
0000
,
0000
0000
0000
0000
,
0001
1000
0001
1000
,
0010
0100
0010
0100
,
0001
0010
0100
1000
,
0001
0100
0010
1000
,
0010
0010
0010
0000
,
0100
0100
0100
0000
,
0001
0001
0001
0000
,
1000
1000
1000
0000
,
1000
0100
0010
0000
,
0001
0100
0010
0000
,
1000
0001
0100
0000
,
0010
1000
0100
0000
,
0001
1000
0001
1000
,
0010
0100
0010
0100
,
0001
0010
0100
1000
,
0100
0010
0001
1000
,
0100
0100
0010
0010
,
1000
1000
0001
0001
,
0100
0100
0001
0000
,
0100
0010
1000
0001
,
0100
0000
0001
0000
,
1000
0000
0010
0000
,
0100
0000
0001
0000
,
1000
0000
0010
0000
,
1000
0000
0100
0000
,
1000
0000
0100
0000
,
0010
0000
0001
0000
,
0010
0000
0001
0000
,
1000
0010
1000
0000
,
0001
0100
0001
0000
,
1000
0100
0010
0000
,
0001
0100
0010
0000
,
1000
0100
1000
0100
,
0010
0001
0010
0001
,
1000
0010
0100
0001
,
1000
0100
0001
0100
,
2000
0000
0000
0000
,
3020
0000
0000
0000
,
0230
0000
0000
0000
,
0302
0000
0000
0000
,
2003
0000
0000
0000
,
3200
0000
0000
0000
,
0320
0000
0000
0000
,
0032
0000
0000
0000
,
1003
0100
1000
0100
,
0010
0001
0010
0001
,
1000
0010
1000
0010
,
0100
0001
0100
0001
,
1000
0001
1000
0000
0001
1000
0001
0000
,
1000
0001
1000
0000
0001
1000
0001
0000
,
1000
0100
0010
0001
1000
0100
0010
0001
,
2000
0000
0000
0000
,
3001
0100
0010
0100
,
0001
0010
0100
1000
,
0001
1000
0100
0001
,
0100
1000
0010
0100
,
0001
0010
0001
0100
,
0010
1000
0100
1000
,
0010
0001
0010
1000
,
0100
1000
0010
0100
,
0001
0010
0001
0100
,
0010
0000
1000
0000
0100
1000
0100
0000
,
1000
0010
0100
0001
,
1000
0100
1000
0100
0010
0001
0010
0001
,
1000
0010
0100
0001
,
0010
0001
0100
0010
,
1000
0100
0010
0001
,
1001
0001
0110
0010
,
1000
0100
1000
0100
,
0010
0001
2000
0000
,
3010
0100
0001
0010
,
0001
0100
0020
0000
,
1030
0100
1000
0100
,
0001
0100
2000
0000
,
3010
0100
0001
0010
,
0100
0000
1000
0000
0001
1000
0001
1000
;

//---------------dance-single - ----------------
#NOTES:
     dance-single:
     :
     Beginner:
     5:
     0.189856,0.301100,0.022653,0.128369,0.000000,176.000000,173.000000,3.000000,17.000000,0.000000,0.000000,0.189856,0.301100,0.022653,0.128369,0.000000,176.000000,173.000000,3.000000,17.000000,0.000000,0.000000:
// measure 0
0000
0000
0000
0000
,  // measure 1
0000
0000
0000
0000
,  // measure 2
0000
0000
0000
0000
,  // measure 3
0000
0000
0000
0000
,  // measure 4
0000
0000
0000
0000
,  // measure 5
0000
0000
0000
0000
,  // measure 6
0000
0000
0000
0000
,  // measure 7
0000
0000
0000
0000
,  // measure 8
1000
0000
0001
0000
,  // measure 9
1000
0000
0001
0000
,  // measure 10
0100
0000
0010
0000
,  // measure 11
0100
0000
0010
0000
,  // measure 12
1000
0000
0100
0000
,  // measure 13
0010
0000
0001
0000
,  // measure 14
1000
0000
0010
0000
,  // measure 15
0100
0000
0001
0000
,  // measure 16
1000
0000
0100
0000
,  // measure 17
0001
0000
0100
0000
,  // measure 18
1000
0000
0010
0000
,  // measure 19
0001
0000
0010
0000
,  // measure 20
1000
0000
0100
0000
,  // measure 21
1000
0000
0100
0000
,  // measure 22
0010
0000
0001
0000
,  // measure 23
0010
0000
0001
0000
,  // measure 24
1000
0000
0001
0000
,  // measure 25
0100
0000
0010
0000
,  // measure 26
1000
0000
0001
0000
,  // measure 27
0100
0000
0010
0000
,  // measure 28
1000
0000
0100
0000
,  // measure 29
0010
0000
0100
0000
,  // measure 30
1000
0000
0001
0000
,  // measure 31
0100
0000
0010
0000
,  // measure 32
0100
0000
0001
0000
,  // measure 33
1000
0000
0100
0000
,  // measure 34
1000
0000
0010
0000
,  // measure 35
0100
0000
0001
0000
,  // measure 36
0010
0000
0001
0000
,  // measure 37
0100
0000
0010
0000
,  // measure 38
1000
0000
0100
0000
,  // measure 39
0001
0000
0100
0000
,  // measure 40
2002
0000
0000
0003
,  // measure 41
0020
0000
0000
3000
,  // measure 42
0200
0000
0000
0030
,  // measure 43
0302
0000
0000
0000
,  // measure 44
1003
0100
1000
0000
,  // measure 45
0001
0010
0001
0000
,  // measure 46
0100
0010
0100
0000
,  // measure 47
0001
1000
0001
0000
,  // measure 48
1000
0100
1000
0100
,  // measure 49
0010
0001
0010
0001
,  // measure 50
1000
0000
0001
0000
,  // measure 51
1000
0000
0001
0000
,  // measure 52
0001
0010
0001
0010
,  // measure 53
0100
1000
0100
1000
,  // measure 54
0001
1000
0001
1000
,  // measure 55
1001
0000
0000
0000
,  // measure 56
1000
0000
1000
0000
,  // measure 57
0001
0000
0001
0000
,  // measure 58
0100
0000
0100
0000
,  // measure 59
0010
0000
0010
0000
,  // measure 60
1000
0000
1000
0000
,  // measure 61
0100
0000
0100
0000
,  // measure 62
0010
0000
0010
0000
,  // measure 63
0001
0000
0001
0000
,  // measure 64
1000
0010
0001
0010
,  // measure 65
1000
0100
0001
0100
,  // measure 66
1000
0010
0100
0001
,  // measure 67
1000
0100
0010
0001
,  // measure 68
1000
0001
0100
0001
,  // measure 69
0010
0001
0100
0010
,  // measure 70
1000
0001
0010
0100
,  // measure 71
0010
0001
1000
0100
,  // measure 72
2000
0000
3020
0000
,  // measure 73
0230
0000
0302
0000
,  // measure 74
0023
0000
0032
0000
,  // measure 75
0203
0000
0320
0000
,  // measure 76
2030
0000
3200
0000
,  // measure 77
2300
0000
3020
0000
,  // measure 78
1030
0001
0100
0010
,  // measure 79
1000
0100
0010
0110
;
