#TITLE:Diet Coke;
#SUBTITLE:;
#ARTIST:TORIENA;
#TITLETRANSLIT:;
#SUBTITLETRANSLIT:;
#ARTISTTRANSLIT:;
#GENRE:;
#CREDIT:;
#BANNER:DietCoke.png;
#BACKGROUND:eden.jpg;
#LYRICSPATH:;
#CDTITLE:;
#MUSIC:Diet Coke.ogg;
#OFFSET:0.000000;
#SAMPLESTART:49.778000;
#SAMPLELENGTH:12.000000;
#SELECTABLE:YES;
#BPMS:0.000000=135.000000
;
#STOPS:
;
#BGCHANGES:;
#KEYSOUNDS:;
#ATTACKS:;

//---------------dance-single - ----------------
#NOTES:
     dance-single:
     :
     Hard:
     12:
     0.626434,0.645508,0.413020,0.149390,0.408626,499.000000,452.000000,47.000000,17.000000,0.000000,0.000000,0.626434,0.645508,0.413020,0.149390,0.408626,499.000000,452.000000,47.000000,17.000000,0.000000,0.000000:
0000
0000
0000
0000
,
0000
0000
0000
0000
,
0000
0000
0000
0000
,
0000
0000
0000
0000
,
1010
0100
0010
1000
0100
0010
0011
0000
,
0101
1000
0010
0100
0001
0010
1100
0000
,
0101
0010
1000
0100
1000
0010
0101
0000
,
1100
0100
0010
0001
0011
0000
0110
0000
,
1010
0000
0000
1000
0010
1000
0010
0100
0010
0100
0001
0100
,
0001
0000
0000
1000
0001
1000
0001
0010
0001
0010
0000
0100
,
1000
0000
0010
0100
0001
0000
0011
0000
,
1100
0000
0001
0010
0100
0000
1100
0000
,
0020
0000
0000
0000
1030
0000
0000
0010
0000
0100
0001
0000
0100
0000
0000
0000
,
1000
0010
1000
0000
0001
0000
0000
0010
0100
1000
0100
0010
0002
0000
0000
0000
,
1003
0001
1000
0000
0010
0000
0100
0001
0100
0000
0010
0000
1000
0100
1000
0010
,
0000
1000
0100
0000
0011
0000
0001
0000
0010
0100
0010
0000
0002
0000
0000
0000
,
1003
0000
0000
0010
0000
0000
1000
0000
0010
0000
0000
0100
0000
0001
0010
0000
,
0100
0000
1000
0000
0010
0000
0100
0000
0001
0010
0000
0000
0001
0100
0001
0000
,
0010
0100
0010
0000
0100
1000
0100
0000
0020
0000
0000
0000
1030
0000
0100
0000
,
1000
0000
0001
0000
0010
0000
1000
0000
0010
0001
0010
0000
0100
1000
0100
0000
,
0020
0000
0000
0000
0032
0000
0103
0010
0100
0000
0001
0000
1000
0000
0000
0000
,
0100
1000
0010
0001
0010
1000
0100
0000
,
2000
0000
3001
0100
0010
1000
0100
0000
,
1000
0000
0001
0000
0100
0000
0010
1000
0000
0010
1000
0000
0100
0000
0000
0000
,
2002
0000
0000
0000
0000
0000
3003
1000
0000
0010
0000
0100
0001
0000
0000
0000
,
0010
0001
0010
0000
0100
0000
1000
0100
0000
1000
0000
0010
0100
0000
0000
0000
,
0001
0000
0010
1000
0000
0000
0010
0000
0001
0000
0000
0000
1000
0001
1000
0001
,
1000
0010
0100
0001
0010
0100
1010
0000
,
1010
0100
0010
1000
0100
0010
0011
0000
,
0101
1000
0010
0100
0001
0010
1100
0000
,
0101
0010
1000
0100
1000
0010
0101
0000
,
1100
0100
0010
0001
0011
0000
0110
0000
,
1010
0000
0000
1000
0010
1000
0010
0100
0010
0100
0001
0100
,
0001
0000
0000
1000
0001
1000
0001
0010
0001
0010
0000
0100
,
1000
0000
0010
0100
0001
0000
0011
0000
,
1100
0000
0001
0010
0100
0000
1100
0000
,
0002
0000
0000
0000
0103
0000
0000
0010
0000
1000
0100
0000
0011
0000
0000
0000
,
1000
0010
1000
0000
0001
0000
0100
0000
0010
0000
1000
0000
0001
0000
0000
0000
,
0220
0000
0000
0000
0330
0000
0001
0000
0010
0100
0010
0000
0100
0000
0000
0000
,
1000
0100
0001
0100
1000
0010
0101
0000
,
1000
0000
0010
0000
0100
0000
0001
0000
1000
0001
1000
0000
0010
0000
0100
0000
,
0001
0000
0010
0000
0100
0000
1000
0010
1000
0000
0100
0001
0000
0000
0100
0000
,
1000
0000
0010
0100
0000
0000
0001
0000
0010
0000
0100
1000
0000
0000
0010
0000
,
1000
0000
0001
0000
0100
0010
1000
0001
0100
0000
0010
0000
1000
0100
0010
0001
,
0020
0000
0000
0000
0032
0000
0103
0010
0100
0000
0001
0000
1000
0000
0000
0000
,
0100
1000
0010
0001
0010
1000
0100
0000
,
2000
0000
3001
0100
0010
1000
0100
0000
,
1000
0000
0001
0000
0100
0000
0010
1000
0000
0010
1000
0000
0100
0000
0000
0000
,
2002
0000
0000
0000
0000
0000
3003
1000
0000
0010
0000
0100
0001
0000
0000
0000
,
0010
0001
0010
0000
0100
0000
1000
0100
0000
1000
0000
0010
0100
0000
0000
0000
,
0001
0000
0010
1000
0000
0000
0010
0000
0001
0000
0000
0000
1000
0001
1000
0001
,
1000
0010
0100
0001
0010
0100
1010
0000
,
1010
0100
0010
1000
0100
0010
0011
0000
,
0101
1000
0010
0100
0001
0010
1100
0000
,
0101
0010
1000
0100
1000
0010
0101
0000
,
1100
0100
0010
0001
0011
0000
0110
0000
,
1010
0000
0000
1000
0010
1000
0010
0100
0010
0100
0001
0100
,
0001
0000
0000
1000
0001
1000
0001
0010
0001
0010
0000
0100
,
1000
0000
0010
0100
0001
0000
0011
0000
,
1100
0000
0001
0010
0100
0000
1100
0000
,
0010
0100
0001
0010
1000
0010
0001
0100
,
0010
1000
0100
1000
0010
0100
0001
0010
,
1000
0010
0001
0100
0010
1000
0100
0001
,
0100
1000
0010
0100
0001
0010
0100
1000
;

//---------------dance-single - ----------------
#NOTES:
     dance-single:
     :
     Medium:
     10:
     0.504662,0.449928,0.131815,0.043938,0.000000,402.000000,387.000000,15.000000,5.000000,0.000000,0.000000,0.504662,0.449928,0.131815,0.043938,0.000000,402.000000,387.000000,15.000000,5.000000,0.000000,0.000000:
0000
0000
0000
0000
,
0000
0000
0000
0000
,
0000
0000
0000
0000
,
0000
0000
0000
0000
,
1000
0100
1000
0100
0010
0001
0010
0000
,
0001
0100
0001
0100
0010
1000
0100
0000
,
1000
0010
1000
0010
0100
0001
0010
0000
,
0100
1000
0100
1000
0010
0000
0101
0000
,
1000
0000
0001
0100
0010
1000
0100
0010
,
0001
0000
0100
0010
1000
0100
0010
0001
,
0100
0000
0001
0100
0010
0000
1100
0000
,
0011
0000
1000
0100
0010
0100
1000
0000
,
0001
0000
0100
0000
0001
0010
0100
0000
,
0010
0100
1000
0100
0010
0001
0100
0000
,
0010
1000
0010
0000
0100
0001
0100
0000
,
0001
0010
0100
1000
0100
0010
0001
0000
,
1000
0010
0100
0001
1000
0100
0010
0001
,
0100
0001
0010
0100
1000
0100
0010
0000
,
0001
0100
0010
0000
1000
0100
1000
0000
,
0001
0010
0100
0010
0001
0100
0010
1000
,
0100
0000
0011
0000
1000
0100
1000
0000
,
0010
0100
0001
0010
0100
0010
0001
0000
,
0100
0000
1010
0000
0001
0100
0010
0000
,
1000
0100
0010
0100
1000
0001
0100
0000
,
0220
0000
0000
0330
0001
0000
1000
0000
,
0100
0010
0001
0010
0100
1000
0010
0000
,
0100
0001
0100
0000
0010
1000
0010
0000
,
1000
0100
0010
0001
0010
0100
1000
0010
,
1000
0100
1000
0100
0010
0001
0010
0000
,
0001
0100
0001
0100
0010
1000
0100
0000
,
1000
0010
1000
0010
0100
0001
0010
0000
,
0100
1000
0100
1000
0010
0000
0101
0000
,
1000
0000
0001
0100
0010
1000
0100
0010
,
0001
0000
0100
0010
1000
0100
0010
0001
,
0100
0000
0001
0100
0010
0000
1100
0000
,
0011
0000
1000
0100
0010
0100
1000
0000
,
0001
0000
0100
0000
0001
0010
0100
0000
,
0010
0100
1000
0100
0010
0001
0100
0000
,
0010
1000
0010
0000
0100
0001
0100
0000
,
0001
0010
0100
1000
0100
0010
0001
0000
,
1000
0010
0100
0001
1000
0100
0010
0001
,
0100
0001
0010
0100
1000
0100
0010
0000
,
0001
0100
0010
0000
1000
0100
1000
0000
,
0001
0010
0100
0010
0001
0100
0010
1000
,
0100
0000
0011
0000
1000
0100
1000
0000
,
0010
0100
0001
0010
0100
0010
0001
0000
,
0100
0000
1010
0000
0001
0100
0010
0000
,
1000
0100
0010
0100
1000
0001
0100
0000
,
0220
0000
0000
0330
0001
0000
1000
0000
,
0100
0010
0001
0010
0100
1000
0010
0000
,
0100
0001
0100
0000
0010
1000
0010
0000
,
1000
0100
0010
0001
0010
0100
1000
0010
,
1000
0100
1000
0100
0010
0001
0010
0000
,
0001
0100
0001
0100
0010
1000
0100
0000
,
1000
0010
1000
0010
0100
0001
0010
0000
,
0100
1000
0100
1000
0010
0000
0101
0000
,
1000
0000
0001
0100
0010
1000
0100
0010
,
0001
0000
0100
0010
1000
0100
0010
0001
,
0100
0000
0001
0100
0010
0000
1100
0000
,
0011
0000
1000
0100
0010
0100
1000
0000
,
0001
0100
0001
0000
1000
0010
1000
0000
,
0001
0010
0100
1000
0100
0010
0001
0000
,
0100
0010
0100
0000
0001
1000
0001
0000
,
1000
0100
0010
0001
0010
0100
1000
0020
,
0030
0000
0000
0000
;

//---------------dance-single - ----------------
#NOTES:
     dance-single:
     :
     Easy:
     7:
     0.366571,0.421807,0.237267,0.105452,0.000000,292.000000,265.000000,27.000000,12.000000,0.000000,0.000000,0.366571,0.421807,0.237267,0.105452,0.000000,292.000000,265.000000,27.000000,12.000000,0.000000,0.000000:
0000
0000
0000
0000
,
0000
0000
0000
0000
,
0000
0000
0000
0000
,
0000
0000
0000
0000
,
0001
0000
0100
0000
0001
0100
0001
0000
,
0010
0000
1000
0000
0100
0010
0100
0000
,
0010
0000
0001
0000
0100
0010
0100
0000
,
0001
0010
1100
0011
,
0110
1000
0001
0100
,
0010
1000
0100
0010
,
0001
0010
0100
1000
,
0010
0100
0001
0010
,
1001
0000
0110
0000
0001
1000
0001
0000
,
1000
0000
0010
0000
0100
0001
0100
0000
,
0010
1000
0001
0010
,
0100
0000
1000
0000
0001
0100
0001
0000
,
0100
0001
1000
0010
,
0100
0000
0001
0000
0100
0001
0100
0000
,
0010
1000
0100
1000
,
0001
0000
0100
0000
0010
1000
0010
0000
,
0110
0000
1001
0000
1000
0100
0010
0000
,
0001
0000
1000
0000
0001
0010
0100
0000
,
0110
0000
1001
0000
1000
0010
0100
0000
,
0001
0010
0001
0000
0100
0010
0100
0000
,
2002
0000
0000
3003
0110
0000
1001
0000
,
1000
0000
0010
0000
0100
0001
0100
0000
,
0001
0010
0100
1000
,
0010
0000
0100
0000
0001
1000
0001
1000
,
0001
0000
0100
0000
0001
0100
0001
0000
,
0010
0000
1000
0000
0100
0010
0100
0000
,
0010
0000
0001
0000
0100
0010
0100
0000
,
0001
0010
1100
0011
,
0110
1000
0001
0100
,
0010
1000
0100
0010
,
0001
0010
0100
1000
,
0010
0100
0001
0010
,
1001
0000
0110
0000
0001
1000
0001
0000
,
1000
0000
0010
0000
0100
0001
0100
0000
,
0010
1000
0001
0010
,
0100
0000
1000
0000
0001
0100
0001
0000
,
0100
0001
1000
0010
,
0100
0000
0001
0000
0100
0001
0100
0000
,
0010
1000
0100
1000
,
0001
0000
0100
0000
0010
1000
0010
0000
,
0110
0000
1001
0000
1000
0100
0010
0000
,
0001
0000
1000
0000
0001
0010
0100
0000
,
0110
0000
1001
0000
1000
0010
0100
0000
,
0001
0010
0001
0000
0100
0010
0100
0000
,
2002
0000
0000
3003
0110
0000
1001
0000
,
1000
0000
0010
0000
0100
0001
0100
0000
,
0001
0010
0100
1000
,
0010
0000
0100
0000
0001
1000
0001
1000
,
0001
0000
0100
0000
0001
0100
0001
0000
,
0010
0000
1000
0000
0100
0010
0100
0000
,
0010
0000
0001
0000
0100
0010
0100
0000
,
0001
0010
1100
0011
,
0110
1000
0001
0100
,
0010
1000
0100
0010
,
0001
0010
0100
1000
,
0010
0100
0001
0010
,
0200
0000
2300
0000
,
3020
0000
0230
0000
,
0302
0000
0023
0000
,
0032
0000
0203
0000
,
0300
0000
0000
0000
;

//---------------dance-single - ----------------
#NOTES:
     dance-single:
     :
     Beginner:
     4:
     0.187052,0.309325,0.123027,0.052726,0.000000,149.000000,135.000000,14.000000,6.000000,0.000000,0.000000,0.187052,0.309325,0.123027,0.052726,0.000000,149.000000,135.000000,14.000000,6.000000,0.000000,0.000000:
// measure 0
0000
0000
0000
0000
,  // measure 1
0000
0000
0000
0000
,  // measure 2
0000
0000
0000
0000
,  // measure 3
0000
0000
0000
0000
,  // measure 4
0001
0000
1000
0000
,  // measure 5
0001
0000
1000
0000
,  // measure 6
0010
0000
0100
0000
,  // measure 7
0010
0100
0010
0000
,  // measure 8
1000
0000
0100
0000
,  // measure 9
0010
0000
0001
0000
,  // measure 10
0010
0000
0100
0000
,  // measure 11
1000
0000
0001
0000
,  // measure 12
1001
0000
0110
0000
,  // measure 13
1000
0000
0001
0000
,  // measure 14
0100
0000
0010
0000
,  // measure 15
0100
0000
0010
0000
,  // measure 16
1001
0000
0110
0000
,  // measure 17
0010
0000
0100
0000
,  // measure 18
0001
0000
1000
0000
,  // measure 19
0001
0000
1000
0000
,  // measure 20
0110
0110
1001
0000
,  // measure 21
1000
0100
0010
0001
,  // measure 22
1000
0001
1000
0000
,  // measure 23
0010
1000
0100
0010
,  // measure 24
0002
0000
0000
0000
,  // measure 25
0103
0000
0010
0000
,  // measure 26
1000
0001
1000
0001
,  // measure 27
0100
0010
0100
0000
,  // measure 28
0001
0000
1000
0000
,  // measure 29
0001
0000
1000
0000
,  // measure 30
0010
0000
0100
0000
,  // measure 31
0010
0100
0010
0000
,  // measure 32
1000
0000
0100
0000
,  // measure 33
0010
0000
0001
0000
,  // measure 34
0010
0000
0100
0000
,  // measure 35
1000
0000
0001
0000
,  // measure 36
1001
0000
0110
0000
,  // measure 37
1000
0000
0001
0000
,  // measure 38
0100
0000
0010
0000
,  // measure 39
0100
0000
0010
0000
,  // measure 40
1001
0000
0110
0000
,  // measure 41
0010
0000
0100
0000
,  // measure 42
0001
0000
1000
0000
,  // measure 43
0001
0000
1000
0000
,  // measure 44
0110
0110
1001
0000
,  // measure 45
1000
0100
0010
0001
,  // measure 46
1000
0001
1000
0000
,  // measure 47
0010
1000
0100
0010
,  // measure 48
0002
0000
0000
0000
,  // measure 49
0103
0000
0010
0000
,  // measure 50
1000
0001
1000
0001
,  // measure 51
0100
0010
0100
0000
,  // measure 52
0001
0000
1000
0000
,  // measure 53
0001
0000
1000
0000
,  // measure 54
0010
0000
0100
0000
,  // measure 55
0010
0100
0010
0000
,  // measure 56
1000
0000
0100
0000
,  // measure 57
0010
0000
0001
0000
,  // measure 58
0010
0000
0100
0000
,  // measure 59
1000
0000
0001
0000
,  // measure 60
0200
0000
0000
0000
,  // measure 61
0320
0000
0000
0000
,  // measure 62
2030
0000
0000
0000
,  // measure 63
3002
0000
0000
0000
,  // measure 64
0003
0000
0000
0000
;
