#TITLE:Demon's Rave;
#SUBTITLE:;
#ARTIST:Hommarju;
#TITLETRANSLIT:;
#SUBTITLETRANSLIT:;
#ARTISTTRANSLIT:;
#GENRE:;
#CREDIT:;
#BANNER:D Rave.png;
#BACKGROUND:DR.jpg;
#LYRICSPATH:;
#CDTITLE:;
#MUSIC:DR.ogg;
#OFFSET:0.000000;
#SAMPLESTART:108.706001;
#SAMPLELENGTH:12.000000;
#SELECTABLE:YES;
#BPMS:0.000000=170.000000
;
#STOPS:99.000000=0.176000,
130.500000=0.176000,
290.000000=0.176000,
321.500000=0.176000
;
#BGCHANGES:;
#KEYSOUNDS:;
#ATTACKS:;

//---------------dance-single - ----------------
#NOTES:
     dance-single:
     :
     Hard:
     12:
     0.595484,0.716557,0.221330,0.383639,0.221330,565.000000,535.000000,30.000000,52.000000,0.000000,0.000000,0.595484,0.716557,0.221330,0.383639,0.221330,565.000000,535.000000,30.000000,52.000000,0.000000,0.000000:
0000
0000
0000
0000
,
0000
0000
0000
0000
,
0000
0000
0000
0000
,
0000
0000
0000
0000
,
0000
0000
0000
0000
0000
0000
0220
0330
,
2002
3003
0000
0000
,
0000
0000
0000
0000
1000
0000
0010
0000
0100
0000
0000
0001
0000
0000
1000
0010
,
2000
0000
0000
0000
,
3010
0000
1000
0100
0000
0001
0010
0000
,
1000
0100
1000
0000
0001
0010
0001
0000
,
1000
0100
0001
0100
1000
0010
0001
0000
,
0010
1000
0010
0000
0100
0001
0100
0010
,
1010
0000
0000
0110
0000
0000
0011
0000
1001
0000
0000
1100
0000
0000
0101
0000
,
2000
0000
0000
3020
0000
0000
0130
0000
0002
0000
0000
2003
0000
0000
3010
0000
,
2000
0000
0000
3200
0000
0000
0301
0000
2000
0000
0000
3020
0000
0000
0031
0000
,
2002
0000
0000
3003
,
1000
0001
1000
0000
0020
0000
1030
0000
1010
0000
0000
0101
0000
0000
0110
0000
,
0010
0100
0001
1000
0100
0001
0100
1000
,
0010
0100
0001
0010
1000
0010
0001
0100
,
0001
1000
0001
0000
0100
0010
0100
0000
0001
0100
0001
0010
0001
0000
0000
0000
,
2002
0000
0000
0000
0000
0000
0000
3003
,
1000
0000
0000
1000
0010
0000
0000
0010
0100
0000
0000
0100
0001
0000
0100
0000
,
2002
0000
3003
0000
0010
0000
0100
0000
0001
0000
0000
0010
0100
0000
1000
0000
,
0010
0000
0000
0010
0100
0000
0000
0100
0001
0000
0000
0001
1000
0000
0100
0000
,
2002
0000
3003
0000
0010
0000
0100
0000
1000
0000
0000
0010
0200
0300
0010
0000
,
0000
0010
1000
0000
0000
1000
0001
0000
0000
0001
0020
0000
0130
0000
2002
0000
,
3003
0000
1000
0000
0010
0000
0100
0000
0000
0001
1000
0000
1000
0100
0001
0000
,
0000
0001
0100
0000
0000
0100
1000
0000
0000
1000
0010
0000
0100
0000
2002
0000
,
3003
0000
2000
0000
3010
0000
0101
0000
0000
1010
0000
0000
0110
0000
1000
0000
,
0100
0001
0100
1000
0100
0001
0100
2002
,
3003
0000
0010
0000
1000
0000
0001
0000
0000
0001
0010
0000
0100
0000
0001
0000
,
1000
0010
0001
0100
1000
0001
0010
2020
,
3030
0000
1000
0000
0010
0000
1000
0000
0001
0100
0002
0003
1000
0000
0000
1000
,
0001
0000
0000
0001
0100
0000
0000
0100
1000
0000
0100
0000
0022
0000
0033
0000
,
1000
0000
0010
0000
0100
0000
0000
0100
0001
0000
1000
0000
0100
0000
0000
0100
,
1000
0000
0000
1000
0010
0000
0000
0010
0100
0000
0001
0000
0220
0000
0330
0000
,
1000
0100
0001
0100
1000
0000
0001
0100
,
0001
0000
1000
0100
1000
0000
0001
0010
,
0001
0000
1000
0010
1000
0000
0010
0100
,
0010
0000
1000
0001
1000
0000
0001
0010
,
0001
0000
1000
0100
1000
0000
0001
0010
,
0100
0000
1000
0100
0010
0000
0001
0100
,
0010
0000
1000
0010
0100
0000
0001
0000
,
1000
0100
0000
1000
0100
0010
0002
0000
,
0103
0000
0010
0000
1000
0000
0000
0001
0000
0000
1000
0000
2002
0000
0000
0000
,
0000
0000
3003
0000
,
0001
0000
0100
0000
0010
0000
0000
1000
0000
0000
0010
1000
0020
0000
0000
0000
,
0000
0000
0030
0000
,
1000
0000
0001
0000
0100
0000
0000
0010
0000
0000
1000
0000
0002
0000
0000
0000
,
0000
0000
0000
0003
,
1000
0000
0010
0000
0100
0000
0000
0001
0000
0000
0010
0001
0020
0000
0000
0000
,
0000
0000
0000
0032
,
0000
0000
0000
0000
0003
0000
0001
0100
,
0001
0000
1000
0100
1000
0000
0001
0010
,
0001
0000
1000
0010
1000
0000
0010
0100
,
0010
0000
0000
0000
1000
0000
0001
0000
1000
0000
0000
0000
0001
0000
0000
0100
,
0000
0000
0001
0000
1000
0000
0000
0010
0000
0000
1000
0000
0001
0000
0010
0000
,
0100
0000
1000
0100
0010
0000
0001
0100
,
0010
0000
1000
0010
0100
0000
0001
1000
,
0010
0000
0000
0000
1000
0000
0000
0000
0100
0000
1000
0000
0001
0000
0000
0100
,
0000
0000
0001
0000
1000
0000
0000
0010
0000
0000
1000
0000
0001
0000
0000
1000
,
0000
0000
0010
0000
0100
0000
0000
0010
0000
0000
1000
0000
0001
0000
0000
0100
,
0000
0000
0001
0000
1000
0000
0000
0100
0000
0000
1000
0000
0010
0000
0000
0100
,
0000
0000
0001
0000
1000
0000
0000
0001
0000
0000
0100
0000
0100
0000
0000
0010
,
0000
0000
1000
0000
1000
0000
0000
0001
0000
0000
1000
0000
0001
0000
0100
0000
,
0001
0100
0010
1000
0010
1000
0100
0010
,
0100
0010
0001
1000
0001
1000
0010
0100
,
0001
0100
0010
1000
0100
1000
0010
0000
,
1000
0000
1001
0000
0000
0000
0001
0100
,
0010
1000
0100
1000
0100
0001
0100
1000
,
0010
0100
0001
0010
0100
0000
1000
0100
,
1000
0001
0100
0001
1000
0010
1000
0001
,
0010
0001
0010
0100
2000
3010
1000
0010
,
0100
0001
0100
1000
0100
0001
0100
0010
,
1000
0100
1000
0020
0000
1030
0001
0010
,
0001
0100
0010
1000
0100
0002
0000
0000
,
0000
0000
0000
0003
0000
0100
1000
0100
,
1000
0010
0100
0002
0003
1001
0000
1000
,
0100
1100
0000
0001
0000
1000
0010
1000
,
0001
0010
0100
1000
0010
0101
0000
0001
,
0100
0010
1000
0002
0103
0010
1000
0100
,
1000
0010
0100
0001
2000
0000
3010
0100
,
0001
0000
0000
1000
0000
0000
0001
1000
0001
0000
0100
0000
0010
0000
1000
0000
,
0100
1000
0010
0000
0200
0000
0000
0000
,
0000
0000
0300
0000
0001
1000
0001
1000
,
0010
1000
0010
1000
0100
1000
0100
1000
,
0010
0100
0010
0000
1000
0001
1000
0001
,
0100
0010
0100
0010
0100
0001
0010
0100
,
1000
0010
0100
0000
0001
1000
0001
0000
,
1000
0001
1000
0000
0010
1000
0010
0000
,
0100
0001
0100
0000
0001
1000
0100
0000
,
1000
0010
0100
0000
0001
0100
0010
1000
,
0100
1000
0010
0000
1010
0000
0000
0000
;

//---------------dance-single - ----------------
#NOTES:
     dance-single:
     :
     Medium:
     10:
     0.490089,0.545948,0.066399,0.206575,0.088532,465.000000,456.000000,9.000000,28.000000,0.000000,0.000000,0.490089,0.545948,0.066399,0.206575,0.088532,465.000000,456.000000,9.000000,28.000000,0.000000,0.000000:
0000
0000
0000
0000
,
0000
0000
0000
0000
,
0000
0000
0000
0000
,
0000
0000
0000
0000
,
0000
0000
0000
0000
0001
0000
0100
0000
0010
0000
0000
1000
0000
0000
0001
0000
,
2000
0000
0000
3000
,
0000
0000
0000
0000
0010
0000
0100
0000
0001
0000
0000
0010
0000
0000
0100
0000
,
2000
0000
0000
0000
,
0002
0000
0000
3003
,
0001
0010
0001
0000
1000
0100
1000
0000
,
0010
0100
0010
0000
1000
0100
1000
0000
,
0001
0010
0001
0000
0100
0010
0100
0000
,
0001
0000
0000
1000
0000
0000
0001
0000
1000
0000
0000
0001
0000
0000
1000
0000
,
0001
0010
0001
0000
1000
0100
1000
0000
,
0010
0100
0010
0000
0100
0001
0100
0000
,
0202
0000
0000
0303
,
0001
0000
0100
0000
0010
0000
1000
0000
0100
0000
0000
1000
0000
0000
0010
0000
,
0100
0001
0100
0000
0010
1000
0010
0000
,
0100
0001
0010
0000
0100
1000
0010
0000
,
1000
0100
0010
0001
1000
0010
0100
0001
,
2000
0000
0002
3000
0200
0000
0303
0000
,
0001
0000
1000
0000
0010
0000
0100
0001
,
0100
0000
0010
1000
0010
1000
0010
0000
,
0100
0000
0001
0000
1000
0000
0010
0100
,
0001
0000
1000
0100
1000
0100
1000
0010
,
0000
0100
0000
0001
0000
1000
0001
1000
,
0000
0100
0000
0010
0000
0100
1000
0001
,
0000
0100
0000
0010
0000
1000
0010
2000
,
0000
0000
0000
0000
0000
0000
3001
0000
0000
0010
0000
0000
0100
0000
1000
0000
,
0001
0100
0000
0010
0000
1000
0100
1000
,
0000
0001
0100
0001
0100
0001
0000
1000
,
0000
0010
0100
0001
0000
1000
0010
1000
,
0000
0001
0100
0010
1000
0001
1000
0000
,
0100
0000
1000
0010
0100
0001
1000
0000
,
0100
1000
0010
0100
0001
0000
0100
0010
,
0100
0000
0001
0000
0010
0100
2000
0000
,
0000
0000
0000
0000
0000
0000
3001
0100
,
0001
0000
0010
0100
0010
0000
0001
1000
,
0001
0000
0100
0010
0100
0000
0010
1000
,
0010
0000
1000
0100
1000
0000
0001
0010
,
0100
0000
1000
0010
0100
0000
0001
0100
,
1000
0000
0001
0010
1000
0000
0010
1000
,
0010
0000
0100
0001
0100
0000
0002
0000
,
0000
2003
0000
0000
3100
0000
1000
0000
,
0001
0000
0100
0000
0010
0000
0000
1000
0000
0000
0100
0000
2000
0000
0000
0000
,
0000
0000
0000
3000
,
0010
0000
0100
0000
0001
0000
0000
0010
0000
0000
0100
0000
2000
0000
0000
0000
,
0000
0000
0000
3000
,
0010
0000
0100
0000
0010
0000
0000
1000
0000
0000
0100
0000
0020
0000
0000
0000
,
0000
0000
0000
0030
,
0001
0000
0100
0000
0001
0000
0000
0010
0000
0000
0001
0000
0200
0000
0000
0000
,
0000
0000
0000
0320
,
0000
0000
0000
1030
,
0001
0100
0001
0000
1000
0000
0010
0000
,
0100
0001
0100
0000
0010
0000
1000
0100
,
0000
0000
1000
0000
0100
0000
0000
0000
0010
0000
0001
0000
1000
0000
0000
0010
,
0000
0000
0100
0000
0001
0000
0000
0010
0000
0000
0001
0000
0100
0000
0000
0000
,
0001
1000
0001
0000
0100
0000
0010
0000
,
1000
0100
1000
0100
0010
0000
0001
0100
,
0000
0000
0001
0000
0100
0000
0000
0000
0010
0000
0000
0000
1010
0000
0000
1000
,
0000
0000
0010
0000
0100
0000
0000
0001
0000
0000
0010
0000
0001
0000
0000
0100
,
0000
0000
0010
0000
1000
0000
0000
0100
0000
0000
1000
0000
0001
0000
0000
0100
,
0000
0000
1000
0000
0100
0000
0000
0001
0000
0000
0010
0000
1000
0000
0000
0010
,
0000
0001
0100
0000
0010
0000
1000
0100
,
1000
0000
0001
0000
0100
0000
0010
1000
,
0001
0000
0010
0100
1000
0000
0001
0010
,
0001
0000
1000
0010
1000
0000
0001
0100
,
0010
0000
1000
0001
0010
0000
0002
0000
,
0000
2000
3003
1001
,
0001
0100
0010
1000
0100
1000
0020
0000
,
0130
0001
1000
0100
1000
0000
0001
0100
,
0001
0000
1000
0100
1000
0010
0200
0000
,
0301
0010
0100
1000
0020
0130
0001
1000
,
0001
0010
0000
0100
1000
0020
0000
0130
,
0001
0000
0010
0000
0000
0100
0000
0000
1000
0000
0010
0000
0000
0000
0100
0000
,
0000
0001
0100
0010
1000
0200
0000
0000
,
0000
0000
0000
0000
0300
1000
0100
1000
,
0100
0010
0001
0010
0000
0002
0000
0103
,
0010
1000
0000
0010
0000
0100
0001
0100
,
0001
1000
0010
1000
0010
0200
0000
0301
,
0010
0100
1000
0010
0100
0001
0100
0001
,
1000
0010
1000
0000
0002
0000
0103
0010
,
1000
0000
1010
0000
1000
0100
1000
0010
,
0100
0001
0100
0010
2000
0000
3001
0100
,
0010
0000
0000
0000
0101
0000
0000
0000
1000
0000
0000
0010
0000
0000
0100
0000
,
0001
0000
0000
0000
0101
0000
0000
0000
0001
0000
0000
1000
0000
0000
0010
0000
,
0100
0000
0000
0000
0110
0000
0000
0000
0001
0000
0000
0010
0000
0000
0001
0000
,
0100
0000
0000
0000
0101
0000
0000
0000
0010
0000
0000
1000
0000
0000
0100
0000
,
0010
0000
0110
0000
0001
0010
0001
0000
,
1000
0100
1000
0000
0010
0100
0010
0000
,
0001
1000
0001
0000
1000
0010
1000
0000
,
0100
0010
0001
0000
1000
0000
1000
0010
,
0000
0010
0100
0000
0001
0000
0000
0000
;

//---------------dance-single - ----------------
#NOTES:
     dance-single:
     :
     Easy:
     7:
     0.297215,0.375339,0.095910,0.169687,0.000000,282.000000,269.000000,13.000000,23.000000,0.000000,0.000000,0.297215,0.375339,0.095910,0.169687,0.000000,282.000000,269.000000,13.000000,23.000000,0.000000,0.000000:
0000
0000
0000
0000
,
0000
0000
0000
0000
,
0000
0000
0000
0000
,
0000
0000
0000
0000
,
0000
0000
0000
0110
,
1001
0000
0000
0000
,
0000
0001
0100
0010
,
2000
0000
0000
0000
,
0002
0000
0000
3003
,
0001
0100
0010
0100
,
0001
1000
0100
1000
,
0010
0100
0001
0010
,
0100
0010
0001
1000
,
0100
1000
0010
0100
,
0001
0010
0100
1000
,
2002
0000
0000
3003
,
0001
0000
1000
0000
,
0010
1000
0010
1000
,
0001
0100
0001
0100
,
0001
0010
0100
1000
,
2002
0000
0000
3003
,
0001
0100
0010
1000
,
1010
1000
0010
0000
,
0100
0001
1000
0010
,
0101
0000
0010
0000
1000
0000
0001
1000
,
0000
0010
0000
0100
0000
0001
0000
1001
,
0000
1000
0000
0001
0000
0000
0000
0100
,
0000
0010
0000
1000
0000
0001
0000
2000
,
0000
0000
0000
3000
0000
0000
0000
0001
,
0000
0100
0000
0010
0000
1000
0000
1001
,
0000
1000
0000
0001
0000
1000
0000
0100
,
0000
0010
0000
0001
0000
0101
0000
0010
,
0000
1000
0000
0100
0000
1000
0001
0000
,
0100
0010
1000
1010
,
1000
0100
0000
1000
,
0001
0010
0100
2000
,
0000
0000
0000
3001
,
1000
0001
0000
0100
,
0010
0100
0000
0001
,
0010
0100
0000
1000
,
0010
0100
0000
0001
,
0010
0001
0010
0100
,
1000
0100
1000
0001
,
0000
0100
0000
0010
,
0000
1000
0100
0022
,
0000
0000
0000
0033
,
0100
1000
0010
0200
,
0000
0000
0000
0300
,
0001
0010
0001
2200
,
0000
0000
0000
3300
,
0010
0100
1000
0020
,
0000
0000
0000
0230
,
0000
0000
0000
1300
,
0100
1000
0000
0001
,
0100
0001
0000
0010
,
0100
0010
0000
0001
,
1000
0001
0000
1000
,
0100
1000
0100
0010
,
0001
0010
0001
1000
,
0100
0010
0001
1000
,
0010
0100
0001
1000
,
0000
0001
0000
1000
,
0000
0001
0000
0100
,
0000
0010
0000
0100
,
0000
0010
0000
1000
,
0100
1000
0100
1000
,
0010
0100
0010
0100
,
0001
0010
0001
0020
,
0000
0000
0000
0130
,
1000
0100
1000
0020
,
0000
0130
0000
0001
,
0010
0001
0010
0100
,
1000
0000
0010
0000
0100
0001
0000
1000
,
0000
0100
0000
1000
0000
0020
0000
0000
,
0000
0130
0000
0000
0000
0001
0000
0010
,
0000
0001
0000
0100
0000
0020
0000
0000
,
0000
0000
0000
0000
0000
1030
0000
0100
,
0000
1000
0100
1000
0000
0020
0000
0000
,
0000
0130
0000
0000
0000
0001
0000
0100
,
0000
0001
0100
0001
0000
0200
0000
0000
,
0000
0310
0000
0100
0010
0000
1000
0000
,
0100
1000
0020
0000
,
0130
0000
0001
0010
,
0001
0100
0020
0000
,
0000
0000
1030
0100
,
1000
0000
0001
0010
,
0001
0000
0100
0010
,
0100
0000
0001
0100
,
0001
0000
1000
0010
,
1000
0100
0010
0100
,
1000
0001
0010
0100
,
1000
0010
0100
0001
,
1000
0000
1001
0000
;

//---------------dance-single - ----------------
#NOTES:
     dance-single:
     :
     Beginner:
     5:
     0.187604,0.270023,0.029511,0.110665,0.000000,178.000000,174.000000,4.000000,15.000000,0.000000,0.000000,0.187604,0.270023,0.029511,0.110665,0.000000,178.000000,174.000000,4.000000,15.000000,0.000000,0.000000:
// measure 0
0000
0000
0000
0000
,  // measure 1
0000
0000
0000
0000
,  // measure 2
0000
0000
0000
0000
,  // measure 3
0000
0000
0000
0000
,  // measure 4
0000
0000
0000
0000
,  // measure 5
0001
0000
0000
0000
,  // measure 6
1000
0000
0000
0000
,  // measure 7
0010
0000
0000
0000
,  // measure 8
0100
0000
0000
0000
,  // measure 9
0001
0000
1000
0000
,  // measure 10
0001
0000
1000
0000
,  // measure 11
0010
0000
0100
0000
,  // measure 12
0010
0000
0100
0000
,  // measure 13
0001
0000
0010
0000
,  // measure 14
0100
0000
1000
0000
,  // measure 15
0002
0000
0000
0000
,  // measure 16
1003
0000
0001
0000
,  // measure 17
1000
0100
1000
0000
,  // measure 18
0001
0010
0001
0000
,  // measure 19
1000
0000
0001
0000
,  // measure 20
2002
0000
0000
3003
,  // measure 21
0001
0000
1000
0000
,  // measure 22
0001
0000
1000
0000
,  // measure 23
0010
0000
0100
0000
,  // measure 24
0010
0000
0000
0000
0100
0000
0010
1000
,  // measure 25
0000
0000
0000
0010
0000
0000
0000
1000
,  // measure 26
0000
0000
0000
0010
0000
0000
0000
0100
,  // measure 27
0000
0000
0000
0001
0000
0000
0000
0200
,  // measure 28
0000
0000
0000
0000
0000
0000
0000
0301
,  // measure 29
0000
1000
0000
0001
0000
1000
0000
0002
,  // measure 30
0000
0000
0000
1003
0000
0000
0000
0100
,  // measure 31
0000
0010
0000
0100
0000
0010
0000
0200
,  // measure 32
0000
0000
0000
0310
0000
0100
0001
0000
,  // measure 33
1000
0001
1000
0020
,  // measure 34
0000
0130
0000
0010
,  // measure 35
0100
0010
0100
0002
,  // measure 36
0000
0000
0000
1003
,  // measure 37
0000
0100
0000
0010
,  // measure 38
0000
0001
0000
1000
,  // measure 39
0000
0010
0000
0100
,  // measure 40
0000
0001
0000
1000
,  // measure 41
0000
0001
0000
0100
,  // measure 42
0000
0010
0000
1000
,  // measure 43
0000
0001
0000
0010
,  // measure 44
0000
0100
0000
0220
,  // measure 45
0000
0000
0000
0330
,  // measure 46
0000
0001
0000
1000
,  // measure 47
0000
0000
0000
0000
,  // measure 48
0000
0010
0000
0100
,  // measure 49
0000
0000
0000
0000
,  // measure 50
0000
0001
0000
0100
,  // measure 51
0000
0000
0000
0020
,  // measure 52
0000
0000
0000
1030
,  // measure 53
0000
0100
0000
0010
,  // measure 54
0000
0100
0000
1000
,  // measure 55
0000
0001
0000
0010
,  // measure 56
0000
0100
0000
0010
,  // measure 57
0000
0001
0000
1000
,  // measure 58
0000
0010
0000
0100
,  // measure 59
0000
0010
0000
1000
,  // measure 60
0000
0001
0000
1000
,  // measure 61
0000
0001
0000
0100
,  // measure 62
0000
0010
0000
1000
,  // measure 63
0000
0100
0000
0010
,  // measure 64
0000
0001
0000
0100
,  // measure 65
0100
0100
0000
0010
,  // measure 66
0010
0010
0000
1000
,  // measure 67
1000
1000
0000
0001
,  // measure 68
0001
0001
0000
1000
,  // measure 69
0000
0100
0000
1000
,  // measure 70
0000
0010
0000
0100
,  // measure 71
0000
0001
0000
0010
,  // measure 72
0000
0000
0100
0000
1000
0001
0000
0000
,  // measure 73
0000
0100
0000
0000
0000
0010
0000
0000
,  // measure 74
0000
0100
0000
0000
0000
0001
0000
0000
,  // measure 75
0000
1000
0000
0000
0000
0200
0000
0000
,  // measure 76
0000
0000
0000
0000
0000
1300
0000
0000
,  // measure 77
0000
0010
0000
0000
0000
1000
0000
0000
,  // measure 78
0000
0010
0000
0000
0000
0100
0000
0000
,  // measure 79
0000
0001
0000
0000
0000
0100
0000
0000
,  // measure 80
0000
0001
0000
0100
0010
0000
0000
0000
,  // measure 81
0100
0000
0001
0000
,  // measure 82
0010
0000
0001
0000
,  // measure 83
0100
0000
0020
0000
,  // measure 84
0000
0000
1030
0000
,  // measure 85
0100
0000
1000
0000
,  // measure 86
0100
0000
0010
0000
,  // measure 87
0001
0000
0010
0000
,  // measure 88
0001
0000
1000
0000
,  // measure 89
0010
0000
0100
0000
,  // measure 90
0001
0000
0220
0000
,  // measure 91
0000
0330
1001
0000
;
