#TITLE:Crank It;
#SUBTITLE:;
#ARTIST:Crayvxn;
#TITLETRANSLIT:;
#SUBTITLETRANSLIT:;
#ARTISTTRANSLIT:;
#GENRE:;
#CREDIT:;
#BANNER:;
#BACKGROUND:Crenk.jpg;
#LYRICSPATH:;
#CDTITLE:;
#MUSIC:Crankit.ogg;
#OFFSET:0.000000;
#SAMPLESTART:31.500000;
#SAMPLELENGTH:12.000000;
#SELECTABLE:YES;
#BPMS:0.000000=160.000000
;
#STOPS:
;
#BGCHANGES:;
#KEYSOUNDS:;
#ATTACKS:;

//---------------dance-single - ----------------
#NOTES:
     dance-single:
     :
     Hard:
     11:
     0.597604,0.592485,1.099972,0.524987,0.008333,502.000000,370.000000,132.000000,63.000000,0.000000,0.000000,0.597604,0.592485,1.099972,0.524987,0.008333,502.000000,370.000000,132.000000,63.000000,0.000000,0.000000:
0000
0000
0000
0000
,
0000
0000
0000
0000
,
0000
0000
0000
0000
,
0000
0000
0000
0000
,
0000
0000
0000
0000
,
0010
0100
0001
0010
0200
0000
1300
0010
,
0100
0001
0010
0001
0200
0000
0310
0000
,
1000
0001
0010
0001
0200
0000
0310
1000
,
0100
0010
0100
1000
0002
0010
0103
0010
,
0100
0001
0010
0100
2000
0000
3010
0100
,
0001
0010
0100
0010
2000
0000
3010
0000
,
1000
0001
0010
0100
0002
0000
0103
1000
,
2002
0000
0000
3003
,
1001
0010
0100
2000
3010
0100
0001
0020
,
0130
1000
0001
0200
0310
1000
0010
0200
,
0301
0010
0100
2000
3010
0100
0001
0020
,
0031
1000
0010
0200
0310
1000
0100
0020
,
0031
1000
0100
2000
3010
0100
0001
2000
,
3010
1000
0001
0010
1000
0010
0001
0100
,
0001
1000
0001
1000
0001
1000
0001
1000
,
2002
0000
0000
0000
0000
0000
0000
3003
,
1010
0011
1100
0101
,
0011
0000
1010
0000
1100
0000
0001
0100
,
1010
0101
0011
1010
,
0101
0000
1100
0000
0011
0000
1000
0010
,
0101
1010
1100
0011
,
1010
0000
0110
0000
1001
0000
0010
0100
,
1010
1100
0101
0011
,
1000
0001
1000
0000
0010
0000
0010
0000
0100
0000
0200
0000
0301
0000
0000
0000
,
1010
0000
0101
0000
0000
0001
0011
0000
,
1010
0000
1100
0000
0000
0100
0101
0000
,
1010
0000
0101
0000
0000
0010
1100
0000
,
0011
0000
0110
0000
0000
0100
1001
0000
,
1010
0000
0101
0000
0000
0001
0011
0000
,
1010
0000
1100
0000
0000
0100
0101
0000
,
1010
0000
0101
0000
0000
0010
1100
0000
,
0011
0000
0110
0000
0000
0100
1001
0000
,
2000
0000
3010
0000
0000
0200
0301
0000
,
0020
0000
0031
0000
0000
2000
3010
0000
,
0200
0000
0310
0000
0000
2000
3001
0000
,
0020
0000
0130
0000
0000
0020
0031
0000
,
2000
0000
3010
0000
0000
0200
0301
0000
,
0020
0000
0031
0000
0000
2000
3010
0000
,
0200
0000
0310
0000
0000
2000
3001
0000
,
0020
0000
0130
0000
0000
0020
0031
0000
,
1001
0010
0100
2000
3010
0100
0001
0020
,
0130
1000
0001
0200
0310
1000
0010
0200
,
0301
0010
0100
2000
3010
0100
0001
0020
,
0031
1000
0010
0200
0310
1000
0100
0020
,
0031
1000
0100
2000
3010
0100
0001
2000
,
3010
1000
0001
0010
1000
0010
0001
0100
,
0001
1000
0001
1000
0001
1000
0001
1000
,
2002
0000
0000
0000
0000
0000
0000
3003
,
1010
0011
1100
0101
,
0011
0000
1010
0000
1100
0000
0001
0100
,
1010
0101
0011
1010
,
0101
0000
1100
0000
0011
0000
1000
0010
,
0101
1010
1100
0011
,
1010
0000
0110
0000
1001
0000
0010
0100
,
1010
1100
0101
0011
,
1000
0001
1000
0000
0010
0000
0010
0000
0100
0000
0200
0000
0301
0000
0000
0000
,
1010
0000
0101
0000
0110
0000
1000
0100
,
0011
1100
0110
0101
,
0011
0000
1010
0000
0101
0000
1000
0100
,
1100
0000
0011
0000
0110
0000
2020
3030
,
0101
0000
0011
0000
1100
0000
0001
0100
,
1100
0101
0011
0101
,
1001
1100
0011
1010
,
0101
0000
0011
0000
2020
0000
0000
3030
,
1010
0011
1100
0101
,
0011
0000
1010
0000
1100
0000
0001
0100
,
1010
0101
0011
1010
,
0101
0000
1100
0000
0011
0000
1000
0010
,
0101
1010
1100
0011
,
1010
0000
0110
0000
1001
0000
0010
0100
,
2002
3003
0220
0330
,
2002
0000
0000
3003
,
0220
0000
0000
0000
,
0000
0000
0000
0000
,
0330
0000
0000
0000
;

//---------------dance-single - ----------------
#NOTES:
     dance-single:
     :
     Medium:
     9:
     0.494035,0.559569,0.866645,0.291659,0.000000,415.000000,311.000000,104.000000,35.000000,0.000000,0.000000,0.494035,0.559569,0.866645,0.291659,0.000000,415.000000,311.000000,104.000000,35.000000,0.000000,0.000000:
0000
0000
0000
0000
,
0000
0000
0000
0000
,
0000
0000
0000
0000
,
0000
0000
0000
0000
,
0000
0000
0000
0000
,
1000
0000
0001
0100
0001
0000
0010
0100
,
1000
0000
0100
0010
0002
0000
0003
0000
,
1000
0000
0010
0100
0010
0000
1000
0100
,
1000
0000
0001
0010
0001
0100
0010
1000
,
0100
0000
1000
0010
1000
0000
0001
0100
,
0001
0000
0010
0100
2000
0000
3000
0000
,
0001
0000
0100
0010
1000
0000
0100
0010
,
0002
0000
0000
0000
,
1003
0100
0010
0001
0010
0100
1000
0000
,
0001
0010
0100
1000
0100
0010
0001
0000
,
0100
0010
1000
0001
0100
0001
0010
0000
,
0100
1000
0010
0100
0010
1000
0001
0000
,
1000
0100
0010
0100
1000
0010
0100
0000
,
0001
0010
0100
0010
0001
0100
0010
0000
,
1000
0001
1000
0001
1000
0001
1000
0001
,
2002
0000
0000
0000
0000
0000
0000
3003
,
0110
1001
1100
0011
,
0110
0011
1100
0010
,
1100
0011
0110
1010
,
0101
0110
1001
0010
,
1100
0011
1010
0101
,
0110
1001
1010
1000
,
1100
0011
0110
1100
,
0010
0100
0010
0100
0001
0010
0200
0000
,
0310
0000
0002
0000
0000
1003
0010
0000
,
0200
0000
0310
0000
0000
1000
0100
0000
,
0020
0000
1030
0000
0000
0010
0001
0000
,
0100
0000
0002
0000
0000
1003
1001
0000
,
0010
0000
0002
0000
0000
1003
0010
0000
,
0200
0000
0310
0000
0000
1000
0100
0000
,
0020
0000
1030
0000
0000
0010
0001
0000
,
0100
0000
0002
0000
0000
1003
1001
0000
,
2000
0000
0000
0000
,
3020
0000
0000
0000
,
0230
0000
0000
0000
,
0302
0000
0000
0000
,
0023
0000
0000
0000
,
0230
0000
0000
0000
,
0302
0000
0000
0000
,
2003
0000
0000
3000
,
1000
0100
0010
0001
0010
0100
1000
0000
,
0001
0010
0100
1000
0100
0010
0001
0000
,
0100
0010
1000
0001
0100
0001
0010
0000
,
0100
1000
0010
0100
0010
1000
0001
0000
,
1000
0100
0010
0100
1000
0010
0100
0000
,
0001
0010
0100
0010
0001
0100
0010
0000
,
1000
0001
1000
0001
1000
0001
1000
0001
,
2002
0000
0000
0000
0000
0000
0000
3003
,
0110
1001
1100
0011
,
0110
0011
1100
0010
,
1100
0011
0110
1010
,
0101
0110
1001
0010
,
1100
0011
1010
0101
,
0110
1001
1010
1000
,
1100
0011
0110
1100
,
0010
0100
0010
0100
0001
0010
0200
0300
,
1100
0011
0110
0100
,
0101
1010
0110
0001
,
0101
1100
1010
0010
,
0101
0110
1100
0010
,
0110
1001
0110
1000
,
1100
0101
0110
0001
,
1100
1010
0011
0101
,
1010
0000
0101
0000
0220
0000
0000
0330
,
0110
1001
1100
0011
,
0110
0011
1100
0010
,
1100
0011
0110
1010
,
0101
0110
1001
0010
,
1100
0011
1010
0101
,
0110
1001
1010
1000
,
0220
0000
0000
0330
2002
0000
0000
3003
,
0220
0000
0000
0000
0000
0000
0000
0330
,
2002
0000
0000
0000
,
0000
0000
0000
0000
,
3003
0000
0000
0000
;

//---------------dance-single - ----------------
#NOTES:
     dance-single:
     :
     Easy:
     7:
     0.344039,0.526654,0.716649,0.349991,0.000000,289.000000,203.000000,86.000000,42.000000,0.000000,0.000000,0.344039,0.526654,0.716649,0.349991,0.000000,289.000000,203.000000,86.000000,42.000000,0.000000,0.000000:
0000
0000
0000
0000
,
0000
0000
0000
0000
,
0000
0000
0000
0000
,
0000
0000
0000
0000
,
0000
0000
0000
0000
,
0002
0000
0203
0000
,
0310
1000
0010
0000
,
2000
0000
3020
0000
,
0130
0001
0010
0100
,
2000
0000
3020
0000
,
0130
0001
0010
0000
,
0002
0000
0203
0000
,
0320
0000
0000
0000
,
1030
0100
0010
0001
,
0010
0100
1000
0010
,
0100
0001
0100
0010
,
1000
0100
0010
0001
,
0100
0001
1000
0010
,
0100
0001
0010
0100
,
1000
0001
1000
0001
,
2002
0000
0000
3003
,
1001
0000
0110
0000
,
0101
0101
0101
0000
,
0110
0000
1001
0000
,
1010
1010
1010
0000
,
0101
1010
0110
0110
,
0110
1010
0101
0000
,
1010
1010
0101
0101
,
1000
0000
0010
0000
1000
0010
1000
0000
,
2000
0000
3200
0000
,
0320
0000
0000
0000
0031
0100
0001
0000
,
0200
0000
0320
0000
,
2030
0000
0000
0000
3001
1000
0021
0000
,
0000
0032
0000
0203
,
0000
0000
0310
1000
0010
0000
0000
0000
,
2000
0000
3020
0000
,
0130
0000
0001
0000
1000
0001
1000
0001
,
2000
0000
0000
0000
,
3020
0000
0000
0000
,
0230
0000
0000
0000
,
0302
0000
0000
0000
,
2003
0000
0000
0000
,
3200
0000
0000
0000
,
0320
0000
0000
0000
,
0032
0000
0000
0003
,
1000
0100
0010
0001
,
0010
0100
1000
0010
,
0100
0001
0100
0010
,
1000
0100
0010
0001
,
0100
0001
1000
0010
,
0100
0001
0010
0100
,
1000
0001
1000
0001
,
2002
0000
0000
3003
,
1001
0000
0110
0000
,
0101
0101
0101
0000
,
0110
0000
1001
0000
,
1010
1010
1010
0000
,
0101
1010
0110
0110
,
0110
1010
0101
0000
,
1010
1010
0101
0101
,
1000
0000
0010
0000
1000
0010
1000
0000
,
1010
0000
0101
0000
,
0110
0110
1001
0000
,
1100
0000
0011
0000
,
1010
0101
0110
0000
,
0110
0000
1001
0000
,
0011
0011
1100
0000
,
1001
0000
0110
0000
,
1100
0101
0022
0033
,
1001
0000
0110
0000
,
0101
0101
0101
0000
,
0110
0000
1001
0000
,
1010
1010
1010
0000
,
0101
1010
0110
0110
,
0110
1010
0101
0000
,
0220
0000
0000
0330
2002
0000
0000
3003
,
0220
0000
0000
0000
0000
0000
0000
0330
,
2002
0000
0000
0000
,
0000
0000
0000
0000
,
3003
0000
0000
0000
;

//---------------dance-single - ----------------
#NOTES:
     dance-single:
     :
     Beginner:
     4:
     0.158329,0.299993,0.116664,0.141663,0.000000,133.000000,119.000000,14.000000,17.000000,0.000000,0.000000,0.158329,0.299993,0.116664,0.141663,0.000000,133.000000,119.000000,14.000000,17.000000,0.000000,0.000000:
// measure 0
0000
0000
0000
0000
,  // measure 1
0000
0000
0000
0000
,  // measure 2
0000
0000
0000
0000
,  // measure 3
0000
0000
0000
0000
,  // measure 4
0000
0000
0000
0000
,  // measure 5
1000
0000
0000
0000
,  // measure 6
0001
0000
0000
0000
,  // measure 7
1000
0000
0000
0000
,  // measure 8
0001
0000
0000
0000
,  // measure 9
0100
0000
0010
0000
,  // measure 10
0100
0000
0010
0000
,  // measure 11
1000
0000
0001
0000
,  // measure 12
2000
0000
0000
3000
,  // measure 13
1001
0000
0000
0000
,  // measure 14
0110
0000
0000
0000
,  // measure 15
1001
0000
0000
0000
,  // measure 16
0110
0000
0000
0000
,  // measure 17
1000
0000
0010
0000
,  // measure 18
0100
0000
0001
0000
,  // measure 19
0010
0000
0100
0000
,  // measure 20
2000
0000
0000
0000
,  // measure 21
3001
0000
0001
0000
,  // measure 22
1000
0000
1000
0000
,  // measure 23
0010
0000
0010
0000
,  // measure 24
0100
0000
0100
0000
,  // measure 25
0001
0000
0001
0000
,  // measure 26
1000
0000
1000
0000
,  // measure 27
0010
0000
0010
0000
,  // measure 28
0200
0000
0000
0000
,  // measure 29
0301
0000
1000
0000
,  // measure 30
0001
0000
1000
0000
,  // measure 31
0010
0000
0100
0000
,  // measure 32
0010
0000
0100
0000
,  // measure 33
0001
0000
1000
0000
,  // measure 34
0001
0000
1000
0000
,  // measure 35
0100
0000
0010
0000
,  // measure 36
0100
0000
0010
0000
,  // measure 37
2000
0000
0000
0000
,  // measure 38
3200
0000
0000
0000
,  // measure 39
0320
0000
0000
0000
,  // measure 40
0032
0000
0000
0000
,  // measure 41
2003
0000
0000
0000
,  // measure 42
3200
0000
0000
0000
,  // measure 43
0320
0000
0000
0000
,  // measure 44
0032
0000
0000
0000
,  // measure 45
1003
0000
0000
0000
,  // measure 46
0001
0000
0000
0000
,  // measure 47
0100
0000
0000
0000
,  // measure 48
0010
0000
0000
0000
,  // measure 49
1001
0000
0110
0000
,  // measure 50
1001
0000
0110
0000
,  // measure 51
1000
0000
1000
0000
,  // measure 52
0020
0000
0000
0000
,  // measure 53
1030
0000
0001
0000
,  // measure 54
1000
0000
0001
0000
,  // measure 55
0100
0000
0010
0000
,  // measure 56
0100
0000
0010
0000
,  // measure 57
1000
0000
0001
0000
,  // measure 58
1000
0000
0001
0000
,  // measure 59
0010
0000
0100
0000
,  // measure 60
0020
0000
0000
0000
,  // measure 61
0130
0000
1000
0000
,  // measure 62
0100
0000
1000
0000
,  // measure 63
0001
0000
0010
0000
,  // measure 64
0001
0000
0010
0000
,  // measure 65
0100
0000
1000
0000
,  // measure 66
0100
0000
1000
0000
,  // measure 67
0010
0000
0100
0000
,  // measure 68
0110
0000
2002
3003
,  // measure 69
1000
0000
1000
0000
,  // measure 70
0010
0000
0010
0000
,  // measure 71
0100
0000
0100
0000
,  // measure 72
0001
0000
0001
0000
,  // measure 73
0010
0000
0010
0000
,  // measure 74
0100
0000
0100
0000
,  // measure 75
1100
0000
0011
0000
,  // measure 76
0110
0000
0000
0000
,  // measure 77
2002
0000
0000
0000
,  // measure 78
0000
0000
0000
0000
,  // measure 79
0000
0000
0000
0000
,  // measure 80
3003
0000
0000
0000
;
