#TITLE:Circles;
#SUBTITLE:;
#ARTIST:Post Malone;
#TITLETRANSLIT:;
#SUBTITLETRANSLIT:;
#ARTISTTRANSLIT:;
#GENRE:;
#CREDIT:Taco Bell;
#BANNER:Circle.jpg;
#BACKGROUND:circles.jpg;
#LYRICSPATH:;
#CDTITLE:;
#MUSIC:Circles.ogg;
#OFFSET:0.000000;
#SAMPLESTART:96.000000;
#SAMPLELENGTH:16.000000;
#SELECTABLE:YES;
#BPMS:0.000000=120.000000
;
#STOPS:
;
#BGCHANGES:;
#KEYSOUNDS:;
#ATTACKS:;

//---------------dance-single - ----------------
#NOTES:
     dance-single:
     :
     Hard:
     10:
     0.412291,0.424952,0.113623,0.363595,0.007575,381.000000,366.000000,15.000000,48.000000,0.000000,0.000000,0.412291,0.424952,0.113623,0.363595,0.007575,381.000000,366.000000,15.000000,48.000000,0.000000,0.000000:
0000
0000
0000
0000
,
0000
0000
0000
0000
,
0000
0000
0000
0000
,
0000
0000
0000
0000
,
0000
0000
0000
0000
,
0000
0000
0000
0000
,
0000
0000
0000
0000
,
0000
0000
0000
0000
,
0020
0000
2030
0000
3001
0010
0100
1000
,
0001
0100
0010
0100
0002
0000
0013
0001
,
2000
3000
1000
0000
0010
0100
0001
0010
,
0100
1000
0100
0010
0001
0200
0000
0301
,
0100
0000
0010
0000
1000
0010
1000
0100
,
0010
0000
0001
0000
0100
0000
0010
0000
1000
0000
0000
0100
0000
0000
0010
0000
,
0001
0000
1000
0000
0010
0100
0001
0010
,
0100
0000
1000
0000
0001
0000
0010
0000
0001
0000
0000
0100
0000
0000
0010
0000
,
1000
0000
1010
0000
1000
0100
0001
0100
,
1000
0010
0100
0001
0011
0000
1100
0000
,
0010
0000
0110
0000
0001
0010
1000
0010
,
0001
0000
0010
0100
0001
0010
0000
1000
,
0010
0000
0101
0000
0010
1000
0010
0100
,
0010
1000
0100
0001
0200
0000
1300
0000
,
1100
0000
0011
0000
0001
0100
0010
1000
,
0100
0010
0001
0100
1000
0100
0001
0000
,
1001
0000
0010
0100
0001
0000
0010
0100
,
1000
0100
0010
0002
0000
0000
0103
0010
,
1010
0000
1000
0100
0020
0000
0031
0010
,
0001
0100
0000
0020
0000
0000
1030
0100
,
0011
0000
1000
0100
0001
0100
1000
0100
,
1000
0100
0001
0010
1000
0100
0001
0010
,
1000
0000
0001
0100
1000
0000
0100
0001
,
0100
1000
0000
0100
0001
0010
0100
2000
,
3010
0000
0100
0000
0001
0010
0100
2000
,
0000
3010
0100
0010
0001
0100
0010
2000
,
3100
0000
0011
0000
2000
3100
0000
0020
,
0031
1000
0100
0001
0100
1000
0010
0100
,
0001
0000
1000
0100
0001
0100
1000
0100
,
1000
0100
0001
0010
1000
0100
0001
0010
,
1000
0000
0001
0100
1000
0000
0100
0001
,
0100
1000
0000
0100
0001
0100
1000
0000
,
0100
0000
0002
0023
0032
0203
0320
2030
,
3200
2300
3020
0230
0000
0310
1000
0100
,
2000
0000
3020
0230
0302
0000
0023
0230
,
2300
3020
0230
0302
0000
0023
0032
0203
,
0310
1000
0100
0010
0100
0000
1000
0010
,
0100
0001
0010
0002
0000
0203
0310
1000
,
0010
0100
0001
0010
0100
1000
0010
0100
,
0010
1000
0100
0001
0000
0100
1000
0001
,
1001
0000
0100
0010
1000
0000
0100
0010
,
0001
0010
0100
2000
0000
0000
3010
0100
,
0101
0000
0001
0010
0200
0000
1300
0100
,
1000
0010
0000
0200
0000
0000
0301
0010
,
1100
0000
0001
0010
1000
0010
0001
0010
,
0001
0010
1000
0100
0001
0010
1000
0100
,
0001
0000
1000
0010
0001
0000
0010
1000
,
0010
0001
0000
0010
1000
0100
0010
0002
,
0103
0000
0010
0000
1000
0100
0010
0002
,
0000
0103
0010
0100
0001
0010
0100
2000
,
3010
0000
1100
0000
0002
0013
0000
0200
,
1300
0001
0010
1000
0010
0001
0100
0010
,
1000
0000
0001
0010
1000
0010
0001
0010
,
0001
0010
1000
0100
0001
0010
1000
0100
,
0001
0000
1000
0010
0001
0000
0010
1000
,
0010
0001
0000
0010
1000
0010
0001
0000
,
0020
0000
0000
0000
,
0000
0000
0000
0000
,
0030
0000
0000
0000
;

//---------------dance-single - ----------------
#NOTES:
     dance-single:
     :
     Medium:
     9:
     0.309489,0.349960,0.090899,0.310571,0.000000,286.000000,274.000000,12.000000,41.000000,0.000000,0.000000,0.309489,0.349960,0.090899,0.310571,0.000000,286.000000,274.000000,12.000000,41.000000,0.000000,0.000000:
0000
0000
0000
0000
,
0000
0000
0000
0000
,
0000
0000
0000
0000
,
0000
0000
0000
0000
,
0000
0000
0000
0000
,
0000
0000
0000
0000
,
0000
0000
0000
0000
,
0000
0000
0000
0000
,
1000
0000
0001
0000
0010
0100
0010
0100
,
1000
0000
0001
0000
0100
0010
0100
0010
,
0100
0000
0001
0000
0010
0100
1000
0000
,
0010
0000
0100
0000
0001
0010
0100
0000
,
1000
0000
0010
0000
0100
0001
0100
0001
,
1000
0000
0001
0000
0010
0100
1000
0100
,
0010
0000
0001
0000
0100
0010
0100
0000
,
0010
0000
1000
0000
0100
1000
0100
0000
,
2000
0000
3100
0000
0010
0001
0100
0001
,
1000
0010
0101
1010
,
1000
0000
0010
0000
0100
0001
0100
0001
,
0100
0010
1010
0101
,
1000
0000
0100
0000
0010
0001
0100
0010
,
1000
0001
0110
1001
,
1000
0000
0010
0000
0100
0001
0100
0001
,
0100
0000
0010
0000
1000
0100
0001
0000
,
0100
0000
1000
0000
0010
0100
0001
0000
,
1000
0000
0010
0000
0100
0001
0010
0000
,
0100
0000
1000
0000
0010
0100
0001
0000
,
0010
0000
0100
0000
1000
0100
1000
0000
,
0010
0000
0100
0000
0001
0010
0100
0000
,
2000
3200
0302
0023
,
1030
0000
0001
0100
1000
0000
0100
0000
,
0001
0010
0100
0000
1000
0100
0010
0002
,
0013
0000
1100
0000
0010
0100
0010
0000
,
1000
0000
0101
0000
0010
1000
0010
0000
,
0100
0000
0011
0000
0100
1000
0100
0000
,
0010
0000
0100
0000
0001
0010
1000
0010
,
0001
0000
0100
0000
0010
0001
0010
0000
,
0002
0203
2300
3020
,
0031
0000
1000
0100
0001
0000
0100
0000
,
1000
0100
0010
0000
0001
0010
0100
1000
,
0002
0000
0203
0000
,
0320
0000
2030
0000
,
3200
0000
2300
0000
,
3020
0000
0230
0000
,
0302
0023
0032
0203
,
0320
2030
3200
2300
,
3020
0230
0302
0023
,
0032
0000
0000
0000
,
0103
0010
1000
0000
0010
0100
0001
0000
,
1000
0000
0010
0000
0100
0001
0010
0000
,
0100
0000
1000
0000
0010
0100
0001
0000
,
0010
0000
0100
0000
1000
0100
1000
0000
,
0010
0000
0100
0000
0001
0010
0100
0000
,
2000
3200
0302
0023
,
1030
0000
0001
0100
1000
0000
0100
0000
,
0001
0010
0100
0000
1000
0100
0010
0002
,
0013
0000
1100
0000
0010
0100
0010
0000
,
1000
0000
0101
0000
0010
1000
0010
0000
,
0100
0000
0011
0000
0100
1000
0100
0000
,
0010
0000
0100
0000
0001
0010
1000
0010
,
0001
0000
0100
0000
0010
0001
0010
0000
,
0002
0203
2300
3020
,
0031
0000
1000
0100
0001
0000
0100
0000
,
1000
0100
0010
0000
0001
0010
0100
1000
,
0200
0000
0000
0000
,
0000
0000
0000
0000
,
0300
0000
0000
0000
;

//---------------dance-single - ----------------
#NOTES:
     dance-single:
     :
     Easy:
     5:
     0.182880,0.249972,0.121198,0.181798,0.000000,169.000000,153.000000,16.000000,24.000000,0.000000,0.000000,0.182880,0.249972,0.121198,0.181798,0.000000,169.000000,153.000000,16.000000,24.000000,0.000000,0.000000:
0000
0000
0000
0000
,
0000
0000
0000
0000
,
0000
0000
0000
0000
,
0000
0000
0000
0000
,
0000
0000
0000
0000
,
0000
0000
0000
0000
,
0000
0000
0000
0000
,
0000
0000
0000
0000
,
0001
0000
1000
0000
,
0010
0100
0010
0100
,
0001
0000
1000
0000
,
0010
0100
0010
1000
,
0010
0000
0100
0000
,
0001
0010
0100
1000
,
0010
0000
0100
0000
,
0001
1000
0100
0010
,
0001
0001
0001
0000
,
1000
1000
1000
0000
,
0010
0010
0010
0000
,
0100
0100
0100
0000
,
0001
1000
0001
0000
,
1000
0001
1000
0000
,
0010
0010
0100
0100
,
0001
1000
0001
0000
,
1001
0000
0110
0000
,
1000
0100
0010
0001
,
0110
0000
1001
0000
,
0001
0010
0100
1000
,
1100
0000
0011
0000
,
1000
0100
0001
0010
,
1010
0000
0101
0000
,
0010
0010
1000
1000
,
0020
0000
0230
0000
,
0302
0000
2003
0000
,
3002
0000
0023
0000
,
0230
0000
2300
0000
,
3010
0100
0010
0000
,
1000
0100
0001
0010
,
1000
0001
0010
0000
,
0100
1000
0010
0100
,
0002
0000
0000
0000
,
0203
0000
0000
0000
,
0320
0000
0000
0000
,
2030
0000
0000
0000
,
3002
0000
0000
0000
,
0023
0000
0000
0000
,
0230
0000
0000
0000
,
1300
1000
1000
1000
,
1001
0000
0110
0000
,
1000
0100
0010
0001
,
0110
0000
1001
0000
,
0001
0010
0100
1000
,
1100
0000
0011
0000
,
1000
0100
0001
0010
,
1010
0000
0101
0000
,
0010
0010
1000
1000
,
0020
0000
0230
0000
,
0302
0000
2003
0000
,
3002
0000
0023
0000
,
0230
0000
2300
0000
,
3010
0100
0010
0000
,
1000
0100
0001
0010
,
1000
0001
0010
0000
,
0100
1000
0010
0100
,
0002
0000
0000
0000
,
0000
0000
0000
0000
,
0003
0000
0000
0000
;

//---------------dance-single - ----------------
#NOTES:
     dance-single:
     :
     Beginner:
     2:
     0.103884,0.144302,0.121198,0.174223,0.000000,96.000000,80.000000,16.000000,23.000000,0.000000,0.000000,0.103884,0.144302,0.121198,0.174223,0.000000,96.000000,80.000000,16.000000,23.000000,0.000000,0.000000:
// measure 0
0000
0000
0000
0000
,  // measure 1
0000
0000
0000
0000
,  // measure 2
0000
0000
0000
0000
,  // measure 3
0000
0000
0000
0000
,  // measure 4
0000
0000
0000
0000
,  // measure 5
0000
0000
0000
0000
,  // measure 6
0000
0000
0000
0000
,  // measure 7
0000
0000
0000
0000
,  // measure 8
1000
0000
0000
0000
,  // measure 9
0001
0000
0000
0000
,  // measure 10
1000
0000
0000
0000
,  // measure 11
0001
0000
0000
0000
,  // measure 12
0100
0000
0000
0000
,  // measure 13
0010
0000
0000
0000
,  // measure 14
0100
0000
0000
0000
,  // measure 15
0010
0000
0000
0000
,  // measure 16
1000
0000
0001
0000
,  // measure 17
1000
0000
0001
0000
,  // measure 18
0100
0000
0010
0000
,  // measure 19
0100
0000
0010
0000
,  // measure 20
1000
0000
0010
0000
,  // measure 21
1000
0000
0010
0000
,  // measure 22
0100
0000
0001
0000
,  // measure 23
0100
0000
0001
0000
,  // measure 24
1001
0000
0000
0000
,  // measure 25
0220
0000
0000
0330
,  // measure 26
1001
0000
0000
0000
,  // measure 27
0220
0000
0000
0330
,  // measure 28
1000
0000
0100
0000
,  // measure 29
0001
0000
0010
0000
,  // measure 30
1000
0000
0001
0000
,  // measure 31
0100
0000
0010
0000
,  // measure 32
0110
0000
0000
0000
,  // measure 33
2002
0000
0000
3003
,  // measure 34
0110
0000
0000
0000
,  // measure 35
2002
0000
0000
3003
,  // measure 36
1000
0000
0100
0000
,  // measure 37
0001
0000
0010
0000
,  // measure 38
1000
0000
0001
0000
,  // measure 39
0100
0000
0010
0000
,  // measure 40
2000
0000
0000
0000
,  // measure 41
3020
0000
0000
0000
,  // measure 42
0230
0000
0000
0000
,  // measure 43
0302
0000
0000
0000
,  // measure 44
0023
0000
0000
0000
,  // measure 45
0230
0000
0000
0000
,  // measure 46
2300
0000
0000
0000
,  // measure 47
3010
0000
0000
0000
,  // measure 48
1001
0000
0000
0000
,  // measure 49
0220
0000
0000
0330
,  // measure 50
1001
0000
0000
0000
,  // measure 51
0220
0000
0000
0330
,  // measure 52
1000
0000
0100
0000
,  // measure 53
0001
0000
0010
0000
,  // measure 54
1000
0000
0001
0000
,  // measure 55
0100
0000
0010
0000
,  // measure 56
0110
0000
0000
0000
,  // measure 57
2002
0000
0000
3003
,  // measure 58
0110
0000
0000
0000
,  // measure 59
2002
0000
0000
3003
,  // measure 60
1000
0000
0100
0000
,  // measure 61
0001
0000
0010
0000
,  // measure 62
1000
0000
0001
0000
,  // measure 63
0100
0000
0010
0000
;
