#TITLE:Burn Me Down;
#SUBTITLE:;
#ARTIST:Kira ft. GUMI (english);
#TITLETRANSLIT:;
#SUBTITLETRANSLIT:;
#ARTISTTRANSLIT:;
#GENRE:;
#CREDIT:;
#BANNER:;
#BACKGROUND:intro.jpg;
#LYRICSPATH:;
#CDTITLE:;
#MUSIC:BurnMeDown.ogg;
#OFFSET:0.000000;
#SAMPLESTART:83.250000;
#SAMPLELENGTH:16.000000;
#SELECTABLE:YES;
#BPMS:0.000000=120.000000
;
#STOPS:
;
#BGCHANGES:;
#KEYSOUNDS:;
#ATTACKS:;

//---------------dance-single - ----------------
#NOTES:
     dance-single:
     :
     Hard:
     12:
     0.566797,0.508044,0.387081,0.080642,0.133059,492.000000,444.000000,48.000000,10.000000,0.000000,0.000000,0.566797,0.508044,0.387081,0.080642,0.133059,492.000000,444.000000,48.000000,10.000000,0.000000,0.000000:
0000
0000
0000
0000
,
0000
0000
0000
0000
,
2000
3100
0010
0100
1000
0001
0100
0010
,
1000
0100
0001
0100
1000
0010
0101
0000
,
0002
0013
0100
1000
0001
0100
0010
1000
,
0001
0100
1000
0100
0001
0100
1010
0000
,
0020
0130
0001
1000
0100
0010
0100
1000
,
0001
0010
1000
0010
0001
0010
1100
0000
,
2000
3010
0100
0001
0010
0100
1000
0100
,
0001
0000
0100
0000
1000
0000
0010
0000
0100
0000
0001
0010
0001
0000
0110
0000
,
1001
0001
0010
0100
1000
0010
0100
0010
,
1000
0100
0001
0100
1000
0010
0101
0000
,
0001
0100
0001
0010
0100
1000
0100
0010
,
1000
0100
0001
0100
1000
0100
0011
0000
,
0100
0010
1000
0100
0010
0001
0100
1000
,
0100
0001
0010
0001
0100
0010
1100
0000
,
0100
1000
0010
0100
0010
1000
0100
0001
,
0100
0000
1000
0000
0010
0000
0100
0000
0001
0000
0100
0010
0100
0000
0010
0000
,
1100
0000
0001
0100
0001
0000
0100
0000
0010
0000
1000
0000
0200
0000
1300
0000
,
0001
0000
0010
0001
0010
0000
0001
0000
0100
0000
0010
0000
1000
0000
0100
0000
,
1000
0000
0001
0100
0001
0000
0010
0000
0001
0000
0100
0000
1000
0000
0100
0000
,
1001
0101
1010
0110
,
1001
0000
0010
1000
0010
0000
0100
0000
0001
0000
0010
0000
0100
0000
1000
0000
,
0010
0000
0100
0010
0100
0000
0001
0000
0100
0000
0010
0000
1000
0000
0100
0000
,
1000
0000
0100
0010
0100
0000
0010
0000
0001
0000
0010
0000
0001
0000
0100
0000
,
1010
0101
1100
0011
,
1100
0000
0001
0100
0001
0000
0100
0000
0010
0000
1000
0000
0200
0000
1300
0000
,
0001
0000
0010
0001
0010
0000
0001
0000
0100
0000
0010
0000
1000
0000
0100
0000
,
1000
0000
0001
0100
0001
0000
0010
0000
0001
0000
0100
0000
1000
0000
0100
0000
,
1001
0101
1010
0110
,
1001
0000
0010
1000
0010
0000
0100
0000
0001
0000
0010
0000
0100
0000
1000
0000
,
0010
0000
0100
0010
0100
0000
0001
0000
0100
0000
0010
0000
1000
0000
0100
0000
,
1000
0000
0100
0010
0100
0000
0010
0000
0001
0000
0010
0000
0001
0000
0100
0000
,
1010
0101
1100
0011
,
1000
0000
0100
0000
0010
0000
0001
0010
0001
0000
0010
0000
0100
0000
1000
0000
,
0010
0000
0100
0000
0010
0000
1000
0100
1000
0000
0010
0000
0100
0000
0001
0000
,
0100
0000
0010
0000
1000
0000
0001
0100
0001
0000
1000
0000
0100
0000
1000
0000
,
0010
0000
0100
0000
0001
0000
0010
0001
0010
0000
0100
0000
1000
0000
0100
0000
,
1000
0000
0010
0000
0100
0000
0001
0000
0010
0000
0000
0100
0010
0000
0001
0000
,
0100
0001
0100
0000
0010
0000
1000
0000
0100
0000
0010
0000
0100
0000
1000
0000
,
0001
0100
0010
1000
0100
1000
0010
0100
,
0001
0000
1000
0000
0010
0100
0010
0000
1000
0000
0100
0000
0010
0000
0001
0000
,
1100
0000
0001
0100
0001
0000
0100
0000
0010
0000
1000
0000
0200
0000
1300
0000
,
0001
0000
0010
0001
0010
0000
0001
0000
0100
0000
0010
0000
1000
0000
0100
0000
,
1000
0000
0001
0100
0001
0000
0010
0000
0001
0000
0100
0000
1000
0000
0100
0000
,
1001
0101
1010
0110
,
1001
0000
0010
1000
0010
0000
0100
0000
0001
0000
0010
0000
0100
0000
1000
0000
,
0010
0000
0100
0010
0100
0000
0001
0000
0100
0000
0010
0000
1000
0000
0100
0000
,
1000
0000
0100
0010
0100
0000
0010
0000
0001
0000
0010
0000
0001
0000
0100
0000
,
1010
0101
1100
0011
,
1100
0000
0001
0100
0001
0000
0100
0000
0010
0000
1000
0000
0200
0000
1300
0000
,
0001
0000
0010
0001
0010
0000
0001
0000
0100
0000
0010
0000
1000
0000
0100
0000
,
1000
0000
0001
0100
0001
0000
0010
0000
0001
0000
0100
0000
1000
0000
0100
0000
,
1001
0101
1010
0110
,
1001
0000
0010
1000
0010
0000
0100
0000
0001
0000
0010
0000
0100
0000
1000
0000
,
0010
0000
0100
0010
0100
0000
0001
0000
0100
0000
0010
0000
1000
0000
0100
0000
,
1000
0000
0100
0010
0100
0000
0010
0000
0001
0000
0010
0000
0001
0000
0100
0000
,
1010
0101
1100
0011
,
2000
0000
0000
0000
,
0002
0000
0000
0000
,
3003
0000
0000
0000
;

//---------------dance-single - ----------------
#NOTES:
     dance-single:
     :
     Medium:
     8:
     0.383625,0.385468,0.233862,0.233862,0.008064,333.000000,304.000000,29.000000,29.000000,0.000000,0.000000,0.383625,0.385468,0.233862,0.233862,0.008064,333.000000,304.000000,29.000000,29.000000,0.000000,0.000000:
0000
0000
0000
0000
,
0000
0000
0000
0000
,
1000
0000
0001
0200
0000
0320
0000
2030
,
0000
3100
0010
0000
0001
0000
0101
0000
,
1000
0000
0001
0200
0000
0320
0000
2030
,
0000
3001
0100
0000
0010
0000
1010
0000
,
0001
0000
0010
0200
0000
0302
0000
2003
,
0000
3010
0100
0000
0101
0000
1010
0000
,
1000
0010
0000
0100
0000
0001
0010
0100
,
1000
0010
0101
0000
,
1000
0000
0001
0000
0100
0010
0100
0000
,
0001
0000
1000
0000
0001
0100
0001
0000
,
1000
0000
0010
0000
0100
0001
0100
0000
,
0002
0203
0320
2030
,
3010
0000
0100
0000
0001
1000
0001
0000
,
1000
0000
0010
0000
0100
0001
0100
0000
,
0010
0000
1000
0000
0100
1000
0010
0000
,
0100
0000
0001
0000
0010
0100
1000
0001
,
0010
0000
0001
1000
0001
0000
0100
0010
,
0100
0000
0001
0010
0100
0000
1000
0100
,
0010
0000
0001
0100
0010
1000
0100
1000
,
0010
0101
1010
0101
,
2000
0000
3010
0100
0001
0000
1000
0100
,
0010
0000
0001
0100
0001
0010
0001
0100
,
0010
0000
1000
0100
1000
0000
0001
0100
,
0010
1010
0101
1010
,
0001
0000
1000
0010
1000
0000
0001
0100
,
0001
0000
0010
0100
0010
0000
1000
0001
,
0100
0000
0010
1000
0001
0100
0010
0100
,
0001
0011
0110
1100
,
1000
0000
0010
0100
0001
0000
0010
0100
,
1000
0000
0001
0100
0001
0000
0010
0100
,
0010
0000
0001
1000
0010
1000
0001
0100
,
0010
1100
0110
0011
,
2000
3010
0200
0301
,
0020
0000
0000
0000
0130
0000
0000
0000
1000
0000
0000
0001
0000
0000
1000
0000
,
0010
0000
1000
0000
0001
0100
0001
0000
,
0010
0000
0100
0000
1000
0001
1000
0000
,
0020
0000
0000
0000
0130
0000
0001
0000
0100
0000
0000
0010
0000
0000
2000
0000
,
0000
3001
0100
0010
1000
0100
1000
0010
,
0000
0200
0000
0302
0000
2003
0000
3020
,
0000
0230
0000
0302
0000
0023
0130
0000
,
0010
0000
0001
1000
0001
0000
0100
0010
,
0100
0000
0001
0010
0100
0000
1000
0100
,
0010
0000
0001
0100
0010
1000
0100
1000
,
0010
0101
1010
0101
,
2000
0000
3010
0100
0001
0000
1000
0100
,
0010
0000
0001
0100
0001
0010
0001
0100
,
0010
0000
1000
0100
1000
0000
0001
0100
,
0010
1010
0101
1010
,
0001
0000
1000
0010
1000
0000
0001
0100
,
0001
0000
0010
0100
0010
0000
1000
0001
,
0100
0000
0010
1000
0001
0100
0010
0100
,
0001
0011
0110
1100
,
1000
0000
0010
0100
0001
0000
0010
0100
,
1000
0000
0001
0100
0001
0000
0010
0100
,
0010
0000
0001
1000
0010
1000
0001
0100
,
0010
1100
0110
0011
,
0002
0000
0000
0000
,
2003
0000
0000
0000
0000
3010
0100
0000
;

//---------------dance-single - ----------------
#NOTES:
     dance-single:
     :
     Easy:
     6:
     0.270726,0.314503,0.241926,0.072578,0.000000,235.000000,205.000000,30.000000,9.000000,0.000000,0.000000,0.270726,0.314503,0.241926,0.072578,0.000000,235.000000,205.000000,30.000000,9.000000,0.000000,0.000000:
0000
0000
0000
0000
,
0000
0000
0000
0000
,
0001
0000
1000
0000
,
0010
0100
0010
0100
,
0001
0000
0010
0000
,
0100
1000
0100
1000
,
0010
0000
0100
0000
,
0001
1000
0001
1000
,
0020
0000
2030
0000
,
3001
0010
0100
1100
,
0011
0000
0001
0100
,
0010
1000
0100
0000
,
1000
0010
0100
0000
,
0001
0010
0100
0010
,
0001
1000
0010
0000
,
0100
0001
0100
0000
,
0010
1000
0001
0100
,
0010
0100
0001
0010
,
1100
0000
0001
0100
,
0010
1000
0100
1000
,
0010
0100
0001
0010
,
0100
1010
0101
1010
,
0020
1030
0001
0100
,
0010
1000
0100
1000
,
0010
0100
0001
0010
,
0100
0011
0110
1001
,
1100
0000
0001
0100
,
0010
1000
0100
1000
,
0010
0100
0001
0010
,
0100
1010
0101
1010
,
0020
1030
0001
0100
,
0010
1000
0100
1000
,
0010
0100
0001
0010
,
0100
0011
0110
1100
,
0002
0000
0103
0010
,
1000
0000
0001
0100
,
0010
1000
0100
1000
,
0001
0100
0010
0100
,
0001
0010
0001
0000
,
0100
0010
1000
0000
,
0001
0100
0010
1000
,
0001
0010
0100
1000
,
1100
0000
0001
0100
,
0010
1000
0100
1000
,
0010
0100
0001
0010
,
0100
1010
0101
1010
,
0020
1030
0001
0100
,
0010
1000
0100
1000
,
0010
0100
0001
0010
,
0100
0011
0110
1001
,
1100
0000
0001
0100
,
0010
1000
0100
1000
,
0010
0100
0001
0010
,
0100
1010
0101
1010
,
0020
1030
0001
0100
,
0010
1000
0100
1000
,
0010
0100
0001
0010
,
0100
0011
0110
1100
,
0002
0000
0000
0000
,
2003
0000
0000
0000
,
3000
0000
0000
0000
;

//---------------dance-single - ----------------
#NOTES:
     dance-single:
     :
     Beginner:
     3:
     0.130179,0.217733,0.120963,0.080642,0.000000,113.000000,98.000000,15.000000,10.000000,0.000000,0.000000,0.130179,0.217733,0.120963,0.080642,0.000000,113.000000,98.000000,15.000000,10.000000,0.000000,0.000000:
// measure 0
0000
0000
0000
0000
,  // measure 1
0000
0000
0000
0000
,  // measure 2
0001
0000
0000
0000
,  // measure 3
1000
0000
0000
0000
,  // measure 4
0001
0000
0000
0000
,  // measure 5
1000
0000
0000
0000
,  // measure 6
0010
0000
0100
0000
,  // measure 7
0010
0000
0100
0000
,  // measure 8
0001
0000
1000
0000
,  // measure 9
0001
0000
1000
0000
,  // measure 10
0010
0000
0000
0000
,  // measure 11
1000
0000
0000
0000
,  // measure 12
0001
0000
0000
0000
,  // measure 13
0100
0000
0000
0000
,  // measure 14
0001
0000
0100
0000
,  // measure 15
0010
0000
1000
0000
,  // measure 16
1001
0000
1000
0000
,  // measure 17
0001
0000
1000
0000
,  // measure 18
0010
0000
0100
0000
,  // measure 19
0010
0000
0100
0000
,  // measure 20
0110
0000
1000
0000
,  // measure 21
0100
0000
0010
0000
,  // measure 22
0001
0000
0010
0000
,  // measure 23
0100
0000
1000
0000
,  // measure 24
0001
0000
0100
0000
,  // measure 25
1010
0000
0101
0000
,  // measure 26
0001
0000
0100
0000
,  // measure 27
0010
0000
1000
0000
,  // measure 28
0100
0000
1000
0000
,  // measure 29
0010
0000
0100
0000
,  // measure 30
1001
0000
0110
0000
,  // measure 31
1001
0000
0110
0000
,  // measure 32
1000
0000
0100
0000
,  // measure 33
0010
0000
0001
0000
,  // measure 34
2000
0000
0000
0000
,  // measure 35
3020
0000
0000
0000
,  // measure 36
0230
0000
0000
0000
,  // measure 37
0302
0000
0000
0000
,  // measure 38
0023
0000
0000
0000
,  // measure 39
0032
0000
0000
0000
,  // measure 40
2003
0000
0000
0000
,  // measure 41
3200
0000
0000
0000
,  // measure 42
0310
0000
0100
0000
,  // measure 43
0010
0000
0100
0000
,  // measure 44
0110
0000
1000
0000
,  // measure 45
0100
0000
0010
0000
,  // measure 46
0001
0000
0010
0000
,  // measure 47
0100
0000
1000
0000
,  // measure 48
0001
0000
0100
0000
,  // measure 49
1010
0000
0101
0000
,  // measure 50
0001
0000
0100
0000
,  // measure 51
0010
0000
1000
0000
,  // measure 52
0100
0000
1000
0000
,  // measure 53
0010
0000
0100
0000
,  // measure 54
1001
0000
0110
0000
,  // measure 55
1001
0000
0110
0000
,  // measure 56
1000
0000
0100
0000
,  // measure 57
0010
0000
0001
0000
,  // measure 58
2000
0000
0000
0000
,  // measure 59
3002
0000
0000
0000
,  // measure 60
0003
0000
0000
0000
;
