#TITLE:Are You Ready;
#SUBTITLE:;
#ARTIST:Getty;
#TITLETRANSLIT:;
#SUBTITLETRANSLIT:;
#ARTISTTRANSLIT:;
#GENRE:;
#CREDIT:;
#BANNER:AYR.png;
#BACKGROUND:AYR.jpg;
#LYRICSPATH:;
#CDTITLE:;
#MUSIC:Are You Ready.ogg;
#OFFSET:0.000000;
#SAMPLESTART:48.000000;
#SAMPLELENGTH:12.000000;
#SELECTABLE:YES;
#BPMS:0.000000=175.000000
,204.000000=87.500000
,220.000000=175.000000
;
#STOPS:
;
#BGCHANGES:;
#KEYSOUNDS:;
#ATTACKS:;

//---------------dance-single - ----------------
#NOTES:
     dance-single:
     :
     Hard:
     15:
     0.759656,1.137615,0.404168,0.356619,0.352657,671.000000,620.000000,51.000000,45.000000,0.000000,0.000000,0.759656,1.137615,0.404168,0.356619,0.352657,671.000000,620.000000,51.000000,45.000000,0.000000,0.000000:
0000
0000
0000
0000
,
0000
0000
0000
0000
,
0000
0000
0000
0000
,
0000
0000
0000
0000
,
0000
0000
0000
0000
,
1001
0000
0110
0000
,
1010
0000
0000
0000
0000
0000
0000
0000
0101
0000
0000
1100
0000
0000
0011
0000
,
1000
0100
0010
0001
0010
0001
0100
0010
,
2000
0000
0000
0000
0000
3010
0100
0001
,
2000
0000
0000
0000
0000
0000
3100
0010
0100
0000
1000
0000
0010
0000
0202
0000
,
0303
0010
1000
0100
0000
1000
0010
0100
,
0022
0000
0000
0000
0033
0000
0001
0100
1000
0000
0100
0000
0010
0000
2010
0000
,
0000
0000
3001
0000
0010
0000
0100
0000
0000
0000
0010
0000
1000
0000
0001
0100
,
2000
0000
0000
0000
0000
0000
3010
0001
0010
0000
1000
0000
0100
0000
0011
0000
,
0000
1000
0100
0020
0000
0031
0100
0010
,
2100
0000
0000
0000
0000
0000
3100
0001
0100
0000
0010
0000
0001
0000
2010
0000
,
0000
0000
3100
0000
0010
0000
0001
0000
0000
0000
0010
0000
0001
0000
1000
0010
,
2000
0000
0000
0000
0000
0000
3100
0010
0100
0000
1000
0000
0010
0000
0202
0000
,
0303
0010
1000
0100
0000
1000
0010
0100
,
0022
0000
0000
0000
0033
0000
0001
0100
1000
0000
0100
0000
0010
0000
2010
0000
,
0000
0000
3001
0000
0010
0000
0100
0000
0000
0000
0010
0000
1000
0000
0001
0100
,
2000
0000
0000
0000
0000
0000
3010
0001
0010
0000
1000
0000
0100
0000
0011
0000
,
0000
1000
0100
0020
0000
0031
0100
0010
,
2100
0000
0000
0000
0000
0000
3100
0001
0100
0000
0010
0000
0001
0000
2010
0000
,
0000
3100
0010
0001
0000
0010
0001
1000
,
0001
0100
0010
1000
0100
0001
0100
1000
,
0110
0001
0010
0001
1000
0010
0001
0010
,
1100
0010
1000
0001
0010
0100
1000
0100
,
0110
0001
0100
0010
1000
0100
0010
0100
,
1010
0100
0001
0100
0011
0100
1000
0100
,
0110
0001
0100
0010
1010
0100
0001
0010
,
0100
0010
0100
0010
0001
0010
0001
0010
0100
1000
0100
1000
0010
1000
0010
1000
,
0010
1000
0100
0001
0100
1000
0010
0000
,
2002
0000
0000
0000
0000
0000
0000
3003
,
0220
0330
0001
0100
1000
0100
0001
0000
,
2001
0000
3010
0000
1000
0100
0001
0000
,
1000
0010
0001
0010
1000
0010
0001
0100
,
1000
0000
0100
0010
0100
0010
0100
0010
0100
0000
0010
0000
1000
0000
0001
0000
,
1000
0000
0010
0000
0001
0000
0010
0000
1000
0000
0100
0000
0010
0001
0010
0000
,
0012
0000
0103
0000
0001
0100
1000
0000
,
0001
0010
1000
0010
0001
0010
1000
0010
,
1001
0000
1000
0100
0010
0100
1000
0001
,
0100
0000
0010
0000
1000
0000
0001
0000
1000
0100
0001
0100
1000
0000
0000
0000
,
1002
0000
0103
0000
0001
0010
1000
0000
,
0001
0100
1000
0100
0001
0100
1000
0010
,
0001
0000
0010
0100
0010
0100
0010
0100
0010
0000
0100
0000
0001
0000
1000
0000
,
0001
0000
0100
0000
1000
0000
0100
0000
0001
0000
0010
0000
0100
1000
0100
0000
,
2100
0000
3010
0000
1000
0010
0001
0000
,
1000
0100
0001
0100
1000
0100
0001
0100
,
1001
0000
0001
0010
0100
0010
0001
1000
,
0010
0000
0100
0000
0001
0000
1000
0000
0001
0010
1000
0010
0001
0000
0000
0000
,
1000
0010
0000
0010
0100
0001
0010
0100
1000
0001
0000
0001
0010
0100
1000
0100
,
0010
0001
0000
0100
0010
1000
0100
0001
0100
1000
0000
0010
0100
0001
0100
1000
,
0001
0010
0000
1000
0100
0010
0100
1000
0001
0010
0000
0100
1000
0100
0010
0001
,
1000
0000
1000
0000
0100
0000
0100
0000
0001
0000
0001
0000
0010
0000
0010
0000
1000
0100
0001
0100
1000
0000
1000
0000
0010
0000
0100
0000
0002
0000
0000
0000
,
1003
0000
0100
0011
0000
0100
0010
1000
,
0000
0001
0100
1000
0100
0001
0010
0100
,
1000
0000
0001
1010
0000
0100
0010
0001
,
0000
1000
0100
0001
0100
1000
0010
0100
,
0001
0000
1000
1100
0000
0010
0001
1000
,
0000
0010
0100
1000
0100
0010
0001
0010
,
0001
0000
1000
0101
0000
1000
0100
0001
,
0100
0000
1000
0010
1000
0000
0010
1000
0010
0000
1000
0000
0100
0000
0010
0000
,
0101
0000
0000
0000
0110
0000
0010
1000
0010
0000
1000
0000
0100
0000
0002
0000
,
0000
0103
1000
0010
0000
0100
0001
0010
,
1100
0000
0000
0000
0011
0000
0001
0010
0100
0000
1000
0000
0010
0000
0002
0000
,
0000
0000
0013
0000
1000
0000
0100
0000
0010
0001
0100
1000
0100
0000
0000
0000
,
1001
0000
0110
0000
,
1010
0000
0000
0000
0000
0000
0000
0000
0101
0000
0000
1100
0000
0000
0011
0000
,
0110
0000
0000
0000
0000
0000
1000
0100
0010
0000
0001
0000
0100
0000
0020
0000
,
0000
1030
0100
1000
0000
0010
0100
0001
,
1010
0000
1000
0000
0100
0000
0010
0001
0010
0000
0100
0000
1000
0000
0010
0000
,
0100
0000
0001
0100
0010
0000
2000
0000
0000
0000
3100
0000
0010
0000
0100
0000
,
1000
0000
0010
0000
0100
0000
0001
0010
0001
0000
0100
0000
1000
0000
0020
0000
,
0000
0000
0130
0010
0100
0000
0002
0000
0000
0000
0013
0000
0100
0000
1000
0010
,
1000
0000
0100
0000
0010
0000
0001
1000
0001
0000
0100
0000
0010
0000
2000
0000
,
0000
0000
3010
0000
0100
0001
0200
0000
0000
0000
0310
0000
1000
0000
0100
0000
,
1000
0000
0001
0000
0010
0000
0001
0010
0100
0000
1000
0000
0010
0000
0200
0000
,
0000
0310
1000
0010
0000
1000
0100
0010
,
0101
0000
0001
0000
0010
0000
0100
1000
0100
0000
0010
0000
1000
0000
0100
0000
,
0010
0000
0001
0010
0100
0000
2000
0000
0000
0000
3010
0000
0100
0000
0010
0000
,
1000
0000
0100
0000
0010
0000
0001
0100
1000
0000
0100
0000
0001
0000
0200
0000
,
0000
0000
0310
0100
0010
0000
2000
0000
0000
0000
3100
0000
0010
0000
0001
0100
,
0001
0000
0010
0000
0100
0000
0001
1000
0001
0000
0010
0000
0100
0000
2000
0000
,
0000
0000
3100
0000
1000
0010
2000
0000
0000
0000
3100
0000
0010
0000
0100
0000
,
0010
0000
0001
0000
0100
0000
1000
0100
0010
0000
0001
0000
1000
0000
0200
0000
,
0000
0310
0001
0010
0000
0100
0001
0000
,
1001
0000
0000
0000
;

//---------------dance-single - ----------------
#NOTES:
     dance-single:
     :
     Medium:
     12:
     0.587573,0.930776,0.206047,0.301145,0.095098,519.000000,493.000000,26.000000,38.000000,0.000000,0.000000,0.587573,0.930776,0.206047,0.301145,0.095098,519.000000,493.000000,26.000000,38.000000,0.000000,0.000000:
0000
0000
0000
0000
,
0000
0000
0000
0000
,
0000
0000
0000
0000
,
0000
0000
0000
0000
,
0000
0000
0000
0000
,
1001
0000
0110
0000
,
1001
0000
0000
0000
0000
0000
0000
0000
1100
0000
0000
0110
0000
0000
0011
0000
,
0001
0100
0010
1000
0100
1000
0010
0100
,
0002
0000
0000
0000
0000
1003
0100
1000
,
0020
0000
0000
1030
0001
0100
0010
2000
,
0000
3002
0000
0203
0000
0310
1000
0100
,
1100
0000
0000
0001
0100
0010
1000
0200
,
0000
1300
0010
0200
0000
0301
0010
0100
,
1100
0010
0100
0001
0010
0100
1000
0020
,
0000
0130
0001
1000
0000
0100
1000
0010
,
0200
0000
0000
0301
0010
0001
0100
0020
,
0000
0000
0130
0000
0001
0000
0100
0000
0000
0000
0010
0000
1000
0000
0001
1000
,
0001
0100
0010
1000
0100
1000
0010
0100
,
0001
0010
0001
0100
0010
1000
0100
1000
,
0010
0100
0001
0010
1000
0010
0001
0100
,
1000
0000
0100
0000
0001
0000
0010
0000
0100
0000
0001
0000
0100
0000
1000
0001
,
1000
0010
0100
0001
0010
0001
0100
0010
,
1000
0100
1000
0010
0100
0001
0010
0100
,
2000
0000
0000
0000
0000
0000
3001
1000
0001
0000
0100
0000
0010
0000
1000
0000
,
0000
0001
0100
0020
0000
0000
0000
0000
,
1030
0000
0100
1000
0010
0000
0100
0001
,
0011
0000
0100
0010
1000
0000
0100
1000
,
1010
0000
0001
0100
0010
0000
1000
0100
,
1000
0000
0000
0000
0010
0000
0100
0000
0001
0000
0000
0000
1000
0001
1000
0001
,
1000
0010
0100
0001
0010
0001
0100
0010
,
1000
0100
0010
0001
0010
0100
0001
0100
,
1000
0010
0100
0001
0010
0001
0100
0010
,
2000
0000
0000
0000
3002
0000
0000
0003
,
2002
0000
0000
3003
,
0220
0000
0000
0330
0010
0000
1000
0000
0100
0000
1000
0000
0010
0000
0000
0000
,
0100
1000
0001
0000
1001
0000
0001
0100
,
0010
1000
0100
1000
0010
0100
0001
0010
,
0100
0000
1000
0000
0001
1000
0001
0000
1000
0000
0010
0000
0100
0000
0001
0000
,
0010
0100
1000
0001
0100
0010
1000
0001
,
1001
0000
0010
0000
1000
0000
0001
0100
,
0010
1000
0100
0000
1000
0010
0100
0000
,
0002
0000
0000
0000
,
1003
0100
0010
0001
0010
0100
1000
0000
,
0001
0100
0001
0000
1000
0000
0010
0100
,
0001
0100
0010
1000
0100
0000
1000
0000
,
0010
0000
0000
0000
0001
1000
0001
0000
0100
0000
0010
0000
1000
0000
0100
0000
,
1000
0010
0100
0101
,
0001
0000
1000
0100
1000
0000
0001
0010
,
0001
0000
0100
0010
0100
0000
0001
0010
,
1000
0000
0100
1000
0010
0100
0001
0010
,
0200
0000
1300
0000
,
0001
0000
1000
0010
0000
0000
0100
0000
0001
0000
1000
0010
0000
0000
1000
0000
,
0100
0000
1000
0010
0000
0000
0100
0000
0001
0000
0010
0001
0000
0000
0100
0000
,
0010
0000
1000
0001
1000
0000
0010
0100
0010
0000
1000
0100
0010
0000
0001
0100
,
0010
1000
0100
1000
0010
0100
0001
0010
0200
0000
1300
0010
0100
0001
0010
0000
,
0200
0000
0000
2300
0000
0000
0000
3020
,
0000
1000
0130
0000
,
0002
0000
0000
2003
0000
0000
0000
3020
,
0000
0100
1030
0100
,
0010
0001
0100
0010
0000
1000
0000
0020
,
0000
0130
0001
1000
0010
0000
0000
0100
,
0000
0001
0010
0100
1000
0000
0010
0100
,
0002
0000
1003
0100
0001
0100
1000
0010
,
0101
0001
1001
1000
,
1010
0010
0110
0100
,
0101
0001
1001
1000
,
1100
0100
0110
0010
,
0001
0100
0010
0100
0001
0010
0100
1000
,
0100
0000
1000
0000
0010
0000
0100
0000
0001
0000
0000
1000
0000
0000
0100
0000
,
2000
0000
0000
0000
0000
0000
3001
1000
0001
0000
0100
0000
0010
0000
2000
0000
,
0000
0000
3001
0100
0000
0000
0010
1000
,
1010
0000
0001
0100
0010
1000
0100
1000
,
0000
0010
0100
0002
0000
0010
0103
0000
,
1000
0000
0001
0000
0100
0010
1000
0100
,
0000
1000
0010
0200
0000
0001
0310
0000
,
0001
0000
0100
0010
1000
0100
1000
0010
,
0100
0001
0010
0200
0000
1000
0310
0000
,
1000
0000
0001
0100
0010
1000
0100
1000
,
0000
0001
0100
0001
0000
1000
0100
0010
,
0110
0000
0001
0100
0010
1000
0100
2000
,
0000
0000
3010
0100
0000
0001
0100
0000
,
0002
0000
1003
0100
1000
0010
0100
0001
,
0000
1000
0010
0100
0000
0001
0010
1000
,
0010
0000
0001
0000
0100
0010
1000
0100
,
0000
1000
0010
0100
0001
0010
0100
1000
,
0001
0000
0000
0000
1000
0010
0100
0002
,
0000
0000
0000
2003
0000
0000
0000
3000
,
1001
0000
0000
0000
;

//---------------dance-single - ----------------
#NOTES:
     dance-single:
     :
     Easy:
     8:
     0.323788,0.586044,0.166422,0.142648,0.000000,286.000000,265.000000,21.000000,18.000000,0.000000,0.000000,0.323788,0.586044,0.166422,0.142648,0.000000,286.000000,265.000000,21.000000,18.000000,0.000000,0.000000:
0000
0000
0000
0000
,
0000
0000
0000
0000
,
0000
0000
0000
0000
,
0000
0000
0000
0000
,
0000
0000
0000
0000
,
1001
0000
0110
0000
,
1010
0000
0101
0000
,
0010
1000
0001
0100
,
0002
0000
0000
0000
,
1003
0000
0010
0000
,
0100
0001
0010
0000
,
0100
0000
1000
0000
,
0001
0010
0001
0000
,
0100
0000
0010
0000
,
1000
0100
1000
0000
,
0001
0000
0010
0000
,
0001
0100
0010
0000
,
1000
0100
1000
0010
,
0100
0010
1000
0001
,
1000
0001
0010
0001
,
0100
0010
2000
0000
,
3001
0100
0010
1000
,
0001
0010
0100
1000
,
0002
0000
1003
0000
,
0010
0100
0001
0000
,
0101
0001
0100
0000
,
1010
0010
1000
0000
,
1100
1000
0100
0000
,
0011
0010
0001
0000
,
0101
0001
0011
0010
,
0110
0100
1100
1000
,
1001
0001
0100
0010
,
1000
0000
0001
0000
,
0220
0000
0000
0330
,
2002
0000
3003
0000
,
0001
0100
0001
0100
,
0010
1000
0010
1000
,
0001
0010
0100
1000
,
0001
0100
0010
1000
,
0010
0100
0010
0100
,
0001
1000
0001
1000
,
0020
0000
0000
0000
,
1030
1000
1000
1000
,
0100
0010
0001
0100
,
0010
1000
0100
1000
,
0001
0100
0010
1000
,
0002
0000
1003
0000
,
0010
0010
1000
1000
,
0100
0100
0010
0010
,
0001
0010
0100
1000
,
0001
0100
0020
0000
,
1030
0001
0100
0010
,
1000
0100
1000
0010
,
0100
0001
0100
0001
1000
0010
1000
0010
,
1000
0100
1000
0100
0010
0001
0010
0001
,
1000
0010
1000
0000
,
0001
0100
0001
0000
,
1000
0001
1000
0000
,
0010
0100
0010
0000
,
1000
0100
1000
0000
,
0001
0010
0001
0000
,
0100
0010
0100
0000
,
0001
1000
0001
0000
,
1000
0100
1000
0100
,
0010
0001
0010
0001
,
1000
0100
0010
0001
,
1000
0010
0100
0001
,
1001
0000
0110
0000
,
1001
0000
0110
0000
,
2002
0000
0000
3003
,
0001
0100
0020
0000
,
1030
0100
1000
0010
,
0100
0001
0020
0000
,
0130
1000
0001
0010
,
0001
0100
0010
0000
,
1000
0100
1000
0010
,
0100
0001
0020
0000
,
0130
1000
0001
0010
,
0001
0100
0010
0000
,
1000
0100
1000
0000
,
0001
0010
0001
0000
,
1000
0001
1000
0000
,
0010
0100
0010
0000
,
1000
0010
1000
0000
,
0001
0100
0001
0000
,
2000
0000
3002
0000
,
0203
0000
0000
0300
,
0101
0000
0000
0000
;

//---------------dance-single - ----------------
#NOTES:
     dance-single:
     :
     Beginner:
     5:
     0.189065,0.310259,0.039624,0.126798,0.000000,167.000000,162.000000,5.000000,16.000000,0.000000,0.000000,0.189065,0.310259,0.039624,0.126798,0.000000,167.000000,162.000000,5.000000,16.000000,0.000000,0.000000:
// measure 0
0000
0000
0000
0000
,  // measure 1
0000
0000
0000
0000
,  // measure 2
0000
0000
0000
0000
,  // measure 3
0000
0000
0000
0000
,  // measure 4
0000
0000
0000
0000
,  // measure 5
0001
0000
1000
0000
,  // measure 6
0001
0000
1000
0000
,  // measure 7
0020
0000
0000
0000
,  // measure 8
0230
0000
0000
0000
,  // measure 9
0301
0000
1000
0000
,  // measure 10
0001
0000
1000
0000
,  // measure 11
0010
0000
0100
0000
,  // measure 12
0010
0000
0100
0000
,  // measure 13
0001
0000
0010
0000
,  // measure 14
0100
0000
1000
0000
,  // measure 15
0001
0000
0100
0000
,  // measure 16
0010
0000
1000
0000
,  // measure 17
0010
0010
0010
0000
,  // measure 18
0100
0100
0100
0000
,  // measure 19
0001
0001
0001
0000
,  // measure 20
1000
1000
1000
0000
,  // measure 21
0010
0100
0010
0000
,  // measure 22
1000
0001
1000
0000
,  // measure 23
2002
0000
0000
0000
,  // measure 24
0000
0000
0000
3003
,  // measure 25
0010
0000
1000
0000
,  // measure 26
0010
0000
1000
0000
,  // measure 27
0001
0000
0100
0000
,  // measure 28
0001
0000
0100
0000
,  // measure 29
0001
0000
1000
0000
,  // measure 30
0001
0000
1000
0000
,  // measure 31
0001
0010
0100
1000
,  // measure 32
1001
0000
0000
0000
,  // measure 33
0220
0000
0000
0330
,  // measure 34
0001
0000
1000
0000
,  // measure 35
0010
0000
0000
0000
,  // measure 36
0100
0000
0000
0000
,  // measure 37
0001
0000
0000
0000
,  // measure 38
1000
0000
0000
0000
,  // measure 39
0001
0000
0010
0000
,  // measure 40
0001
0000
0010
0000
,  // measure 41
0100
0000
1000
0000
,  // measure 42
0100
0000
1000
0000
,  // measure 43
0001
0000
1000
0000
,  // measure 44
0001
0000
0100
0000
,  // measure 45
0010
0000
1000
0000
,  // measure 46
0100
0000
1000
0000
,  // measure 47
0010
0000
0100
0000
,  // measure 48
0001
0000
0010
0000
,  // measure 49
0100
0000
1000
0000
,  // measure 50
0020
0000
0000
0000
,  // measure 51
0130
0001
1000
0010
,  // measure 52
1000
0100
0010
0001
,  // measure 53
1000
0010
0100
0001
,  // measure 54
0010
0001
0100
0010
,  // measure 55
2000
0000
0000
0000
,  // measure 56
3002
0000
0000
0000
,  // measure 57
0203
0000
0000
0000
,  // measure 58
0320
0000
0000
0030
,  // measure 59
0010
0000
1000
0000
,  // measure 60
0100
0000
1000
0000
,  // measure 61
0010
0000
0100
0000
,  // measure 62
0002
0000
0000
0000
,  // measure 63
0103
0000
0100
0000
,  // measure 64
0010
0000
0010
0000
,  // measure 65
1000
0000
1000
0000
,  // measure 66
0001
0000
0001
0000
,  // measure 67
1000
0000
0100
0000
,  // measure 68
0010
0000
0001
0000
,  // measure 69
2002
0000
0000
0000
,  // measure 70
0000
0000
0000
3003
,  // measure 71
1000
0000
0010
0000
,  // measure 72
0100
0000
0001
0000
,  // measure 73
1000
0000
0100
0000
,  // measure 74
0010
0000
0001
0000
,  // measure 75
1000
0000
0001
0000
,  // measure 76
0010
0000
0001
0000
,  // measure 77
1000
0000
0100
0000
,  // measure 78
0010
0000
0100
0000
,  // measure 79
1000
0000
0010
0000
,  // measure 80
0100
0001
0100
0000
,  // measure 81
0001
0000
1000
0000
,  // measure 82
0010
1000
0010
0000
,  // measure 83
0100
0000
0001
0000
,  // measure 84
1000
0100
1000
0000
,  // measure 85
0020
0000
0000
0000
,  // measure 86
0230
0000
0000
0300
,  // measure 87
0110
0000
0000
0000
;
