#VERSION:0.83;
#TITLE:퀸카;
#SUBTITLE:;
#ARTIST:(여자)아이들;
#TITLETRANSLIT:Queencard;
#SUBTITLETRANSLIT:;
#ARTISTTRANSLIT:(G)I-DLE;
#GENRE:K-Pop;
#CREDIT:CUBE;
#MUSIC:Queencard.ogg;
#BANNER:Queencard.png;
#BACKGROUND:BG.png;
#JACKET:Queencard-jacket.png;
#DISCIMAGE:;
#CDIMAGE:;
#SELECTABLE:YES;
#LYRICSPATH:;
#CDTITLE:Korean.png;
#SAMPLESTART:51.565;
#SAMPLELENGTH:15.000;
#BPMS:0.000000=130.000000;
#STOPS:;
#WARPS:;
#DELAYS:;
#SPEEDS:;
#SCROLLS:;
#TICKCOUNTS:;
#TIMESIGNATURES:;
#LABELS:;
#COMBOS:;
#FAKES:;
#BGCHANGES:0.000=Queencard.avi=0.000=0=0=0=StretchNoLoop====,
99999=-nosongbg-=1.000=0=0=0 // don't automatically add -songbackground-
;
#FGCHANGES:;
#ATTACKS:;
#DISPLAYBPM:130.000;

//---------------dance-single - Wrland---------------
#NOTEDATA:;
#CHARTNAME:;
#CHARTSTYLE:Pad;
#CREDIT:Wrland;
#STEPSTYPE:dance-single;
#DESCRIPTION:Wrland;
#DIFFICULTY:Beginner;
#METER:3;
#METERF:3;
#RADARVALUES:0,0,0,0,0;
#NOTES:
// measure 0
0000
0000
0000
0000
,  // measure 1
0000
0000
0000
0000
,  // measure 2
0000
0000
0000
0000
,  // measure 3
0000
0000
0000
0000
,  // measure 4
0000
1000
0000
0000
,  // measure 5
0000
0100
0000
0000
,  // measure 6
0000
0001
0000
0000
,  // measure 7
0000
0010
0000
0000
,  // measure 8
0000
0100
0000
0000
,  // measure 9
0000
0001
0000
0000
,  // measure 10
0000
0010
0000
0000
,  // measure 11
0000
0010
0000
0000
,  // measure 12
0000
0100
0000
0000
,  // measure 13
0000
0100
0000
0000
,  // measure 14
0000
0001
0000
0000
,  // measure 15
0000
0010
0000
0000
,  // measure 16
0000
0010
0000
0000
,  // measure 17
0000
0100
0000
0000
,  // measure 18
0000
0100
0000
0000
,  // measure 19
0000
0001
0000
0000
,  // measure 20
0000
0200
0000
0000
,  // measure 21
0000
0300
0000
0000
,  // measure 22
0000
2000
0000
0000
,  // measure 23
0000
0000
0000
3000
,  // measure 24
0000
0100
0000
0000
,  // measure 25
0000
0010
0000
0000
,  // measure 26
0000
0001
0000
0000
,  // measure 27
0000
1000
0000
0000
,  // measure 28
0000
0100
0000
0000
,  // measure 29
0000
0001
0000
0000
,  // measure 30
0000
0010
0000
0000
,  // measure 31
0000
1000
0000
0200
,  // measure 32
0300
1000
0000
0000
,  // measure 33
0000
0010
0000
0000
,  // measure 34
0000
0010
0000
0000
,  // measure 35
0000
0100
0000
0000
,  // measure 36
0000
0100
0000
0000
,  // measure 37
0000
0010
0000
0000
,  // measure 38
0000
0001
0000
0000
,  // measure 39
0000
0100
0000
0000
,  // measure 40
0000
0010
0000
0000
,  // measure 41
0000
1000
0000
0000
,  // measure 42
0000
1000
0000
0000
,  // measure 43
0000
0010
0000
0000
,  // measure 44
0000
1000
0000
0000
,  // measure 45
0000
0001
0000
0000
,  // measure 46
0000
1000
0000
0000
,  // measure 47
0000
0001
0000
0000
,  // measure 48
0000
0100
0000
0000
,  // measure 49
0000
0010
0000
0000
,  // measure 50
0000
0100
0000
0100
,  // measure 51
0000
0010
0000
0010
;

//---------------dance-single - Wrland---------------
#NOTEDATA:;
#CHARTNAME:;
#CHARTSTYLE:Pad;
#CREDIT:Wrland;
#STEPSTYPE:dance-single;
#DESCRIPTION:Wrland;
#DIFFICULTY:Easy;
#METER:5;
#METERF:5;
#RADARVALUES:0,0,0,0,0;
#NOTES:
// measure 0
0000
0000
0000
0000
,  // measure 1
0000
0000
0000
0000
,  // measure 2
0000
0000
0000
0000
,  // measure 3
0000
0000
0000
0000
,  // measure 4
0000
1000
0000
1000
,  // measure 5
0000
0100
0000
0010
,  // measure 6
0000
0001
0000
0100
,  // measure 7
0000
0010
0000
0000
,  // measure 8
0000
0100
0000
0010
,  // measure 9
0000
0001
0000
0100
,  // measure 10
0000
0010
0000
0100
,  // measure 11
0000
0010
0000
0000
,  // measure 12
0000
0100
0000
1000
,  // measure 13
0000
0100
0000
0010
,  // measure 14
0000
0001
0000
0100
,  // measure 15
0000
0010
0000
0100
,  // measure 16
0000
0010
0000
0001
,  // measure 17
0000
0100
0000
1000
,  // measure 18
0000
0100
0000
0010
,  // measure 19
0000
0001
0000
1000
,  // measure 20
0000
0100
0000
0100
,  // measure 21
0000
0010
0000
0001
,  // measure 22
0000
1000
0000
0100
,  // measure 23
0000
0010
0000
0001
,  // measure 24
0000
0100
0000
0100
,  // measure 25
0100
0010
0000
0010
,  // measure 26
0010
0001
0000
1000
,  // measure 27
0001
1000
0000
0000
,  // measure 28
0100
0100
0000
0010
,  // measure 29
0000
0001
0000
0100
,  // measure 30
0000
0010
0000
0100
,  // measure 31
0000
1000
0000
0200
,  // measure 32
0300
1000
0000
0100
,  // measure 33
0000
0010
0000
0100
,  // measure 34
0000
0010
0000
0001
,  // measure 35
0000
0100
0000
0010
,  // measure 36
0000
0100
0000
0100
,  // measure 37
0000
0010
0000
0010
,  // measure 38
0000
0001
0000
0001
,  // measure 39
0000
0100
0000
0000
,  // measure 40
0000
0010
0000
0100
,  // measure 41
0000
1000
0000
0100
,  // measure 42
0000
1000
0000
0100
,  // measure 43
0000
0010
0000
0001
,  // measure 44
0000
1000
1000
1000
,  // measure 45
0000
0001
0001
0001
,  // measure 46
0000
1000
1000
1000
,  // measure 47
0000
0001
0001
0001
,  // measure 48
0000
0100
0100
0100
,  // measure 49
0000
0010
0010
0010
,  // measure 50
0000
0100
0010
0100
,  // measure 51
0000
0010
0100
0010
,  // measure 52
0100
0000
0000
0000
;

//---------------dance-single - Wrland---------------
#NOTEDATA:;
#CHARTNAME:;
#CHARTSTYLE:Pad;
#CREDIT:Wrland;
#STEPSTYPE:dance-single;
#DESCRIPTION:Wrland;
#DIFFICULTY:Medium;
#METER:8;
#METERF:8;
#RADARVALUES:0,0,0,0,0;
#NOTES:
// measure 0
0000
0000
0000
0000
,  // measure 1
0000
0000
0000
0000
,  // measure 2
0000
0000
0000
0000
,  // measure 3
0000
0000
0000
0000
,  // measure 4
0000
0001
0000
0001
,  // measure 5
0000
0001
1000
0001
,  // measure 6
0000
1000
0000
1000
,  // measure 7
0000
1000
0001
1000
,  // measure 8
0000
0001
0000
0100
,  // measure 9
0000
0010
0100
0010
,  // measure 10
0000
0100
1000
0100
,  // measure 11
1000
0100
0000
0100
,  // measure 12
0010
0001
0100
0001
,  // measure 13
0100
0000
0010
0100
0010
0002
0000
0003
,  // measure 14
0100
0010
0100
1000
,  // measure 15
0100
0000
1000
0100
0010
0200
0000
0300
,  // measure 16
0100
0010
0001
0100
,  // measure 17
0010
0000
0100
0010
0100
0002
0003
0100
,  // measure 18
0010
0100
0010
0001
,  // measure 19
0100
0000
0000
0000
0010
0000
0000
0000
0100
0000
0000
0020
0000
0000
0000
0000
,  // measure 20
0030
0000
0000
0000
0000
0000
0000
0000
0000
0000
0100
0000
1000
0000
0000
0100
,  // measure 21
0000
0000
1000
0000
0100
0000
0000
0010
0000
0000
0100
0000
0010
0000
0000
0001
,  // measure 22
0000
0000
0100
0000
0000
0000
0000
0000
0000
0000
0010
0000
0100
0000
0000
0010
,  // measure 23
0000
0000
0001
0000
0010
0000
0000
0100
0000
0000
0010
0000
0100
0000
0000
1000
,  // measure 24
0000
0100
1000
0000
1001
0000
0001
0000
,  // measure 25
1001
1000
1001
0001
,  // measure 26
1001
0000
0000
0000
0100
0000
0010
0000
0100
0000
0010
0000
0001
0000
0010
0100
,  // measure 27
0010
0100
0000
0000
0000
0000
0000
0000
,  // measure 28
0010
0000
0110
0000
1000
0100
1000
0000
,  // measure 29
0100
0000
0010
0000
0001
0100
0001
0000
,  // measure 30
0100
0000
0110
0000
0100
1000
0100
0000
,  // measure 31
1000
0000
0000
0000
0100
0000
0000
0100
0000
0000
0100
0000
0000
0000
0000
0000
,  // measure 32
0100
0010
0001
0100
,  // measure 33
0010
0000
0100
0010
0100
0000
0010
0000
,  // measure 34
0001
0000
0000
0000
0000
0000
0100
0000
0010
0000
0000
0000
0100
0000
0000
0010
,  // measure 35
0000
0000
0001
0000
0100
0000
0000
0000
0010
0000
0000
0000
0100
0000
0000
1000
,  // measure 36
0000
0100
1000
0100
,  // measure 37
1000
0100
0010
0001
,  // measure 38
0000
0100
0001
0100
,  // measure 39
0010
0100
1000
0000
,  // measure 40
0000
0100
0010
0001
,  // measure 41
0100
0010
0100
1000
,  // measure 42
0100
0010
0001
0100
,  // measure 43
0010
0100
0010
0001
,  // measure 44
0000
0000
0100
0000
0010
0001
0100
1000
,  // measure 45
0100
0010
0000
0100
0010
0001
0100
0010
,  // measure 46
0100
0000
0010
0000
0001
0010
0100
0010
,  // measure 47
0100
1000
0000
0100
1000
0100
0010
0001
,  // measure 48
0100
0000
0010
0000
0100
0010
0001
0100
,  // measure 49
0010
0100
0000
1000
0100
1000
0100
0010
,  // measure 50
0001
0000
0000
0000
0100
0000
0000
0000
0010
0000
0000
0000
0100
0000
0000
0010
,  // measure 51
0000
0000
0001
0000
0100
0000
0010
0000
0100
0000
1000
0000
0100
0000
0000
1000
;

//---------------dance-single - Wrland---------------
#NOTEDATA:;
#CHARTNAME:;
#CHARTSTYLE:Pad;
#CREDIT:Wrland;
#STEPSTYPE:dance-single;
#DESCRIPTION:Wrland;
#DIFFICULTY:Hard;
#METER:10;
#METERF:10;
#RADARVALUES:0,0,0,0,0;
#NOTES:
// measure 0
0000
0000
0000
0000
,  // measure 1
0000
0000
0000
0000
,  // measure 2
0000
0000
0000
0000
,  // measure 3
0000
0000
0000
0000
,  // measure 4
0000
0200
0300
0100
,  // measure 5
0000
0000
0100
0010
0000
0100
0010
0000
,  // measure 6
0001
0000
0100
0000
1000
0000
0100
1000
,  // measure 7
0000
0100
0010
0000
0001
0000
0100
0000
,  // measure 8
0000
0200
0300
0010
,  // measure 9
0000
0000
0001
0010
0000
0100
0000
1000
,  // measure 10
0100
1000
0100
0000
0010
0000
0100
0010
,  // measure 11
0000
0001
0100
0000
0010
0000
0100
0010
,  // measure 12
0001
0100
0010
0100
0010
0000
0100
0010
,  // measure 13
0100
0010
0001
0100
0010
0200
0300
0000
,  // measure 14
0100
0010
0001
0100
1000
0000
0100
1000
,  // measure 15
0100
0000
0010
0001
0100
0020
0030
0100
,  // measure 16
0010
0001
0100
0010
0100
0000
1000
0100
,  // measure 17
1000
0000
0100
0010
0001
0200
0300
0010
,  // measure 18
0100
0010
0001
0100
0010
0001
0100
0010
,  // measure 19
0100
0000
0010
0000
0001
0000
0100
0000
0010
0000
0000
0100
0000
0000
1000
0000
,  // measure 20
0100
0000
0000
0000
2000
0000
0000
0000
3000
0000
0100
0000
1000
0000
0000
0100
,  // measure 21
0000
0000
0010
0000
0001
0000
0000
0100
0000
0000
0010
0000
0001
0000
0000
0100
,  // measure 22
0000
0000
0020
0000
0000
0000
0030
0000
0000
0000
0100
0000
0010
0000
0000
0001
,  // measure 23
0000
0000
0100
0000
0010
0000
0000
0100
0000
0000
1000
0000
0100
0000
0000
0010
,  // measure 24
0000
0000
0001
0000
0100
0000
0000
0000
0010
0000
0100
0000
0010
0000
0000
0001
,  // measure 25
0000
0000
0100
0000
0010
0000
0000
0100
0000
0000
1000
0000
0000
0000
0001
0000
,  // measure 26
0100
0010
0100
0010
0100
0010
0001
0100
,  // measure 27
0010
0200
0000
0300
0000
0000
0000
0000
,  // measure 28
0010
0000
0110
0000
1000
0100
1000
0000
,  // measure 29
0100
0010
0001
0100
0010
0100
1000
0000
,  // measure 30
0100
0000
0110
0000
0001
0100
0010
0000
,  // measure 31
0100
0000
0010
0000
1000
0000
0000
1000
0000
0000
0002
0000
0000
0000
0003
0000
,  // measure 32
0100
0000
0011
0000
0100
0010
0100
0000
,  // measure 33
0010
0001
0100
0010
0100
1000
0100
0000
,  // measure 34
2000
0000
3000
0000
0000
0000
0100
0000
1000
0000
0100
0000
0010
0000
0000
0001
,  // measure 35
0000
0000
0100
0000
0010
0000
0100
0000
1000
0000
0100
0000
0010
0000
0000
0001
,  // measure 36
0000
0100
0010
0000
0010
0000
0110
0000
,  // measure 37
0100
0100
0110
1000
,  // measure 38
1000
0001
0001
1001
,  // measure 39
1000
0100
1100
0000
,  // measure 40
0000
0100
1000
1100
,  // measure 41
0100
0010
0011
0001
,  // measure 42
0010
0100
0010
0110
,  // measure 43
0100
0000
1000
0000
0100
0000
0000
0000
1100
0000
0000
0000
0100
0010
0100
0000
,  // measure 44
0010
0001
0100
0000
0010
0100
0010
0001
,  // measure 45
0100
0010
0000
0100
0010
0100
1000
0001
,  // measure 46
0200
0000
1300
0000
0100
0010
0001
0100
,  // measure 47
0010
0100
0000
0100
0010
0100
0001
0100
,  // measure 48
0020
0000
0130
0000
0010
0100
1000
0100
,  // measure 49
0010
0001
0000
0100
0010
0100
0010
0001
,  // measure 50
0200
0000
0000
0000
0310
0000
0100
0000
0001
0000
0010
0000
0100
0000
0000
0010
,  // measure 51
0000
0000
0100
0000
0010
0000
0001
0000
0100
0000
0010
0000
0100
0000
0000
1000
;

//---------------dance-single - Wrland---------------
#NOTEDATA:;
#CHARTNAME:;
#CHARTSTYLE:Pad;
#CREDIT:Wrland;
#STEPSTYPE:dance-single;
#DESCRIPTION:Wrland;
#DIFFICULTY:Challenge;
#METER:12;
#METERF:12;
#RADARVALUES:0,0,0,0,0;
#NOTES:
// measure 0
0000
0000
0000
0000
,  // measure 1
0000
0000
0000
0000
,  // measure 2
0000
0000
0000
0000
,  // measure 3
0000
0000
0000
0000
,  // measure 4
0000
0000
0002
0000
0000
0003
1000
0000
,  // measure 5
0000
0000
0001
1000
0000
0001
0000
1000
,  // measure 6
0100
0010
0100
0000
0100
0000
0010
0100
,  // measure 7
0000
0000
0010
0000
0000
0000
0001
0000
0100
0000
0000
0000
0010
0000
0100
0010
,  // measure 8
0100
0000
0000
0000
0020
0000
0000
0000
0000
0030
0000
0000
0100
0000
0000
0000
,  // measure 9
0000
0000
1000
0100
0000
1000
0000
0100
,  // measure 10
0010
0000
0001
0000
0100
0000
0000
0000
0001
0000
0000
0000
0100
0000
0001
0100
,  // measure 11
0001
0000
0100
0000
0010
0000
0000
0000
0100
0000
0010
0000
0100
0000
0010
0100
,  // measure 12
0010
0100
1000
0100
1000
0100
0010
0001
,  // measure 13
0100
0010
0100
0010
0001
0200
0300
0010
,  // measure 14
0100
1000
0100
0000
0010
0000
0100
0000
0010
0000
0001
0000
0100
0000
0010
0000
,  // measure 15
0010
0100
0010
0001
0010
0002
0003
0010
,  // measure 16
0001
0010
0001
0000
0010
0000
0100
0000
0010
0000
0001
0000
0100
0000
0010
0000
,  // measure 17
0100
1000
0100
1000
0100
0020
0030
0001
,  // measure 18
0100
0001
0100
0010
0100
0010
0001
0100
,  // measure 19
0010
0000
0100
0000
0010
0000
0100
0000
1000
0000
0000
0100
0000
0000
0010
0000
,  // measure 20
0002
0000
0000
0000
0000
0000
0000
0000
0003
0000
0100
0000
0010
0000
0000
0001
,  // measure 21
0000
0000
0100
0000
0010
0000
0000
0100
0000
0000
1000
0000
0100
0000
0000
1000
,  // measure 22
0000
0000
0100
0000
0000
0000
0000
0000
0000
0000
0100
0000
0010
0000
0000
0001
,  // measure 23
0000
0000
0100
0000
0010
0000
0000
0100
0000
0000
0010
0000
0001
0000
0000
0100
,  // measure 24
0000
0000
0010
0000
0001
0000
1000
0000
0100
0000
1000
0000
0100
0000
0000
0010
,  // measure 25
0000
0000
0100
0000
0010
0000
0000
0001
0000
0000
0200
0000
0000
0300
0010
0000
,  // measure 26
0100
0000
0001
0000
0100
0000
0010
0000
0100
0000
0010
0000
0001
0010
0100
0010
,  // measure 27
0100
0010
0100
0010
0101
0000
0000
0000
1100
0000
0000
0000
0101
0000
0000
0000
,  // measure 28
0020
0000
0130
0000
0100
1000
0100
0000
,  // measure 29
0100
0010
0001
0100
0010
0100
1000
0100
,  // measure 30
0020
0000
0031
0000
0100
0010
0100
0000
,  // measure 31
0010
0000
0001
0000
0100
0000
0000
0010
0000
0000
0200
0000
0000
0000
0300
0000
,  // measure 32
0020
0000
0031
0100
0010
0100
1000
0000
,  // measure 33
0100
0000
1000
0000
0100
1000
0100
0000
0100
0000
0010
0000
0002
0000
0000
0000
,  // measure 34
0103
0000
0000
0000
0000
0000
0010
0000
0100
0000
0010
0000
0001
0000
0000
0100
,  // measure 35
0000
0000
0010
0000
0100
0000
0010
0000
0001
0000
0100
0000
0010
0000
0000
0100
,  // measure 36
0000
0000
0010
0000
0001
0010
0000
0000
1100
0000
0000
0000
0011
0000
0000
0000
,  // measure 37
0010
0000
0100
0000
0010
0100
0000
0000
0011
0000
0000
0000
0100
0000
0010
0000
,  // measure 38
0001
0000
0100
0000
1000
0100
0000
0000
1100
0000
0000
0000
0011
0000
0000
0000
,  // measure 39
0001
0000
0100
0000
0001
0100
0000
0000
0011
0000
0000
0000
0010
0100
0000
0000
,  // measure 40
0010
0100
0000
0000
0010
0000
0001
0000
0010
0000
0001
0000
0110
0000
0000
0000
,  // measure 41
0100
0010
0101
0000
0110
0000
0001
0100
,  // measure 42
0010
0100
1000
0100
1100
0000
0110
0000
,  // measure 43
0100
0000
0010
0000
1001
0000
0000
0000
0110
0000
0000
0000
0010
0100
0010
0100
,  // measure 44
0010
0100
0020
0030
0100
0010
0100
0010
,  // measure 45
0100
2000
3000
0100
1000
0100
0010
0001
,  // measure 46
0200
0000
0000
0300
0010
0000
0000
0000
0100
0000
0010
0000
0001
0000
0100
0000
,  // measure 47
0010
0100
0000
0100
1000
0100
0010
0001
,  // measure 48
0200
0000
0000
0300
0010
0000
0000
0000
0100
0000
1000
0000
0100
0000
1000
0000
,  // measure 49
0100
0010
0000
0001
0100
0010
0100
1000
,  // measure 50
0200
0000
0000
0300
0010
0000
0010
0000
0100
0000
0010
0000
0001
0000
0000
0100
,  // measure 51
0000
0000
0010
0000
0100
0000
0010
0000
0001
0000
0100
0000
0010
0000
0000
0100
,  // measure 52
0000
0000
0000
0000
0001
0010
0000
0000
0100
0000
1000
0000
0100
0000
1000
0000
,  // measure 53
0100
0010
0000
0000
0000
0000
0000
0000
;
