#TITLE:I LOVE SAKURA;
#SUBTITLE:;
#ARTIST:CHERRY BLOSSOMS(ASAKI & wac);
#TITLETRANSLIT:;
#SUBTITLETRANSLIT:;
#ARTISTTRANSLIT:;
#GENRE:BEMANI;
#CREDIT:Wrland;
#MUSIC:I LOVE SAKURA.ogg;
#BANNER:I LOVE SAKURA.png;
#BACKGROUND:I LOVE SAKURA-bg.png;
#CDTITLE:REFLEC BEAT.png;
#SAMPLESTART:40.775;
#SAMPLELENGTH:15.000;
#SELECTABLE:YES;
#OFFSET:-0.020;
#BPMS:0.000=106.000
,16.000=212.000
;
#STOPS:254.000=0.283;
#DISPLAYBPM:106.000:212.000;
#JACKET:I LOVE SAKURA-jacket.png;
#DISCIMAGE:;
#CDIMAGE:;
#BGCHANGES:;
#FGCHANGES:;

//--------------- dance-single - Wrland ----------------
#NOTES:
     dance-single:
     Wrland:
     Beginner:
     3:
     0,0,0,0,0:
0000
0000
0000
0000
,
0000
0000
0000
0000
,
0000
0000
0000
0000
,
0000
0000
0000
0000
,
0100
0000
0000
0000
,
1000
0000
0000
0000
,
0100
0000
0000
0000
,
0100
0000
0000
0000
,
0010
0000
0000
0000
,
0010
0000
0000
0000
,
0200
0000
0000
0000
,
0000
0000
0000
0000
0000
0000
0000
0300
,
0010
0000
0000
0000
,
0100
0000
0000
0000
,
0100
0000
0000
0000
,
0001
0000
0000
0000
,
2000
0000
0000
0000
,
0000
0000
0000
0000
0000
0000
0000
3000
,
0001
0000
0000
0000
,
0100
0000
0000
0000
,
0010
0000
0000
0000
,
0010
0000
0000
0000
,
0002
0000
0000
0000
,
0000
0000
0000
0000
0000
0000
0000
0003
,
0100
0000
0000
0000
,
0100
0000
0000
0000
,
0010
0000
0000
0000
,
0100
0000
0000
0000
,
0010
0000
0000
0000
,
0001
0000
0000
0000
,
1000
0000
0000
0000
,
0100
0000
0000
0000
,
0100
0000
0100
0000
,
0010
0000
0010
0000
,
0001
0000
0001
0000
,
0100
0000
0100
0000
,
1000
0000
1000
0000
,
0100
0000
0100
0000
,
0200
0000
0000
0000
,
0000
0000
0000
0300
,
0100
0000
0100
0000
,
0100
0000
0001
0000
,
0100
0000
0100
0000
,
0010
0000
0100
0000
,
0100
0000
0100
0000
,
1000
0000
0010
0000
,
0200
0000
0000
0000
,
0000
0000
0000
0000
0000
0000
0000
0300
,
0010
0000
0000
0000
,
0001
0000
0000
0000
,
0100
0000
0000
0000
,
1000
0000
0000
0000
,
0001
0000
0000
0000
,
0100
0000
0000
0000
,
0100
0000
0000
0000
,
0100
0000
0000
0000
,
0020
0000
0000
0000
,
0000
0000
0000
0000
,
0000
0000
0000
0000
,
0030
0000
0000
0000
,
2000
0000
0000
0000
,
0000
0000
0000
0000
0000
0000
0000
3000
,
0010
0000
0000
0000
,
0100
0000
0000
0100
,
0000
0100
0000
0010
,
0000
0010
0000
0001
,
0000
0001
0000
1000
,
0000
1000
0000
0100
,
0000
0100
0000
0010
,
0000
0010
0000
0200
,
0000
0000
0000
0000
,
0000
0000
0000
0000
0000
0300
1000
0000
,
0000
0000
0000
0100
,
0000
0000
0000
0100
,
0000
0000
0000
0100
,
0000
0000
0000
0010
,
0000
0000
0000
0001
,
0000
0000
0000
0001
,
0000
0000
0000
0100
;

//--------------- dance-single - Wrland ----------------
#NOTES:
     dance-single:
     Wrland:
     Easy:
     7:
     0,0,0,0,0:
0000
0000
0000
0000
,
0000
0000
0000
0000
,
2000
0000
3002
0000
,
2003
0000
0000
3000
,
0100
0010
0100
0000
,
1000
0100
1000
0000
,
0100
0010
0001
0000
,
0100
0010
0100
0000
,
0010
0001
0100
0000
,
0010
0100
0010
0000
,
0100
0000
0000
0100
0000
0000
0100
0000
,
1000
0000
0000
1000
0000
0000
1000
0000
,
0100
0000
1000
0000
,
0100
1000
0100
0000
,
0100
0000
0010
0000
,
0001
0100
0001
0000
,
2000
0000
0000
0000
,
3002
0000
0000
0000
,
1003
0000
0100
1000
,
0100
0000
0100
0000
,
0010
0001
0100
0000
,
0010
0000
0100
0010
,
0001
0000
0100
0000
,
0010
0100
0010
0000
,
0001
0100
0010
0000
,
0100
1000
0100
0000
,
0100
0010
0001
0000
,
0100
0010
0100
0000
,
0010
0000
0010
0000
,
0001
0000
0100
0000
,
1000
0100
1000
0000
,
0100
0010
0001
0000
,
0100
0100
0100
0000
,
0010
0010
0010
0000
,
0001
0001
0001
0000
,
0100
0100
0100
0000
,
1000
1000
1000
0000
,
0100
0100
0100
0000
,
0100
0000
0000
0010
0000
0000
0001
0000
,
0100
0000
0000
0100
0000
0000
1000
0000
,
0100
1000
0100
0000
,
0100
0010
0001
0000
,
0100
0010
0100
0000
,
0010
0001
0100
0000
,
0100
1000
0100
0000
,
1000
0100
0010
0000
,
0100
0000
0000
0100
0000
0000
0010
0000
,
0001
0000
0000
0001
0000
0000
0100
0000
,
0010
0100
0010
0000
,
0001
0100
0001
0000
,
0100
1000
0100
0000
,
1000
0100
0010
0000
,
0001
0100
0010
0000
,
0100
0010
0001
0000
,
0100
0000
0000
0100
0000
0000
1000
0000
,
0100
0000
0000
1000
0000
0000
0100
0000
,
0020
0000
0000
0000
,
0230
0000
0000
0000
,
0320
0000
0000
0000
,
0032
0000
0000
0000
,
2003
0000
0000
0000
,
3200
0000
0000
0000
,
0320
0000
0000
0000
,
0000
0030
0000
0100
,
0100
0100
0000
0010
,
0010
0010
0000
0001
,
0001
0001
0000
1000
,
1000
1000
0000
0100
,
0100
0100
0000
0010
,
0010
0010
0000
0100
,
0000
0010
0000
0000
0001
0000
0100
0000
,
0000
0010
0000
0000
0100
0000
1000
0000
,
0100
1000
0100
0010
,
0100
0010
0001
0100
,
0010
0100
1000
0100
,
0010
0001
0100
0100
,
0000
0100
0000
0000
0010
0000
0001
0000
,
0000
0100
0000
0000
0010
0000
0001
0000
,
0000
0100
0000
0000
0010
0000
0100
0000
,
0000
1000
0000
0000
0100
0000
0000
0000
;

//--------------- dance-single - Wrland ----------------
#NOTES:
     dance-single:
     Wrland:
     Medium:
     8:
     0,0,0,0,0:
0000
0000
0000
0000
,
0000
0000
0000
0000
,
2000
0000
3002
0000
,
1003
0000
0100
0000
1000
0000
0100
0000
0010
0000
0001
0000
0100
0010
0100
0000
,
0010
0000
0100
0000
0010
0000
0001
0100
,
0001
0100
0010
0100
,
2000
0000
0000
0000
3000
0000
0100
1000
,
0100
0010
0001
0100
,
0020
0000
0000
0000
0030
0000
0100
0010
,
0100
0010
0001
0100
,
0010
0000
0000
0100
0000
0000
0010
0000
,
0001
0000
0000
0100
0000
0000
0010
0000
,
0100
0000
0100
0100
,
0010
0000
0100
0010
,
0001
0100
1000
0000
,
0100
1000
0100
0010
,
0002
0000
0000
0003
,
2000
0000
0000
3000
,
0100
0010
0001
0100
,
0010
0100
1000
0100
,
0010
0000
0001
0200
0000
0000
0300
0000
,
0010
0100
0010
0001
,
0200
0000
0000
0300
,
0010
0001
0100
0010
,
0100
0000
0010
0000
0100
0010
0000
0001
,
1000
0100
1000
0100
,
1000
0000
0100
1000
0000
0100
0000
0000
,
0010
0000
0001
0000
0100
0010
0001
0100
,
0010
0100
0010
0001
,
0100
0010
0001
0100
,
0020
0000
0000
0030
0200
0000
0000
0300
,
2000
0000
0000
3000
0200
0000
0000
0300
,
2000
0000
3000
0100
,
0010
0000
0001
0000
0100
0000
0010
0100
,
0020
0000
0000
0000
0030
0000
0100
0010
,
0100
0010
0001
0100
,
0020
0000
0000
0000
0030
0000
0100
1000
,
0100
1000
0100
0010
,
0002
0000
0003
0100
0000
0000
0010
0000
,
0002
0000
0003
0100
0000
0000
0010
0000
,
0002
0000
0000
0000
0003
0000
0100
1000
,
0100
1000
0100
0010
,
0002
0000
0000
0000
0003
0000
0100
0010
,
0100
0010
0001
0100
,
0020
0000
0000
0000
0030
0000
0010
0001
,
0010
0100
0010
0100
,
2000
0000
3000
0100
0000
0000
1000
0000
,
0200
0000
0300
0100
0000
0000
0010
0000
,
0001
0000
0100
0000
0010
0100
0010
0001
,
0100
0010
0100
1000
,
0100
0000
1000
0000
0100
1000
0100
1000
,
0100
0010
0001
0100
,
0010
0000
0001
0000
0100
0010
0100
0000
,
1000
0000
0100
0000
1000
0100
1000
0000
,
0100
0010
0001
0100
,
0010
0001
0100
0010
,
0200
0000
0000
0000
,
0320
0000
0000
0000
,
0032
0000
0000
0000
,
2003
0000
0000
0000
,
3001
0000
0000
1000
0000
0000
0100
0000
,
0010
0000
0000
0010
0000
0000
0001
0000
,
0100
0000
0010
0000
0100
0010
0100
0000
,
0010
0001
0000
0100
,
0010
0000
0100
0000
0010
0100
0010
0000
,
0001
0100
0010
0100
,
1000
0000
0100
0000
1000
0100
1000
0000
,
0100
0010
0001
0100
,
0010
0100
0010
0001
,
0100
0010
0001
0100
,
0000
0100
0000
0000
0010
0000
0001
0000
,
0000
0001
0000
0000
0100
0000
1000
0000
,
0100
1000
0100
0010
,
0001
0100
0010
0001
,
0100
0010
0001
0100
,
1000
0100
1000
0100
,
0010
0001
0100
0010
,
0001
0100
0010
0001
,
0000
0100
0000
0000
0010
0000
0100
0000
,
0000
1000
0000
0000
0100
0000
0000
0000
;

//--------------- dance-single - Wrland ----------------
#NOTES:
     dance-single:
     Wrland:
     Hard:
     10:
     0,0,0,0,0:
0000
0000
0000
0000
,
0000
0000
0000
0000
,
0200
0300
0010
0100
0020
0030
0001
0100
,
0010
0000
0100
0010
0000
1000
0100
0000
0020
0000
0000
0000
0000
0000
0030
0000
,
0200
0000
0000
0000
0300
0000
0010
0100
,
0010
0001
0100
1000
,
0200
0000
0000
0000
0300
0000
1000
0100
,
1000
0100
0010
0001
,
0200
0000
0000
0000
0300
0000
0010
0100
,
0010
0001
0100
0010
,
0200
0000
0300
0020
0000
0030
0001
0000
,
0200
0000
0300
0020
0000
0030
0100
0000
,
1000
0000
0100
0000
1000
0200
0300
2000
,
0000
3000
0100
0000
0010
0000
0001
0000
,
0100
0000
0010
0200
0000
0000
0300
0000
,
0001
0100
0010
0100
,
2000
0000
0000
3000
,
0200
0000
0000
0300
,
0010
0000
0100
0000
0001
0100
0000
0010
,
0200
0300
0010
0000
0001
0000
0100
0000
,
0010
0000
0100
2000
0000
0000
0000
3000
,
0100
0000
0010
0100
0010
0000
0001
0000
,
0100
0000
0010
0100
0010
0000
0001
0000
,
0100
0000
0010
0001
0000
0100
1000
0000
,
0100
0000
0010
0000
0001
0100
0000
0020
,
0000
0030
0100
0000
1000
0000
0100
1000
,
0100
0000
0010
0100
0001
0020
0000
0030
,
0100
0000
0010
0000
0001
0100
0010
0000
,
0100
0000
0010
0000
0001
0000
0100
0010
,
0100
1000
0100
0010
,
0002
0000
0000
0003
0200
0000
0000
0300
,
2000
0000
0000
3000
0200
0000
0000
0000
,
0320
0000
0000
0000
0030
0000
0010
0100
,
0020
0030
0002
0003
0200
0300
0020
0030
,
2000
0000
0000
0000
3000
0000
0100
1000
,
0100
0000
2000
3000
0200
0300
0020
0030
,
0002
0000
0000
0000
0003
0000
0100
0010
,
0200
0300
0020
0030
0002
0003
0200
0300
,
0010
0000
0001
0100
0000
1000
0010
0000
,
0001
0100
0000
0010
0100
0000
0010
0000
,
0002
0003
0100
0000
0010
0100
0010
0001
,
0200
0300
0020
0030
0200
0300
2000
3000
,
0200
0000
0000
0000
0300
0000
1000
0100
,
2000
3000
0200
0300
0020
0030
0002
0003
,
0200
0000
0000
0000
0300
0000
0100
0010
,
0200
0300
0020
0030
0002
0003
0200
0300
,
0020
0030
0100
0010
0000
0001
0100
0000
,
0010
0000
0100
0010
0000
1000
0100
0010
,
1000
0000
0100
0000
1000
0100
0000
1000
,
0000
0100
0000
0010
0000
0001
0100
0001
,
0100
0000
0010
0000
0100
1000
0000
0100
,
0000
1000
0000
0100
0000
0010
0100
0010
,
0100
0001
0010
0000
0100
0010
0100
0000
,
0010
0001
0100
0000
0010
0100
1000
0000
,
0100
0000
0010
0100
0000
0010
0001
0000
,
0100
0000
0010
0100
0000
1000
0100
0000
,
2000
0000
0000
0000
3000
0000
0100
0010
,
0200
0300
0002
0003
0200
0300
0020
0030
,
0002
0000
0000
0000
0003
0000
0100
0010
,
0200
0300
2000
3000
0200
0300
2000
3000
,
0200
0000
0000
0000
0300
0000
0100
0010
,
0200
0300
0020
0030
0002
0003
0200
0300
,
0020
0000
0100
1000
0000
0100
1000
0000
,
0130
0000
0010
0100
0000
0000
0020
0000
,
0130
0000
0010
0000
0001
0100
0020
0030
,
0200
0300
2000
3000
0200
0300
2000
0000
,
0000
0000
3000
0000
0100
1000
0200
0300
,
0020
0030
0002
0003
0200
0300
0020
0000
,
0000
0000
0030
0000
0001
0100
0002
0003
,
0200
0300
0020
0030
0200
0300
0010
0000
,
0001
0100
0000
0010
0100
0000
1000
0000
,
0100
1000
0100
0010
0001
0000
0100
0000
,
0010
0000
0001
0010
0100
0001
0010
0000
,
1000
0100
0010
0001
,
0100
0001
0100
0010
0100
1000
0100
0000
,
0010
0001
0100
0010
,
0001
0100
0010
0001
0100
0000
0010
0000
,
0100
0010
0100
1000
0100
0000
0010
0000
,
0001
0000
0100
0010
0100
0000
1000
0000
,
0100
1000
0000
0100
0010
0000
0000
0000
;

//--------------- dance-single - Wrland ----------------
#NOTES:
     dance-single:
     Wrland:
     Challenge:
     13:
     0,0,0,0,0:
0000
0000
0000
0000
,
0000
0000
0000
0000
,
0100
0000
0010
0000
0100
0010
0100
0000
0010
0000
0001
0000
0100
0001
0100
0000
,
0010
0000
0001
0100
0000
0100
1000
0000
0100
0000
1000
0100
1000
0001
0100
0000
,
2000
0000
0100
0000
0010
0100
3010
0100
,
0001
0010
0100
0000
0100
0010
0001
0000
0010
0000
0100
0000
0100
0000
0010
0000
,
0002
0000
0100
1000
0100
1000
0103
0010
,
0100
1000
0100
0000
0010
0100
0010
0000
0001
0000
0010
0000
0100
0000
1000
0000
,
0020
0000
0001
0100
0001
0100
1030
0100
,
0010
0001
0010
0000
0100
1000
0100
0000
0010
0100
0010
0000
0001
0000
0010
0000
,
0100
0000
0010
0000
0100
0010
0001
0000
,
0100
0000
0001
0100
0000
0001
0100
0000
,
0010
0000
0100
0000
0010
0200
0300
0010
,
0100
0000
0001
0000
0100
0001
0010
0100
,
0020
0030
0100
2000
3000
0100
0010
0100
,
0010
0000
0002
0003
0100
1000
0100
0010
,
0002
0003
0100
0010
1000
0100
1000
0000
,
0200
0300
0010
0100
0010
0100
0010
0000
,
0001
0000
0100
0000
0010
0100
0001
0010
,
0200
0300
0100
0010
1000
0010
0100
0010
,
0002
0003
0100
0010
0200
0300
0001
0010
,
0100
0000
0010
0100
1000
0000
0100
0000
,
0010
0000
0100
1000
0010
0001
0100
0000
,
0010
0000
0100
0010
0000
0100
0010
0000
,
0001
0000
0010
0000
0100
0010
0100
0001
,
0200
0300
0010
0000
0100
0000
1000
0100
,
1000
0000
0100
0001
0010
0200
0300
0001
,
0010
0000
0100
0000
0010
0001
0100
0010
,
2000
0000
0010
0000
0001
0100
0010
0000
,
3100
0000
0010
0001
0100
0000
0010
0000
,
0001
0000
0100
0010
0001
0010
0100
0000
,
0010
0000
0100
1000
0200
0010
0001
1000
,
0320
0030
0100
0000
1000
0100
1000
0100
,
0020
0030
0002
0003
0200
0300
0020
0030
,
0001
0010
0100
0010
0100
0010
0100
1000
,
0200
0300
0020
0030
0002
0003
0200
0300
,
0010
0100
0001
0100
0010
0100
1000
0100
,
0020
0030
0002
0003
0100
0010
0100
1000
,
0001
0010
0100
1000
0010
0100
0010
1000
,
0100
0000
0001
0010
1100
0000
0011
0000
,
0200
0300
0010
0001
0100
1000
0010
0001
,
0200
0300
0020
0030
0200
0300
2000
3000
,
0100
0010
1000
0100
1000
0100
0010
0001
,
0200
0300
0020
0030
0002
0003
0100
0010
,
0200
0300
1000
0010
0100
0010
0001
0100
,
0020
0030
0200
0300
2000
3000
0200
0300
,
0001
0010
0100
0000
0010
0001
0000
0100
,
0010
1000
0100
0010
0001
0100
0010
1000
,
0100
0001
0100
0000
0010
0000
0001
0000
0100
0000
0010
0000
0001
0000
0100
0000
,
0010
0100
1000
0000
0010
0000
0100
0000
0010
0000
0100
0000
0010
0000
0001
0000
,
0100
0010
0100
0000
0010
0000
0100
0000
0001
0000
0100
0000
0001
0000
0010
0000
,
0100
0010
1000
0000
0010
0000
0100
0000
1000
0000
0100
0000
0010
0000
0001
0000
,
0100
0010
0001
0000
0010
0000
0100
0000
0001
0000
0100
0000
0010
0000
0100
0000
,
1000
0010
0100
0000
0010
0000
0001
0000
0100
0000
0010
0000
0100
0000
1000
0000
,
0100
0010
0100
0000
0010
0000
0000
0000
0010
0000
0100
0000
0000
0000
0001
0000
,
0100
0000
0010
0100
1000
0100
0010
0001
,
0200
0000
0000
0000
0300
0010
0100
0010
,
0002
0003
0200
0300
0020
0030
0200
0300
,
2000
0000
0000
0000
0000
3000
0100
0010
,
0002
0003
0200
0300
0020
0030
0002
0003
,
0200
0000
0000
0000
0000
0300
0010
0100
,
0020
0030
0002
0003
0200
0300
0020
0030
,
0200
0000
0010
0000
0001
0010
0001
0000
,
0010
0000
1000
0010
1300
0000
0100
0001
,
0010
0100
0001
0000
0100
0010
0200
0300
,
2000
3000
0200
0300
0020
0030
0001
1000
,
0100
0010
0100
0010
0001
0100
0020
0030
,
2000
3000
0200
0300
0020
0030
0001
0010
,
0100
0010
0100
0010
0100
1000
0200
0300
,
0020
0030
0002
0003
0200
0300
0020
0030
,
0001
0000
0100
0000
0010
0000
0100
0000
1000
0000
0000
0000
0100
0010
0001
0000
,
0010
0100
1000
0010
0002
0003
0100
0001
,
0110
0000
0100
0010
0011
0000
0010
0100
,
1001
0000
0100
0010
1100
0000
0100
1000
,
0110
0000
0001
0010
0101
0000
0100
0010
,
1100
0000
0100
0001
1010
0000
0100
0001
,
1010
0000
0010
0100
0011
0000
0010
0001
,
1100
0000
1000
0010
1100
0000
0010
0100
,
0001
0100
0000
0010
0100
0000
1000
0010
,
0100
0010
0001
0100
1000
0000
0110
0000
;
