#VERSION:0.83;
#TITLE:BACK AGAIN;
#SUBTITLE:;
#ARTIST:크나큰;
#TITLETRANSLIT:;
#SUBTITLETRANSLIT:;
#ARTISTTRANSLIT:KNK;
#GENRE:K-Pop;
#CREDIT:YNB;
#MUSIC:BACK AGAIN.ogg;
#BANNER:BACK AGAIN.png;
#BACKGROUND:BG.png;
#CDTITLE:Korean.png;
#SAMPLESTART:50.979;
#SAMPLELENGTH:15.000;
#SELECTABLE:YES;
#OFFSET:0.000;
#BPMS:0.000=102.000
,1.000=128.000
;
#STOPS:;
#DISPLAYBPM:128.000;
#JACKET:BACK AGAIN-jacket.png;
#DISCIMAGE:;
#CDIMAGE:;
#BGCHANGES:0.000=BACK AGAIN.mp4=0.000=0=0=0=StretchNoLoop====,
99999=-nosongbg-=1.000=0=0=0 // don't automatically add -songbackground-
;
#FGCHANGES:;

//--------------- dance-single - Wrland ----------------
#NOTEDATA:;
#STEPSTYPE:dance-single;
#DESCRIPTION:Wrland;
#DIFFICULTY:Beginner;
#METER:1;
#RADARVALUES:0,0,0,0,0;
#CHARTNAME:;
#CHARTSTYLE:Pad;
#CREDIT:Wrland;
#METERF:1;
#NOTES:
0000
0000
0000
0000
,
0000
0000
0000
0000
,
0000
0000
0000
0000
,
0000
0000
0000
0000
,
0000
2000
0000
0000
,
0000
0000
0000
0000
,
3000
0002
0000
0000
,
0000
0000
0000
0003
,
0000
0100
0000
0000
,
0000
0100
0000
0000
,
0000
0010
0000
0000
,
0000
0010
0000
0000
,
0000
0100
0000
0000
,
0000
0100
0000
0000
,
0000
1000
0000
0000
,
0000
1000
0000
0000
,
0000
0200
0000
0000
,
0000
0000
0000
0300
,
0000
0020
0000
0000
,
0000
0000
0000
0000
,
0030
0002
0000
0000
,
0000
0000
0000
0000
,
0003
2000
0000
0000
,
0000
0000
0000
0000
,
3000
0000
1001
0000
,
0000
0000
0000
0000
,
0000
0001
0000
0000
,
0000
0000
0000
0000
,
0000
1000
0000
0000
,
0000
1000
0000
0000
,
0000
0001
0000
0000
,
0000
0000
0000
0000
,
0000
0110
0000
0000
,
0000
0000
0000
0000
,
0000
0100
0000
0000
,
0000
0000
0000
0000
,
0000
1000
0000
0000
,
0000
1000
0000
0000
,
0000
0001
0000
0000
,
0000
0000
0000
0000
,
0000
1000
0000
0000
,
0000
0000
0000
0000
,
0000
0001
0000
0000
,
0000
0000
0000
0000
,
0000
1000
0000
0000
,
0000
0000
0000
0000
,
0000
0001
0000
0000
,
0000
0000
0000
0000
,
0000
0000
0000
0000
,
0000
0000
0000
0000
,
0000
0000
0000
0000
,
0000
0000
0000
0000
,
0000
0000
0000
0000
,
0000
0000
0000
0000
,
0000
0000
0000
0000
,
0000
0000
0000
0000
,
0000
0000
1001
0000
,
0000
0000
0000
0000
,
0000
1000
0000
0000
,
0000
0000
0000
0000
,
0000
0001
0000
0000
,
0000
0100
0000
0000
,
0000
0010
0000
0000
,
0000
0000
0000
0000
,
0000
0101
0000
0000
,
0000
0000
0000
0000
,
0000
1000
0000
0000
,
0000
0000
0000
0000
,
0000
0100
0000
0000
,
0000
0100
0000
0000
,
0000
0010
0000
0000
;

//--------------- dance-single - Wrland ----------------
#NOTEDATA:;
#STEPSTYPE:dance-single;
#DESCRIPTION:Wrland;
#DIFFICULTY:Easy;
#METER:4;
#RADARVALUES:0,0,0,0,0;
#CHARTNAME:;
#CHARTSTYLE:Pad;
#CREDIT:Wrland;
#METERF:4;
#NOTES:
0000
0000
0000
0000
,
0000
0000
0000
0000
,
0000
0000
0000
0000
,
0000
0000
0000
0000
,
0000
2000
0000
0000
,
0000
0000
0000
0000
,
3000
0002
0000
0000
,
0000
0000
0000
0003
,
0000
0100
0000
0010
,
0000
0100
0100
0100
,
0000
0010
0000
0001
,
0000
0010
1000
0100
,
0000
0100
0000
0010
,
0000
0100
0001
0100
,
0000
1000
0000
0100
,
0000
1000
0100
0010
,
0000
0200
0000
0000
,
0000
0000
0000
0300
,
0000
0020
0000
0000
,
0000
0000
0000
0000
,
0030
0002
0000
0000
,
0000
0000
0000
0000
,
0003
2000
0000
0000
,
0000
0000
0000
0000
,
3000
0000
1001
0000
,
0000
1000
0000
0000
,
0000
0001
0000
0000
,
0000
1000
0000
0000
,
0000
1000
0001
1000
,
0000
0001
1000
0001
,
0000
0100
0000
0000
,
0000
0010
0000
0000
,
0000
0110
0000
0000
,
0000
1000
0000
0000
,
0000
0100
0000
0000
,
0000
0010
0000
0000
,
0000
1000
0001
1000
,
0000
0001
1000
0001
,
0000
0100
0000
0000
,
0000
0010
0000
0000
,
0000
1000
0000
0001
,
0000
0100
0010
0100
,
0000
0001
0000
1000
,
0000
0001
1000
0001
,
0000
1000
0000
0100
,
0000
0010
0100
0010
,
0000
0001
0000
0100
,
0000
0010
0100
0010
,
0000
0000
0000
0000
,
0000
0000
0000
0000
,
0000
0000
0000
0000
,
0000
0000
0000
0000
,
0000
0000
0000
0000
,
0000
0000
0000
0000
,
0000
0000
0000
0000
,
0000
0000
0000
0000
,
0000
0000
1001
0000
,
0000
0001
0000
0000
,
0000
1000
0000
0000
,
0000
0100
0000
0000
,
0000
0001
0010
0001
,
0000
0100
1000
0100
,
0000
0010
0000
0000
,
0000
0100
0000
0000
,
0000
0101
0000
0000
,
0000
0010
0000
0000
,
0000
1000
0000
0000
,
0000
0100
0000
0000
,
0000
0100
0010
0001
,
0000
0100
1000
0100
,
0000
0010
0000
0000
,
0000
0100
0000
0000
;

//--------------- dance-single - Wrland ----------------
#NOTEDATA:;
#STEPSTYPE:dance-single;
#DESCRIPTION:Wrland;
#DIFFICULTY:Medium;
#METER:7;
#RADARVALUES:0,0,0,0,0;
#CHARTNAME:;
#CHARTSTYLE:Pad;
#CREDIT:Wrland;
#METERF:7;
#NOTES:
0000
0000
0000
0000
,
0000
0000
0000
0000
,
0000
0000
0000
0000
,
0000
0000
0000
0000
,
0000
0100
0010
0001
,
0000
0100
0010
0100
,
0000
0000
0000
0000
1000
0000
0000
0000
0100
0000
0000
0000
1000
0000
0000
1000
,
0000
0000
0001
0000
1000
0000
0000
0000
0001
0000
0000
0000
1000
0000
0000
0100
,
0000
1000
0100
0000
0010
0000
0001
0000
,
0000
0100
0010
0001
,
0000
0100
0010
0100
,
0000
1000
0100
1000
,
0000
0100
0010
0100
,
0000
0010
0001
0100
,
0000
0010
0001
0100
,
0000
0010
0100
1000
,
0000
0100
0000
0110
,
0000
0001
0000
1001
,
0000
1000
0000
1100
,
0000
0100
0000
0110
,
0000
0001
0001
0001
,
0000
0100
0100
0010
,
0000
0100
1000
0100
,
0000
0002
0000
0003
,
0100
0010
0100
0000
0110
0000
0001
0000
,
0100
0010
0000
0200
0000
0000
0300
0000
,
0010
0100
1000
0100
,
0000
1000
0000
0100
1000
0000
0200
0000
,
0300
0000
0000
0000
0010
0000
0000
0010
0000
0000
0110
0000
0000
0000
0000
0000
,
0000
0000
0000
0000
0100
0000
0000
0100
0000
0000
0110
0000
0000
0000
0000
0000
,
0000
0000
0000
0000
0010
0000
0000
0000
0001
0000
0000
0000
0100
0000
0000
0010
,
0000
0100
0010
0000
0001
0000
0100
0000
,
0010
1000
1001
0100
,
0001
0100
0000
0010
0100
0000
0010
0000
,
0000
0000
0001
0000
0100
0000
0010
0100
,
0001
0010
0001
0000
0100
0000
0010
0000
,
0000
0000
0000
0000
0100
0000
0000
0100
0000
0000
0100
0000
0000
0000
0000
0000
,
0000
0000
0000
0000
1000
0000
0000
1000
0000
0000
1000
0000
0000
0000
0000
0000
,
0000
0000
0000
0000
0100
0000
0000
0000
0010
0000
0000
0000
0001
0000
0000
0100
,
0000
0010
0100
0000
0010
0000
0001
0000
,
0100
0000
0010
0000
0100
0000
0010
0001
,
0100
0010
0000
0100
0000
1000
0100
0000
,
1000
0100
0000
0010
0000
0001
0100
0010
,
0100
0010
0000
0001
0100
0000
0010
0000
,
0001
0100
0010
0000
0100
0000
1000
0100
,
1000
0100
0000
0100
0010
0001
0100
0010
,
0100
0000
0010
0000
0000
0000
0001
0000
0100
0000
0001
0100
0010
0000
0100
0000
,
0010
0001
0200
0000
0000
0000
0310
0000
,
0000
0000
0110
0000
,
1001
0000
0000
0000
,
0000
0000
1100
0000
,
0110
0000
0000
0000
,
0000
0000
0110
0000
,
1001
0000
0000
0000
,
0000
0000
1100
0000
,
0011
0000
0000
0000
0000
0000
0000
1000
,
0001
1000
0001
0000
1001
0000
0100
0000
,
0010
0100
0000
0010
0002
0000
0003
0000
,
0100
0000
0010
0000
0100
0000
0010
0001
,
0000
0100
0000
0010
0001
0000
0200
0000
,
0300
0000
0000
0000
0100
0000
0000
0100
0000
0000
0100
0000
0000
0000
0000
0000
,
0000
0000
0000
0000
0010
0000
0000
0010
0000
0000
0010
0000
0000
0000
0000
0000
,
0000
0000
0000
0000
0001
0000
0000
0000
0100
0000
0000
0000
0010
0000
0000
0100
,
0000
0010
0001
0000
0100
0000
0010
0000
,
0100
1000
0100
0000
1000
0000
0100
1000
,
0100
0010
0000
0001
0100
0000
0010
0000
,
0000
0000
0001
0000
0100
0000
0010
0100
,
0000
0010
0000
0001
0100
0000
0010
0000
,
0000
0000
0000
0000
0100
0000
0000
0100
0000
0000
0100
0000
0000
0000
0000
0000
,
0000
0000
0000
0000
0010
0000
0000
0010
0000
0000
0010
0000
0000
0000
0000
0000
,
0000
0000
0000
0000
0001
0000
0000
0000
0100
0000
0000
0000
0010
0000
0000
0100
,
0000
1000
0100
0000
0000
0100
0010
0000
,
0001
0100
0010
0000
0000
0000
0000
0000
;

//--------------- dance-single - Wrland ----------------
#NOTEDATA:;
#STEPSTYPE:dance-single;
#DESCRIPTION:Wrland;
#DIFFICULTY:Hard;
#METER:11;
#RADARVALUES:0,0,0,0,0;
#CHARTNAME:;
#CHARTSTYLE:Pad;
#CREDIT:Wrland;
#METERF:11;
#NOTES:
0000
0000
0000
0000
,
0000
0000
0000
0000
,
0000
0000
0000
0000
,
0000
0000
0000
0000
,
0000
0000
0000
0000
1000
0000
0000
0000
0001
0000
0000
0000
1000
0000
0000
0001
,
0000
0000
1000
0000
0001
0000
0000
0000
0001
0000
0000
0000
1000
0000
0000
0001
,
0000
0000
1000
0000
0001
0000
0000
0000
1000
0000
0000
0000
0001
0000
0000
1000
,
0000
0000
0001
0000
1000
0000
0000
0001
0000
0000
1000
0000
0001
0000
0000
1000
,
0000
0000
0001
0000
0100
0000
0010
0000
0100
0000
0010
0000
0001
0010
0000
0100
,
0000
0000
1000
0000
0100
0000
1000
0000
0100
0000
0010
0000
0001
0010
0000
0100
,
0000
0010
0001
0000
0010
0000
0100
1000
,
0100
0000
1000
0000
0100
0000
0010
0100
,
0010
0000
0000
0000
0000
0000
0001
0000
0100
0000
0010
0000
0100
0000
0000
0010
,
0000
0000
0100
0000
0010
0000
0001
0000
0100
0000
0010
0000
1000
0100
0000
0100
,
0000
0010
0100
0010
0001
0000
0100
0010
,
0100
0000
0000
0000
0010
0000
0000
0001
0000
0000
0100
0000
0010
0000
0100
0000
,
0010
0100
0020
0000
0030
0100
1000
0000
,
0100
1000
0000
0100
0000
0010
0100
0010
,
0001
0100
0000
0010
0000
0100
0010
0001
,
0100
0010
0000
0200
0000
0300
0010
0000
,
0100
0010
0001
0000
0100
0000
0010
0100
,
1000
0100
0000
1000
0000
0100
1000
0100
,
0010
0001
0010
0000
0010
0001
0010
0100
,
0010
0000
0100
0000
0010
0000
0000
0100
0000
0000
0010
0000
0000
0001
0000
0000
,
0010
0100
0010
0000
0110
0000
1000
0100
,
1000
0100
0000
0010
0100
0000
0010
0000
,
0001
0100
0010
0000
0100
0000
0010
0001
,
0100
0010
0000
0100
0010
0100
2000
0000
,
3100
0000
0000
0000
1000
0000
0000
1000
0000
0000
0001
0000
0000
0001
0000
0000
,
0100
0000
0010
0000
0100
0000
0000
0100
0000
0000
0010
0000
0000
0010
0000
0000
,
0001
0000
0100
0000
0010
0000
0001
0000
0100
0000
0010
0000
0100
0000
0000
0010
,
0000
0100
0010
0000
0001
0100
0010
0100
,
1000
0100
1100
0000
0100
0000
0010
0001
,
0100
0010
0000
0100
0010
0000
0001
0000
,
0100
0010
0002
0000
0103
0000
0010
0100
,
0010
0001
0000
0100
0010
0001
0100
0010
,
0100
0000
0010
0000
0100
0000
0000
0100
0000
0000
0010
0000
0000
0010
0000
0000
,
0001
0000
0100
0000
0001
0000
0000
0001
0000
0000
0100
0000
0000
0100
0000
0000
,
0010
0000
0100
0000
1000
0000
0100
0000
1000
0000
0100
0000
0010
0000
0000
0001
,
0000
0100
0010
0000
0100
0010
0001
0100
,
0010
0100
0010
0000
0100
0000
0000
0000
0010
0000
0000
0000
0100
0000
0001
0000
,
0100
1000
0000
0100
0000
1000
0100
0010
,
0001
0010
0000
0001
0000
0010
0100
0010
,
0100
1000
0000
0100
0010
1000
0000
0100
,
0010
0100
0010
0000
0001
0000
0000
0000
0100
0000
0000
0000
0010
0000
0100
0000
,
1000
0100
0000
1000
0100
1000
0100
0010
,
0001
0000
0100
0000
0001
0000
0000
0000
0100
0000
0010
0100
0010
0000
0100
0000
,
0010
0001
0200
0000
0000
0000
0020
0000
,
0330
0100
0010
0000
,
0100
0000
0010
0000
0001
0000
0100
0010
,
0100
0000
1000
0100
,
1000
0000
0100
0000
0010
0000
0100
0010
,
0001
0100
0010
0100
,
0010
0000
0100
0000
0010
0000
0001
0100
,
0010
0100
1000
0100
,
1000
0000
0000
0000
0100
0000
0000
0100
0000
0000
0010
0000
0001
0000
0100
0000
,
0010
0100
0010
0000
0110
0000
0010
0001
,
0100
0010
0000
0100
1000
0000
0100
0000
,
1000
0100
0010
0100
0001
0010
0100
0000
,
0010
0001
0000
0100
0010
0100
2000
0000
,
3100
0000
0000
0000
0001
0000
0000
0001
0000
0000
1000
0000
0000
1000
0000
0000
,
1000
0000
0001
0000
1000
0000
0000
1000
0000
0000
0001
0000
0000
0001
0000
0000
,
0100
0000
0010
0000
0100
0000
0010
0000
0100
0000
0010
0000
0001
0000
0000
0100
,
0000
0010
0100
0000
0010
0001
0100
0010
,
0100
0010
1001
0000
0010
0000
0100
1000
,
0100
1000
0000
0100
0010
0001
0010
0000
,
0100
0010
0002
0000
0103
0000
0010
0100
,
1000
0100
0000
1000
0100
0000
0010
0000
,
0001
0000
0000
0000
0100
0000
0000
0100
0000
0000
0010
0000
0000
0010
0000
0000
,
0001
0000
0010
0000
0100
0000
0000
0100
0000
0000
1000
0000
0000
1000
0000
0000
,
0100
0000
1000
0000
0100
0000
0010
0000
0100
0000
0010
0000
0001
0000
0000
0100
,
0000
0010
0100
0000
0010
0001
0100
0000
,
0010
0100
0010
0000
0000
0000
0000
0000
;

//--------------- dance-single - Wrland ----------------
#NOTEDATA:;
#STEPSTYPE:dance-single;
#DESCRIPTION:Wrland;
#DIFFICULTY:Challenge;
#METER:14;
#RADARVALUES:0,0,0,0,0;
#CHARTNAME:;
#CHARTSTYLE:Pad;
#CREDIT:Wrland;
#METERF:14;
#NOTES:
0000
0000
0000
0000
,
0000
0000
0000
0000
,
0000
0000
0000
0000
,
0000
0000
0000
0000
,
0000
0000
0000
0000
0100
0000
0000
0000
0010
0000
0100
0000
0010
0000
0000
0100
,
0000
0000
0010
0000
0001
0100
0000
0000
0010
0000
0100
0000
1000
0000
0000
0100
,
0000
0000
1000
0000
0100
1000
0000
0000
0100
0000
0010
0000
0001
0000
0000
0100
,
0000
0000
0010
0000
0100
0010
0000
0100
0000
0000
0010
0000
0100
0010
0000
0100
,
0000
0000
0010
0000
0001
0000
1000
0000
0001
0000
1000
0000
0001
1000
0000
0001
,
0000
0000
1000
0000
0100
0000
1000
0000
0100
1000
0100
0000
0010
0100
0000
0001
,
0000
0000
0010
0001
0100
0000
0010
0100
0010
0000
0010
0000
0100
1000
0000
0000
,
0100
0000
0010
0010
0100
0000
0010
0001
0010
0000
0100
0010
0100
0000
0010
0100
,
0010
0001
0000
0000
0100
0000
0010
0000
0100
0000
0010
0000
0001
0000
0010
0100
,
0000
0000
1000
0000
0100
0000
0010
0000
0100
0000
0010
0000
0001
0100
0000
0001
,
0000
0100
0010
0100
0010
0000
0100
0000
0010
0000
0001
0000
0100
0010
0100
0000
,
0010
0100
0100
0010
0100
0010
0001
0010
0100
0000
1000
0010
0100
0000
0110
0000
,
0010
0100
0020
0000
0030
0100
0010
0001
,
0100
0000
0020
0000
0000
0030
0100
0000
0000
0000
1000
0000
0100
0000
1000
0000
,
0100
0000
0020
0000
0000
0030
0001
0000
0000
0000
0100
0000
0010
0000
0001
0000
,
0100
0000
0020
0000
0000
0030
0100
0000
0010
0000
0001
0000
0100
0000
0000
0000
,
0010
0000
0001
0000
0200
0000
0000
0300
0010
0000
0001
0000
0010
0000
0100
0000
,
1000
0200
0300
1000
0100
1000
0100
0010
,
0001
0100
0020
0030
0100
0010
0001
0100
,
0010
0000
0100
0000
0010
0001
0000
0010
0100
0000
1000
0000
0010
0100
0000
0010
,
0100
0010
0002
0000
1003
0100
1000
0100
,
0010
0002
0003
0100
0010
0000
0001
1000
,
0100
0000
0010
0000
0100
0000
0010
0000
0100
0000
0010
0000
0001
0010
0100
0000
,
0010
0200
0300
0010
0001
0100
0010
0000
,
0100
0000
0010
0000
2000
0000
0100
3100
0000
0000
0002
0000
0010
0013
0000
0000
,
0001
0000
0100
0000
0020
0000
0100
0130
0000
0000
0020
0000
0001
0031
0000
0000
,
0010
0000
0010
0100
0010
0000
0100
0000
0010
0000
0001
0000
0200
0000
0300
0010
,
0000
0100
2000
3000
0100
1000
0100
0010
,
0001
0100
0110
0000
0001
0100
0010
0100
,
1000
0200
0300
1000
0100
0000
0100
0010
,
0100
0010
0001
0000
0200
0000
0000
0000
0310
0000
0000
0000
0001
0000
0100
0000
,
0010
0200
0300
1000
0100
0000
0100
0010
,
0001
0000
0100
0000
0020
0000
0100
0130
0000
0000
0002
0000
0100
0103
0000
0000
,
0100
0000
1000
0000
0200
0000
0010
0310
0000
0000
0002
0000
0100
0103
0000
0000
,
0010
0000
0100
0010
0100
0000
0010
0000
0001
0000
0100
0000
0020
0000
0030
0100
,
0000
0000
1000
0000
0100
0010
0001
0000
0100
0000
0010
0000
0100
0000
0000
0010
,
0000
0100
0020
0000
0130
0000
0010
0001
,
0100
0020
0030
0100
0000
1000
0100
1000
,
0100
0020
0030
0001
0000
0100
0010
0100
,
1000
0000
0200
0000
0300
0000
0010
0000
0002
0000
0003
0000
0100
0000
0000
0010
,
0000
0100
0020
0000
0031
0000
0100
0010
,
0100
2000
3000
0100
1000
0100
0010
0001
,
0100
0000
0010
0000
0002
0000
0003
0000
0100
0000
0010
0100
0010
0000
0100
0000
,
0010
0000
0001
0000
1000
0000
0000
0001
0000
0000
1000
0000
0100
0000
0000
1000
,
0000
0100
0010
0100
0110
0000
0010
0001
,
0011
0000
0000
0000
0010
0000
0000
0100
0000
0000
1000
0000
0100
0000
0010
0000
,
0001
0000
0100
0010
0110
0000
0100
1000
,
1100
0000
0000
0000
0100
0000
0000
0010
0000
0000
0001
0000
0100
0000
0010
0000
,
0100
0000
1000
0100
0011
0000
0001
0010
,
0110
0000
0000
0000
1000
0000
0000
0100
0000
0000
1000
0000
0100
0000
0010
0000
,
0001
0000
0100
0010
1100
0000
0001
0010
,
0110
0000
0000
0000
0010
0100
0000
0010
0000
0000
0001
0000
0100
0010
0100
1000
,
0010
0100
0200
0000
0310
0001
0100
0010
,
0100
2000
3000
0100
2000
3000
0100
0010
,
0001
0000
0100
0000
0010
0001
0100
0000
0010
0000
0100
0000
1000
0000
0100
0000
,
0010
0002
0003
0100
0010
0100
2000
3000
,
0100
0000
0010
0000
2000
0000
0100
3100
0000
0000
0020
0000
0100
0130
0000
0000
,
0010
0000
0001
0000
0200
0000
0001
0301
0000
0000
0020
0000
1000
1030
0000
0000
,
0100
0000
0010
0100
0010
0000
0001
0000
0100
0000
0010
0000
0200
0000
0300
1000
,
0000
0000
0100
0000
1000
0100
1000
0000
0100
0000
0010
0000
0100
0000
0010
0000
,
0001
0100
0020
0030
0100
0010
0001
0100
,
0010
0002
0003
0100
0010
0000
0100
0000
,
0010
0001
0200
0000
0310
0000
0100
1000
,
0100
0020
0030
0001
0100
0000
0010
0100
,
0010
0000
0001
0000
0200
0000
0010
0310
0000
0000
0002
0000
0100
0103
0000
0000
,
0010
0000
0100
0000
0200
0000
0010
0310
0000
0000
0002
0000
0010
0013
0000
0000
,
0001
0000
0100
0010
0100
0000
0010
0000
0100
0000
1000
0000
0200
0000
0300
0010
,
0000
0000
0001
0000
0100
0010
0000
0100
0000
0000
0010
0000
0001
0100
0000
0010
,
0000
0000
0100
0010
0200
0000
0000
0000
0000
0000
0000
0000
0000
0000
0000
0000
,
0000
0000
0000
0000
,
0000
0310
0000
0000
;
