#TITLE:ALL I WANT FOR CHRISTMAS IS YOU;
#SUBTITLE:;
#ARTIST:Mariah Carey;
#TITLETRANSLIT:;
#SUBTITLETRANSLIT:;
#ARTISTTRANSLIT:;
#GENRE:Christmas Pop;
#CREDIT:Columbia;
#MUSIC:ALL I WANT FOR CHRISTMAS IS YOU.ogg;
#BANNER:ALL I WANT FOR CHRISTMAS IS YOU.png;
#BACKGROUND:BG.png;
#CDTITLE:Popular.png;
#SAMPLESTART:7.382;
#SAMPLELENGTH:15.000;
#SELECTABLE:YES;
#OFFSET:0.000;
#BPMS:0.000=183.023
,3.000=150.020
;
#STOPS:;
#DISPLAYBPM:150.000;
#JACKET:ALL I WANT FOR CHRISTMAS IS YOU-jacket.png;
#DISCIMAGE:;
#CDIMAGE:;
#METERTYPE:DDR X;
#BGCHANGES:0.000=ALL I WANT FOR CHRISTMAS IS YOU.avi=0.000=0=0=0=StretchNoLoop====,
99999=-nosongbg-=1.000=0=0=0 // don't automatically add -songbackground-
;
#FGCHANGES:;

//--------------- dance-single - Wrland ----------------
#NOTES:
     dance-single:
     Wrland:
     Beginner:
     1:
     0,0,0,0,0:
0000
0000
0000
0000
,
0000
0000
0000
0000
,
0000
0000
0000
0000
,
0000
0000
0000
0000
,
0000
0000
0000
1000
,
0000
0000
0000
0001
,
0000
0000
0000
1000
,
0000
0000
0000
0001
,
0000
0000
0000
0100
,
0000
0000
0000
0010
,
0000
0000
0000
0100
,
0000
0000
0000
1000
,
0000
0000
0000
1000
,
0000
0000
0000
0010
,
0000
0000
0000
0100
,
0000
0000
0000
0001
,
0000
0000
0000
1000
,
0000
0000
0000
0100
,
0000
0000
0000
1000
,
0000
0000
0000
0100
,
0000
0000
0000
0100
,
0000
0000
0000
0010
,
0000
0000
0000
0001
,
0000
0000
0000
0010
,
0000
0000
0000
0100
,
0000
0000
0000
0200
,
0000
0000
0300
0001
,
0000
0000
0000
0020
,
0000
0000
0000
0130
,
0000
0000
0000
0000
,
0000
0000
0000
0000
,
0000
0000
0000
0000
,
0000
0000
0000
0100
,
0000
0000
0000
0010
,
0000
0000
0000
0100
,
0000
0000
0000
1000
,
0000
0000
0000
0100
,
0000
0000
0000
0010
,
0000
0000
0000
0100
,
0000
0000
0000
2000
,
0000
0000
3000
0100
,
0000
0000
0000
0100
,
0000
0000
0000
1000
,
0000
0000
0000
0001
,
0000
0000
0000
0010
,
0000
0001
0000
2002
,
0000
0000
3003
0100
,
0000
0000
0000
2000
,
0000
0000
0000
0000
,
0000
0000
0000
3000
,
0000
0000
0000
2002
,
0000
0000
0000
0000
,
0000
0000
0000
0000
,
0000
0000
0000
0000
,
0000
3003
0000
0220
,
0000
0000
0000
0000
,
0000
0000
0000
0000
,
0000
0000
0000
0000
,
0000
0000
0330
2200
,
0000
0000
0000
0000
,
0000
0000
0000
0000
,
0000
0000
0000
0000
,
0000
0000
3300
2002
,
0000
0000
0000
0000
,
0000
0000
0000
0000
,
0000
0000
0000
0000
,
0000
0000
0000
3003
;

//--------------- dance-single - Wrland ----------------
#NOTES:
     dance-single:
     Wrland:
     Easy:
     2:
     0,0,0,0,0:
0000
0000
0000
0000
,
0000
0000
0000
0000
,
0000
0000
0000
0000
,
0000
0000
0000
0000
,
0000
0000
0000
1000
,
0000
0001
0000
1000
,
0000
0001
0000
1000
,
0000
0001
0000
1000
,
0000
0001
0000
0100
,
0000
0010
0000
0100
,
0000
0010
0000
0100
,
0000
0001
0000
1000
,
0000
0100
0000
1000
,
0000
1000
0000
0100
,
0000
0100
0000
0010
,
0000
0010
0000
0001
,
0000
0001
0000
0100
,
0000
0010
0000
0100
,
0000
0001
0000
1000
,
0000
0100
0000
1000
,
0000
0010
0000
0100
,
0000
1000
0000
0010
,
0000
0100
0000
0100
,
0000
0010
0000
0010
,
0000
0001
0000
0001
,
0000
1000
0000
0200
,
0000
0000
0300
0001
,
0000
0100
0000
0020
,
0000
0000
0000
0130
,
0000
0000
0000
0000
,
0000
0000
0000
0000
,
0000
0000
0000
0000
,
0000
0000
0000
0100
,
0000
0010
0000
0010
,
0000
0001
0000
0100
,
0000
0010
0000
1000
,
0000
1000
0000
0100
,
0000
1000
0000
0010
,
0000
0001
0000
0100
,
0000
0010
0000
2000
,
0000
0000
3000
0100
,
0000
0010
0000
0100
,
0000
0001
0000
1000
,
0000
0100
0000
0001
,
0000
0010
0000
0010
,
0000
0001
0000
2002
,
0000
0000
3003
0100
,
0000
0010
0000
2000
,
0000
0000
0000
0000
,
0000
0000
0000
3000
,
0000
0000
0000
2002
,
0000
0000
0000
0000
,
0000
0000
0000
0000
,
0000
0000
0000
0000
,
0000
3003
0000
0220
,
0000
0000
0000
0000
,
0000
0000
0000
0000
,
0000
0000
0000
0000
,
0000
0000
0330
2200
,
0000
0000
0000
0000
,
0000
0000
0000
0000
,
0000
0000
0000
0000
,
0000
0000
3300
2002
,
0000
0000
0000
0000
,
0000
0000
0000
0000
,
0000
0000
0000
0000
,
0000
0000
0000
3003
;

//--------------- dance-single - Wrland ----------------
#NOTES:
     dance-single:
     Wrland:
     Medium:
     6:
     0,0,0,0,0:
0000
0000
0000
0000
,
0000
0000
0000
0000
,
0000
0000
0000
0000
,
0000
0000
0000
0000
0000
0000
0000
0000
0000
0000
0000
2002
,
0000
0000
3003
0100
,
0010
1000
0000
1000
,
0100
0010
0000
0001
,
1000
0001
0000
0001
,
0100
0010
0000
0100
,
0001
0010
0000
0100
,
1000
0100
0000
1000
,
0010
0100
0000
0010
,
1000
0010
0000
0100
,
0001
0010
0000
0001
,
1000
0010
0000
0100
,
0001
1000
0000
0100
,
1000
0100
0000
0010
,
1000
0001
0000
0010
,
0100
0010
0000
0100
,
0001
1000
0000
0100
,
0010
0100
0000
1000
,
0100
0000
0000
1000
0000
0000
0001
0000
0100
0000
0000
0010
,
0000
0000
0200
0000
0000
0000
0300
0000
0000
0010
0000
0000
,
1000
0000
0000
0001
0000
0000
0100
0000
0010
0000
0000
0100
,
0000
0000
0020
0000
0000
0000
0030
0000
0000
0100
0000
0000
,
0010
0000
0000
0100
0000
0001
0000
0000
2000
0000
0000
0000
,
0000
3000
0000
1000
,
0001
0100
1000
0010
,
0200
0300
0001
0100
,
1000
0100
0000
0010
,
0100
0010
0000
0002
,
0000
0000
0003
2000
,
0000
0000
3000
1000
,
0010
0100
0000
1000
,
0100
0010
0000
0100
,
0001
0010
0000
0001
,
1000
0100
0000
0100
,
0001
0010
0000
0100
,
1000
0100
0000
0100
,
0001
1000
0000
0100
,
0001
1000
0000
0010
,
1000
0000
0000
0100
0000
0000
0001
0000
0100
0000
0000
0010
,
0000
0000
0200
0000
0000
0000
0300
0000
0000
0001
0000
0000
,
0100
0000
0000
0010
0000
0000
0001
0000
0100
0000
0000
0010
,
0000
0000
0200
0000
0000
0000
0300
0000
0000
1000
0000
0010
,
0000
0000
0100
0000
0000
0001
0000
0000
0220
0000
0000
0000
,
0000
0330
0000
0100
,
0001
0010
1000
0200
,
0000
0000
0000
0000
,
0000
0000
0000
0000
0000
0000
0000
0000
0000
0300
0000
2002
,
0000
0000
0000
0000
0000
0000
0000
3003
0000
0000
0000
0000
,
0220
0000
0000
0000
,
0000
0000
0000
0000
,
0000
0000
0000
0000
,
0330
0000
0000
0100
,
0100
0100
0010
1000
,
2000
3000
0100
0020
,
0000
0000
0000
0000
,
0000
0000
0030
1000
,
0100
1000
0001
0100
,
2000
3000
0100
0002
,
0000
0000
0000
0000
,
0000
0000
0003
0110
;

//--------------- dance-single - Wrland ----------------
#NOTES:
     dance-single:
     Wrland:
     Hard:
     12:
     0,0,0,0,0:
0000
0000
0000
0000
,
0000
0000
0000
0000
,
0000
0000
0000
0000
0000
0000
0000
0000
0000
1000
0000
0001
,
1000
0000
0000
0100
0000
0001
1000
0000
0100
0000
0000
0100
,
0100
0000
0010
0010
0000
0100
0100
0000
0000
1000
0000
0000
,
0100
0000
0000
1000
0000
0000
0100
0000
0010
0000
0000
0002
,
0000
0003
1000
0000
0000
0100
0000
0000
0000
0100
0000
0000
,
0001
0000
0000
0100
0000
0002
0000
0003
0100
0000
0000
1000
,
0000
0000
0200
0000
0300
0000
1000
0000
0010
0100
0000
0000
,
0100
0000
0000
0010
0000
0000
0100
0000
2000
0000
3000
0100
,
0000
0000
0001
0000
0000
0100
0010
0000
0000
0010
0000
0000
,
0001
0000
2000
0000
3000
0000
0001
0000
0100
0000
0000
0010
,
0000
0000
0100
0000
0000
0000
0001
0000
0010
0001
0000
0000
,
1000
0000
0020
0000
0030
0000
1000
0000
0100
0000
0000
0010
,
0000
0000
0001
0000
0000
1000
0000
0000
0000
0100
0000
0000
,
1000
0000
0002
0000
0003
0100
0000
0000
0001
0000
0000
0010
,
0000
0000
0100
0010
0000
0000
0100
0000
1000
0010
0000
0000
,
0010
0000
0001
0010
0000
0000
0100
0000
0010
0000
0000
0100
,
0000
0000
1000
0000
0000
0100
0000
0000
0000
0100
0000
0000
,
0010
0000
1000
0001
0000
0000
0100
0000
0010
0000
0000
0100
,
0000
0000
0002
0000
0003
0000
1000
0000
0001
0100
0000
0000
,
0010
0000
0000
0001
0000
0000
0100
0000
0001
0000
0000
0010
,
0000
0000
2000
0000
3000
0000
0100
0000
0001
0010
0000
0000
,
0100
0000
0000
1000
0000
0000
0100
0000
0001
0000
0000
0010
,
0000
0000
0200
0000
0300
0000
0001
0000
0000
0100
0000
0000
,
0010
0000
0000
0001
0000
0100
0000
0000
0020
0000
0000
0000
,
0000
0000
0030
1000
,
0100
0010
0001
0100
,
0010
0000
0000
0001
0000
1000
0010
0000
0000
0100
0000
0000
,
1000
0100
1000
0100
,
0010
0001
0100
0002
,
0000
0000
0000
1000
0000
0100
1000
0000
0000
0013
0000
1000
,
0100
0000
0010
0001
0000
0010
0100
0000
1000
0001
0000
0000
,
0100
0000
0000
0010
0000
0000
0100
0000
0010
0000
0000
0001
,
0000
0000
0200
0000
0300
0020
0000
0030
0000
1000
0000
0000
,
0100
0000
0000
1000
0000
0000
0100
0000
0010
0000
0000
0001
,
0000
0000
0200
0000
0300
0000
0010
0000
0100
0010
0000
0000
,
0001
0000
1000
0001
0000
1000
0000
0000
0100
0000
0000
0010
,
0000
0000
0001
0000
0000
0200
0000
0300
0000
0010
0000
0000
,
0100
0000
0010
0000
0000
0000
0001
0000
0100
0000
0000
0010
,
0000
0000
0200
0000
0300
0000
1000
0100
1000
0100
0000
0000
,
0100
0000
0000
0010
0000
0000
0001
0000
0100
0000
0000
0020
,
0000
0030
0200
0000
0000
0000
0300
0000
0000
0001
0000
0000
,
0100
0000
0001
0000
0000
0000
0100
0000
0010
0000
0000
0200
,
0000
0300
2000
0000
0000
0000
3000
0000
0000
1000
0000
0100
,
0000
0000
1000
0000
0000
0100
0000
0000
0001
0100
0000
0000
,
0020
0000
0000
0030
0000
0100
0010
0000
0001
0100
0000
0000
,
0100
0010
0100
0001
,
0101
0010
0110
1000
,
1100
0000
0000
0100
0000
0000
0220
0000
0000
0330
0000
0010
,
0100
0000
0010
0100
0000
0010
1000
0000
0100
0010
0000
0000
,
2002
0000
0000
0000
,
0000
0000
3003
0010
,
0100
0000
0000
0010
0000
1000
0001
0000
0000
0200
0000
0000
,
0000
0000
0002
0000
0000
0000
0303
0000
0000
0100
0000
0000
,
1000
0100
0010
0001
,
0200
0300
0010
0100
,
0010
0000
0000
0001
0000
0100
0010
0000
0000
2000
0000
0000
,
0000
0000
0002
0000
0000
0000
0000
3003
0000
0100
0000
0000
,
0100
0010
0001
0100
,
0020
0000
0000
0000
0030
0000
0100
0000
0000
0010
0000
0000
,
0001
0000
0000
0100
0000
0001
0010
0000
0000
0200
0000
0000
,
0000
0000
0002
0000
0000
0000
0303
0000
0000
0110
0000
0000
;

//--------------- dance-single - Wrland ----------------
#NOTES:
     dance-single:
     Wrland:
     Challenge:
     14:
     0,0,0,0,0:
0000
0000
0000
0000
,
0000
0000
0000
0000
,
0000
0000
0000
0000
0000
0000
0000
0000
0000
0001
1000
0001
,
1000
0000
0000
0100
1000
0100
2000
0000
3100
0000
0000
0100
,
0010
0000
1000
0100
0000
1000
0001
1000
0001
0200
0000
0300
,
0020
0000
0030
0200
0000
0300
0002
0000
0103
0000
0000
0010
,
0000
0000
0100
0000
0000
1000
0010
0000
0000
0200
0000
0300
,
0020
0000
0030
0002
0000
1003
0000
0000
0100
0000
0000
1000
,
0000
0000
0100
0000
0000
0000
0100
0000
0001
0010
0000
0000
,
0001
0000
0010
0100
0000
0001
0010
0000
0100
1000
0000
0010
,
0100
0000
0001
0010
0000
0100
1000
0000
0000
0010
0000
0001
,
0100
0000
1000
0010
0000
0000
0100
0000
1000
0001
0000
0100
,
0010
0000
1000
0100
0000
0000
1000
0100
0010
0200
0000
0300
,
0010
0000
0002
0000
0003
1000
0100
0000
0010
0000
0000
0100
,
0000
0000
1000
0001
0000
0100
0020
0000
0130
2000
0000
3000
,
0100
0000
0010
0100
0000
0001
0100
0000
1000
0000
0000
0010
,
0000
0000
0100
0010
0000
0000
0010
0000
1000
0001
0000
0010
,
0100
0000
1000
0100
0000
0001
0010
0000
1000
0001
0000
0100
,
0010
0000
1000
0001
0000
0100
1000
0000
0100
0010
0000
1000
,
0001
0000
0100
0001
0000
0010
0100
0000
1000
0010
0000
0001
,
1000
0000
0100
0001
0000
0000
0010
0001
0010
0200
0000
0300
,
0020
0000
0030
0200
0000
0300
0010
0000
0100
0000
0000
0010
,
0000
0000
0100
0000
0000
0000
1000
0000
0100
0020
0000
0030
,
0002
0000
0003
2000
0000
3000
0200
0000
1300
0000
0000
0100
,
0000
0000
0010
0001
0000
0000
0100
0010
0001
0100
0000
1000
,
0010
0000
0001
0100
0000
0010
0000
0000
0002
0000
0003
1000
,
0100
0000
0001
0010
0000
1000
0100
0010
0001
0100
0000
0001
,
0010
0000
0100
1000
0000
0010
0100
0000
1000
0002
0000
0000
,
0020
0000
0000
0033
0000
0000
1000
0100
1000
0101
0000
0000
,
0010
0000
1000
0100
0000
0000
0001
0000
0100
1000
0000
0000
,
0010
0000
0100
0001
0000
0000
0100
1000
0100
0001
0000
0010
,
1000
0000
0001
0100
0000
1000
0010
0000
0001
1000
0000
0001
,
0100
0000
0010
0010
0000
0100
0010
0100
0010
0200
0000
0300
,
0020
0000
0030
0200
0000
0300
0010
0000
0100
0000
0000
0010
,
0000
0000
0100
0010
0000
0010
0100
0000
0000
0100
0000
0001
,
0100
0000
0010
0002
0000
0103
0010
0000
0100
0010
0000
1000
,
0100
0000
0100
0010
0001
1000
0010
0000
0100
0002
0000
1003
,
0010
0000
0100
0010
0000
0001
0100
0000
0010
1000
0000
0001
,
0100
0000
0010
0100
0000
1000
0100
0000
0000
0010
0000
0001
,
0100
0000
1000
0010
0000
0100
0001
0000
0200
0000
0300
0020
,
0000
0030
0200
0000
0300
0000
1000
0100
0010
1001
0000
0000
,
0020
0000
0030
0200
0000
0300
0010
0000
0001
0000
0000
0100
,
0000
0000
0010
0001
0000
0000
0100
0000
0010
2000
0000
3000
,
0100
0000
0001
2000
0000
3000
0100
0000
0010
0000
0000
0001
,
0000
0000
0100
0010
0000
0000
0010
0100
0010
0001
0000
1000
,
0010
0000
0100
0001
0000
0010
0100
0000
1000
0200
0000
0000
,
0300
0000
0000
0100
0000
0001
0010
0010
0001
0100
0000
0100
,
0010
0000
0010
0100
0000
0100
0010
0000
0001
2000
0000
0000
,
3002
0000
0000
1000
0000
0100
1000
0000
0000
0100
0000
0010
,
0100
0000
0000
1000
0000
0100
1003
0000
0000
0000
0000
0001
,
1000
0000
0100
0010
0000
0001
0010
0001
0100
0010
0000
0000
,
0100
0000
0010
0100
0000
0000
0010
0000
0001
0100
0000
0000
,
0010
0000
0100
1000
0000
0000
0100
0000
0010
0002
0000
0000
,
0000
0000
0000
0003
0000
0010
0100
0000
0000
0100
0000
1000
,
0100
0000
0000
0100
0000
0010
0100
0000
0000
0002
0000
0000
,
0203
0000
0000
0320
0000
0000
0230
0000
0000
1300
0000
0100
,
1000
0000
0000
0100
0000
0010
0100
0000
0000
0002
0000
0000
,
0000
0000
0003
0100
0000
1000
0100
0000
0000
2000
0000
0000
,
3000
0000
0200
0000
0000
0300
0000
0000
0000
0100
0000
0001
,
0010
0000
0000
0001
0000
0010
0100
0000
0000
0010
0000
0100
,
0010
0000
0000
0001
0000
0100
0010
0000
0000
0200
0000
0000
,
0300
0000
0000
0010
0000
0001
0100
0000
0000
0020
0000
0000
,
0030
0000
0200
0000
0000
0000
0300
0000
0000
0110
0000
0000
;

//--------------- dance-double - Wrland ----------------
#NOTES:
     dance-double:
     Wrland:
     Easy:
     3:
     0,0,0,0,0:
00000000
00000000
00000000
00000000
,
00000000
00000000
00000000
00000000
,
00000000
00000000
00000000
00000000
,
00000000
00000000
00000000
00000000
,
00000000
00000000
00000000
10000000
,
00000000
01000000
00000000
00100000
,
00000000
01000000
00000000
00100000
,
00000000
01000000
00000000
00100000
,
00000000
00010000
00000000
00001000
,
00000000
00000010
00000000
00001000
,
00000000
00000100
00000000
00000010
,
00000000
00000001
00000000
00000100
,
00000000
00000010
00000000
00000100
,
00000000
00001000
00000000
00010000
,
00000000
00010000
00000000
00100000
,
00000000
01000000
00000000
10000000
,
00000000
01000000
00000000
00100000
,
00000000
00010000
00000000
00001000
,
00000000
00000100
00000000
00000010
,
00000000
00000001
00000000
00000100
,
00000000
00001000
00000000
00000100
,
00000100
00000100
00000000
00000010
,
00000010
00000001
00000000
00000100
,
00000100
00001000
00000000
00000100
,
00001000
00000100
00000000
00001000
,
00010000
00100000
00000000
01000000
,
10000000
01000000
00000000
10000000
,
01000000
00100000
00010000
01000000
,
00100000
00000000
01000000
00200000
,
00000000
00000000
00000000
00000000
,
00000000
00000000
00300000
00000000
,
00000000
00000000
00000000
00000000
,
00000000
00000000
00000000
00001000
,
00000000
00000010
00000000
00000001
,
00000000
00000100
00000000
00001000
,
00000000
00001000
00000000
00000100
,
00000000
00000100
00000000
00000100
,
00000000
00000001
00000000
00000100
,
00000000
00000100
00000000
00000010
,
00000000
00000001
00000000
00000010
,
00000000
00001000
00000000
00010000
,
00100000
10000000
00000000
01000000
,
10000000
01000000
00000000
01000000
,
00100000
01000000
00000000
10000000
,
01000000
00100000
00000000
10000000
,
01000000
00100000
00000000
02200000
,
00000000
03300000
00000000
00100000
,
00010000
00100000
00010000
00100000
,
00020000
00000000
00000000
00000000
,
00000000
00000000
00030000
00001000
,
00001000
00000100
00000010
00000100
,
00000220
00000000
00000000
00000000
,
00000000
00000000
00000000
00000000
,
00000000
00000000
00000000
00000000
,
00000000
00000000
00000000
00000330
00000000
00000000
00022000
00000000
,
00000000
00000000
00000000
00000000
,
00000000
00000000
00000000
00000000
,
00000000
00000000
00000000
00000000
,
00000000
00000000
00000000
00000000
00000000
00033000
02200000
00000000
,
00000000
00000000
00000000
00000000
,
00000000
00000000
00000000
00000000
,
00000000
00000000
00000000
00000000
,
00000000
00000000
00000000
00000000
00000000
03300000
20020000
00000000
,
00000000
00000000
00000000
00000000
,
00000000
00000000
00000000
00000000
,
00000000
00000000
00000000
00000000
,
00000000
00000000
00000000
00000000
00000000
30030000
00000000
00000000
;

//--------------- dance-double - Wrland ----------------
#NOTES:
     dance-double:
     Wrland:
     Medium:
     7:
     0,0,0,0,0:
00000000
00000000
00000000
00000000
,
00000000
00000000
00000000
00000000
,
00000000
00000000
00000000
00000000
,
00000000
00000000
00000000
00000000
00000000
00000000
00000000
00000000
00000000
00000000
00000000
20020000
,
00000000
00000000
00000000
00000000
00000000
00000000
00000000
00000000
30030000
01000000
00000000
00000000
,
00100000
01000000
00000000
01000000
,
00100000
00010000
00000000
01000000
,
10000000
01000000
00000000
01000000
,
00100000
01000000
00000000
00100000
,
00010000
00100000
00000000
00100000
,
00010000
00001000
00000000
00001000
,
00000100
00000010
00000000
00000001
,
00000100
00000001
00000000
00000010
,
00000100
00001000
00000000
00000100
,
00001000
00000100
00000000
00000100
,
00000010
00000001
00000000
00000100
,
00001000
00010000
00000000
00100000
,
01000000
10000000
00000000
01000000
,
10000000
01000000
00000000
10000000
,
01000000
00100000
00000000
00010000
,
01000000
00000000
00000000
00010000
00000000
00000000
01000000
00010000
01000000
00010000
00000000
00000000
,
01000000
10000000
00000000
01000000
,
00100000
00010000
00000000
01000000
,
00100000
00010000
00000000
00010000
,
00001000
00000100
00000000
00000001
,
00000100
00000000
00000000
00000010
00000000
00000100
00000000
00000000
00000220
00000000
00000000
00000000
,
00000000
00000000
00000000
00000000
00000330
00000000
00000000
00000000
00000000
00000010
00000000
00000000
,
00000100
00000010
00000001
00000100
,
00000010
00000000
00001000
00002200
,
00000000
00000000
00000000
00000000
,
00000000
00000000
00003300
00000000
,
00000000
00000000
00000000
00000000
,
00000000
00000000
00000000
00010000
,
00100000
10000000
00000000
01000000
,
10000000
01000000
00000000
01000000
,
00100000
00010000
00000000
01000000
,
00100000
01000000
00000000
01000000
,
00100000
00010000
00000000
01000000
,
10000000
00000000
00000000
01000000
00000000
00000000
00000000
00000000
00000000
10000000
00000000
00010000
,
10000000
00000000
00000000
01000000
00000000
00100000
01000000
00000000
00000000
01000000
00000000
00000000
,
10000000
00000000
00000000
01000000
00000000
00000000
00010000
01000000
00010000
01000000
00000000
00000000
,
01000000
10000000
01000000
00100000
,
00010000
00001000
00000000
00000100
,
00000010
00000001
00000100
00000001
,
00000100
00000000
00000000
00000010
00000000
00000000
00000100
00000010
00000100
00000010
00000000
00000001
,
00000010
00000000
00000100
00000010
00000000
00001000
00000001
00000000
00000100
00002002
00000000
00000000
,
00000000
00000000
00000000
00000000
00000000
00003003
00000000
00000000
00000000
00000100
00000000
00000000
,
00000010
00000100
00000010
00000001
,
00000100
00000000
00000000
00000010
00000000
00000100
00000010
00000000
00000000
00000100
00000000
00001000
,
00010000
00000000
00000000
00100000
00000000
00010000
00100000
00000000
00000000
00000000
00000000
01000000
,
10000000
00000000
01000000
00100000
00000000
00010000
01000000
00000000
00010000
02000000
00000000
00000000
,
03200000
00000000
00000000
00000000
,
00000000
00000000
00000000
00000000
,
00000000
00000000
00000000
00000000
,
00000000
00000000
00000000
00000000
00000000
00300000
00000000
00000000
00000000
00020000
00000000
00000000
,
00000000
00000000
00000000
00000000
,
00000000
00000000
00000000
00000000
,
00000000
00000000
00000000
00000000
,
00000000
00000000
00000000
00000000
00000000
00000000
00000000
00000000
00030000
00002000
00000000
00000000
,
00000000
00000000
00000000
00000000
,
00000000
00000000
00000000
00000000
,
00000000
00000000
00000000
00000000
,
00000000
00000000
00000000
00000000
00000000
00000000
00000000
00000000
00003000
00000220
00000000
00000000
,
00000000
00000000
00000000
00000000
,
00000000
00000000
00000000
00000000
,
00000000
00000000
00000000
00000000
,
00000000
00000000
00000000
00000000
00000000
00000000
00000000
00000000
00000330
00000000
00000000
00000000
;

//--------------- dance-double - Wrland ----------------
#NOTES:
     dance-double:
     Wrland:
     Hard:
     12:
     0,0,0,0,0:
00000000
00000000
00000000
00000000
,
00000000
00000000
00000000
00000000
,
00000000
00000000
00000000
00000000
,
00000000
00000000
00000000
00000000
00000000
00000000
00000000
00000000
00000000
00000000
00000000
01000000
,
01000000
00000000
00100000
00100000
00000000
01000000
00100000
01000000
00100000
02000000
00000000
03000000
,
20000000
00000000
30000000
00200000
00000000
00300000
00010000
00000000
01000000
00000000
00000000
00100000
,
00000000
00000000
01000000
00000000
00000000
00100000
10000000
00000000
01000000
00200000
00000000
00300000
,
00020000
00000000
00030000
00001000
00000000
00000100
00000000
00000000
00000010
00000000
00000000
00000001
,
00000000
00000000
00000100
00000001
00000000
00000010
00000100
00000000
00001000
00000010
00000000
00000000
,
00002000
00000000
00003000
00000200
00000000
00000300
00010000
00000000
00001000
00000000
00000000
00010000
,
00000000
00000000
00001000
00000000
00000000
00010000
00100000
00000000
10000000
00200000
00000000
00300000
,
00010000
00000000
00200000
00000000
00300000
00000000
01000000
00000000
10000000
00000000
00000000
01000000
,
00000000
00000000
10000000
01000000
00000000
00000000
01100000
00000000
00000000
00010000
00000000
10000000
,
01000000
00000000
00000000
00100000
00000000
00010000
01000000
00000000
00100000
00000000
00000000
01000000
,
00000000
00000000
00100000
00000000
00000000
00020000
00000000
10030000
00000000
01000000
00000000
10000000
,
00100000
00000000
00000000
00010000
00000000
00100000
01000000
00000000
00200000
00000000
00300000
01000000
,
00000000
00000000
00100000
00010000
00000000
00001000
00010000
00000000
00000000
00001000
00000000
00000000
,
00000100
00000000
00000010
00000100
00000000
00000000
00001000
00000000
00000100
00000000
00000000
00001000
,
00000000
00000000
00000100
00000000
00000000
00000010
00000100
00000000
00000001
00000010
00000000
00000000
,
00000100
00000000
00000010
00000100
00000000
00000010
00001000
00000000
00000001
00000100
00000000
00000001
,
00000100
00000000
00000001
00000100
00000000
00000000
00000100
00000010
00000100
00002000
00000000
00003000
,
00020000
00000000
00030000
00200000
00000000
00300000
10000000
00000000
02000000
00000000
03000000
20000000
,
00000000
30000000
01000000
00100000
00000000
00000000
01100000
00000000
00000000
00020000
00000000
00030000
,
02000000
00000000
03000000
00200000
00000000
00300000
01000000
00000000
00100000
00000000
00000000
01000000
,
00000000
00000000
00100000
01000000
00000000
00000000
01100000
00000000
00000000
02000000
00000000
03000000
,
20000000
00000000
30000000
01000000
00000000
00200000
00000000
00300000
00010000
01000000
00000000
10000000
,
01000000
00000000
01000000
00100000
00000000
01000000
00100000
00000000
00000000
00200000
00000000
00300000
,
00020000
00000000
00030000
00002000
00000000
00003000
00000200
00000000
00000300
00000020
00000000
00000030
,
00000002
00000000
00000003
00000100
00000000
00000001
00000200
00000000
00000000
00000302
00000000
00000000
,
00000000
00000000
00000000
00002003
,
00000000
00000000
00000000
00023000
,
00000000
00000000
00000000
00000000
00000000
00000000
00030000
00000000
00000000
00010000
00000000
00100000
,
00010000
00000000
01000000
00100000
00000000
01000000
10000000
01000000
00100000
02000000
00000000
03000000
,
00200000
00000000
00300000
01000000
00000000
00000000
10000000
00000000
01000000
00000000
00000000
10000000
,
00000000
00000000
01000000
00000000
00000000
10000000
01000000
00000000
00000000
20000000
00000000
30000000
,
01000000
00000000
00200000
00000000
00000000
00300000
00010000
00000000
01000000
00000000
00000000
00100000
,
00000000
00000000
01000000
00100000
00000000
00000000
00020000
00000000
00000000
01030000
00000000
00000000
,
00010000
00000000
01000000
00010000
00000000
01000000
00100000
00000000
01000000
00000000
00000000
00100000
,
00000000
00000000
01000000
00000000
00000000
10000000
01000000
00000000
00000000
00100000
00000000
00000000
,
01000000
00000000
00200000
00000000
00000000
00300000
00010000
00000000
01000000
00000000
00000000
00100000
,
00000000
00000000
00020000
00000000
00000000
00030000
00100000
00010000
00001000
00000020
00000000
00000030
,
00000200
00000000
00000300
00001000
00000000
00000000
00001000
00000000
00000100
00000000
00000000
00000010
,
00000000
00000000
00001000
00000020
00000000
00000030
00000001
00000000
00000000
00002000
00000000
00003000
,
00000010
00000000
00002000
00000000
00000000
00003000
00000100
00000000
00001000
00000000
00000000
00000100
,
00000000
00000000
00000010
00000010
00000000
00000001
00000001
00000000
00000000
00000100
00000000
00000010
,
00000001
00000000
00000100
00001000
00000000
00000010
00000001
00000000
00000100
00000011
00000000
00000000
,
00001000
00000000
00000010
00000100
00000000
00001000
00000100
00000000
00001000
00000110
00000000
00000000
,
00000101
00001010
00000110
00001100
,
00022000
00000000
00000000
00000000
,
00000000
00000000
00000000
00000000
00000000
00000000
00000000
00000000
00000000
00033000
00000000
00010000
,
00010000
00000000
00100000
00100000
00000000
10000000
10000000
00000000
00000000
02000000
00000000
00000000
,
03100000
00000000
00000000
01000000
00000000
00100000
01000000
00000000
00000000
10000000
00000000
01000000
,
00100000
00000000
00000000
00010000
00000000
01000000
00100000
00000000
00000000
01000000
00000000
00010000
,
00100000
00000000
00000000
00010000
00000000
01000000
00010000
00000000
00000000
02000000
00000000
00000000
,
00000000
03000000
00200000
00000000
00000000
00000000
00000000
00300000
00000000
00100000
00000000
00010000
,
00001000
00000000
00000000
00000100
00000000
00000010
00000001
00000000
00000000
00000100
00000000
00000010
,
00000100
00000000
00000000
00000001
00000000
00000100
00000001
00000000
00000000
00000100
00000000
00000001
,
00000010
00000000
00000000
00001000
00000000
00000100
00001000
00000000
00000000
00002000
00000000
00000000
,
00000000
00003000
00020000
00000000
00000000
00000000
00000000
00000000
00030000
00001000
00000000
00010000
,
00001000
00000000
00000000
00010000
00000000
00100000
00010000
00000000
00000000
00100000
00000000
01000000
,
00100000
00000000
00000000
10000000
00000000
01000000
10000000
00000000
00000000
01000000
00000000
00010000
,
00100000
00000000
00000000
01000000
00000000
00100000
01000000
00000000
00000000
20000000
00000000
00000000
,
30000000
00000000
00200000
00000000
00000000
00000000
00000000
00000000
00300000
10010000
00000000
00000000
;
