#TITLE:+57 (ES PERREO);
#SUBTITLE:feat. Ovy On The Drums, J Balvin, Maluma, Ryan Castro, Blessd;
#ARTIST:Karol G, Feid, DFZM;
#TITLETRANSLIT:;
#SUBTITLETRANSLIT:;
#ARTISTTRANSLIT:;
#GENRE:Latin;
#CREDIT:Bichota;
#MUSIC:+57 (ES PERREO).ogg;
#BANNER:+57 (ES PERREO).png;
#BACKGROUND:BG.png;
#CDTITLE:Popular Latin.png;
#SAMPLESTART:28.696;
#SAMPLELENGTH:15.000;
#SELECTABLE:YES;
#OFFSET:0.000;
#BPMS:0.000=92.000;
#STOPS:;
#DISPLAYBPM:92.000;
#JACKET:+57 (ES PERREO)-jacket.png;
#DISCIMAGE:;
#CDIMAGE:;
#METERTYPE:DDR X;
#TAGS:DMCA;
#BGCHANGES:0.000=+57 (ES PERREO).avi=0.000=0=0=0=StretchNoLoop====,
99999=-nosongbg-=1.000=0=0=0 // don't automatically add -songbackground-
;
#FGCHANGES:;

//--------------- dance-single - Wrland ----------------
#NOTES:
     dance-single:
     Wrland:
     Beginner:
     3:
     0,0,0,0,0:
0000
0000
0000
0000
,
0000
0000
0000
0000
,
0000
0000
0000
0000
,
0000
0000
0000
0000
,
1000
0000
0001
0000
,
0100
0000
0010
0000
,
0100
0000
0100
0000
,
0000
0000
0000
0000
,
1000
0000
1000
0000
,
0010
0000
0100
0000
,
0100
0000
0001
0000
,
0000
0000
0000
0000
,
0010
0000
0100
0000
,
0001
0000
0010
0000
,
0010
0000
0100
0000
,
0010
0000
0000
0000
,
0001
0000
0100
0000
,
0020
0030
0000
0000
0010
0000
0000
0000
,
0010
0000
0100
0000
,
0020
0030
0000
0000
0000
0000
0000
0000
,
0100
0000
0010
0000
,
0100
0000
1000
0000
,
0100
0000
0010
0000
,
0010
0000
0100
0000
,
0000
1000
0000
0100
,
0000
0100
0000
0100
,
0000
0001
0000
0100
,
0000
0100
0000
1000
,
0000
0010
0000
0000
,
0010
0000
0000
0000
,
1000
0000
0000
0000
,
0100
0000
0000
0000
,
0001
0000
0100
0000
,
0100
0000
0100
0000
,
0001
0000
0000
0000
,
0200
0000
0300
0000
;

//--------------- dance-single - Wrland ----------------
#NOTES:
     dance-single:
     Wrland:
     Easy:
     5:
     0,0,0,0,0:
0000
0000
0000
0000
,
0000
0000
0000
0000
,
0000
0000
0000
0000
,
0000
0000
0000
0000
,
1000
1000
0001
0001
,
0100
0100
0010
0001
,
0100
0010
0100
0010
,
0001
0000
0000
0000
,
1000
0100
1000
0100
,
0010
0001
0100
0010
,
0100
0010
0001
0100
,
0000
0000
0000
0000
,
0010
0001
0100
0010
,
0001
0100
0010
0100
,
0010
0001
0100
0010
,
0100
0000
1000
0100
1000
0000
0100
0010
,
0001
0100
0000
0001
0100
0001
0000
0100
,
0020
0030
0001
0100
0010
0000
0100
0000
,
0010
0000
0001
0000
0100
0000
0010
0100
,
0020
0030
0001
0000
0000
0000
0000
0000
,
0100
0000
0100
0100
0010
0000
0001
0000
,
0100
0000
1000
1000
1000
0000
0001
0000
,
0100
0000
0100
0100
0010
0000
0100
0000
,
0010
0000
0001
0001
0100
0000
0010
0000
,
0100
0000
1000
0100
1000
0000
0100
0000
,
1000
0000
0100
0010
0001
0000
0100
0000
,
0010
0000
0001
0100
0001
0000
0100
0000
,
0010
0000
0100
0010
0001
0000
0100
0000
,
0100
0010
0001
0100
,
0010
0100
1000
0100
,
1000
0100
0010
0001
,
0100
0001
0100
0010
,
0001
0100
0100
1000
,
0100
1000
0100
0010
,
0001
0100
0010
0001
,
0200
0000
0310
0000
;

//--------------- dance-single - Wrland ----------------
#NOTES:
     dance-single:
     Wrland:
     Medium:
     8:
     0,0,0,0,0:
0000
0000
0000
0000
,
0000
0000
0000
0000
,
0000
0000
0000
0000
,
0000
0000
0000
0000
,
0100
0000
0010
0001
0100
0000
0010
0100
,
0010
0000
0001
0100
0001
0000
0100
0010
,
0100
0000
1000
0100
1000
0000
0100
0010
,
0001
0000
0100
0010
0100
0000
0000
0000
,
0001
0000
0100
0010
0100
0000
0010
0001
,
0100
0000
0100
0010
0100
0000
1000
0100
,
1000
0000
0100
0010
0001
2000
3000
0000
,
0000
0000
0000
0000
,
0001
0000
1000
0001
0100
0010
0100
0010
,
0001
0000
0100
0000
0010
0000
0100
0000
0010
0000
0001
0000
0010
0000
0100
0010
,
0100
0000
0010
0000
0001
0000
0100
0000
1000
0000
0100
1000
0100
0000
0100
0000
,
0010
0001
0100
0010
0100
0010
0001
1000
,
0001
2000
3000
0001
1000
0002
0003
0100
,
0020
0000
0030
0000
0001
0000
0100
0000
0010
0000
0100
1000
0100
0000
0100
0000
,
0010
0000
0001
0100
0001
0000
0100
0000
0010
0000
0100
0010
0100
0000
0001
0000
,
0200
0310
0000
0000
,
0001
0000
0100
0001
0100
0000
0010
0000
0100
0000
1000
0100
1000
0000
0100
0000
,
0010
0000
0001
0000
0100
0010
0100
0000
,
1000
0000
0100
1000
0100
0000
1000
0000
0100
0000
0010
0100
0010
0000
0001
0000
,
0100
0010
0001
0100
,
0100
0000
0010
0100
0010
0000
0100
0000
0001
0000
0100
0001
0100
0000
0010
0000
,
0100
1000
0100
0010
,
0001
0000
0100
0001
0100
0000
0010
0000
0100
0000
1000
0100
1000
0000
0100
0000
,
0010
0001
0100
0010
,
0100
0010
0100
0000
0001
0100
0001
0000
,
0100
1000
0100
0000
0100
0010
0001
0000
,
0100
0010
0100
0000
1000
0100
1000
0000
,
0100
0010
0001
0000
0100
0010
0100
0000
,
0010
0010
0100
0100
,
1000
1000
0001
0001
,
1000
0100
1000
0100
,
0010
0001
0100
0001
;

//--------------- dance-single - Wrland ----------------
#NOTES:
     dance-single:
     Wrland:
     Hard:
     10:
     0,0,0,0,0:
0000
0000
0000
0000
,
0000
0000
0000
0000
,
0000
0000
0000
0000
,
0000
0000
0000
0000
,
1000
0000
0001
1000
0001
0000
0100
0010
,
0100
0000
0010
0001
0100
0000
0010
0100
,
0010
0000
0001
0100
0010
0000
0100
1000
,
0100
0000
0100
0010
0001
0000
0100
0010
,
0100
0000
0000
0001
0010
0000
0001
0000
0100
0000
0000
0001
0010
0000
0100
0000
,
0100
0000
0000
1000
0100
0000
1000
0000
0100
0000
0000
0010
0100
0000
0010
0000
,
0001
0000
0000
0100
0001
0000
0100
0000
0010
0000
0100
0000
0010
0100
0010
0000
,
0001
1000
1000
1000
1000
0001
0001
0001
,
0200
0300
0010
0001
0100
0010
0100
0010
,
0001
0000
0100
0001
0100
0000
0001
0000
0100
0000
0010
0100
0010
0000
0001
0000
,
0100
0000
0010
0100
0010
0000
0100
0000
1000
0000
0100
1000
0100
0000
0100
0000
,
0010
0001
0100
0010
0100
0010
0001
0100
,
1000
0100
0000
0100
0010
0001
0000
0010
,
0002
0000
0003
0000
0100
0000
0010
0000
0001
0000
0100
0010
0100
0000
0010
0000
,
0001
0000
0100
0010
0100
0000
1000
0000
0100
0000
1000
0100
1000
0000
0100
0000
,
0010
0000
0001
0000
0100
0000
0010
0000
0100
0000
0000
0000
0010
0001
0100
0000
,
0001
0000
0100
0001
0100
0000
0010
0000
0100
0000
1000
0100
1000
0000
0100
0000
,
1000
0000
0100
1000
0100
0000
0010
0000
0001
0000
0100
0001
0100
0000
0010
0000
,
0100
0000
0010
0100
0010
0000
0001
0000
0100
0000
0010
0100
0010
0000
0100
0000
,
1000
0000
0100
1000
0100
0000
1000
0000
0100
0000
0010
0100
0010
0000
0001
0000
,
0100
0000
0010
0100
0010
0000
0001
0000
0100
0000
0010
0100
0010
0000
0001
0000
,
0100
0000
0001
0010
0100
0000
0001
0000
0100
0000
0010
0100
0010
0000
0001
0000
,
0100
0000
1000
0100
1000
0000
0100
0000
0010
0000
0001
0100
0001
0000
0100
0000
,
0010
0000
0100
0010
0100
0000
0010
0000
0001
0000
0000
0000
1000
0000
0100
0000
,
1000
0000
0000
0100
1000
0000
0100
0000
0010
0000
0000
0001
0100
0000
0001
0000
,
0100
0000
0000
0010
0100
0000
0010
0000
0001
0000
0000
0100
0010
0000
0100
0000
,
1000
0000
0000
0100
1000
0000
0100
0000
0010
0000
0000
0001
0100
0000
0001
0000
,
0100
0000
0000
0010
0100
0000
0010
0000
0001
0000
0000
0100
0010
0000
0100
0000
,
1000
0000
0100
1000
0100
0000
0100
0010
,
0001
0000
0100
0010
0100
0000
0010
0001
,
0100
0000
0010
0001
0100
0000
0010
0100
,
1000
0000
0100
1000
0100
0000
0000
0000
;

//--------------- dance-single - Wrland ----------------
#NOTES:
     dance-single:
     Wrland:
     Challenge:
     12:
     0,0,0,0,0:
0000
0000
0000
0000
,
0000
0000
0000
0000
,
0000
0000
0000
0000
,
0000
0000
0000
0000
,
1000
0001
1000
0100
1000
0100
0010
0001
,
0100
0010
0100
0010
0001
0100
0010
0001
,
0100
0010
0001
0100
0010
0100
1000
0100
,
1000
0000
0100
1000
0100
0000
0010
0000
0001
0000
0100
0001
0100
0000
0010
0000
,
0100
0000
0010
0100
0001
0000
0100
0000
0010
0000
0100
0010
0100
0000
0010
0000
,
0001
0000
0100
0010
0100
0000
0100
0000
1000
0000
0100
1000
0100
0000
1000
0000
,
0100
0000
0010
0100
0010
0000
0001
0000
0100
0000
0001
0100
0001
0000
0100
0000
,
0010
0001
0010
0100
1000
0100
1000
0100
,
2000
3000
0100
0010
0001
0100
0010
0001
,
0100
0000
0001
0100
0001
0000
0100
0000
0010
0000
0001
0100
0001
0000
0100
0000
,
0010
0000
0100
0010
0100
0000
1000
0000
0100
0000
1000
0100
1000
0000
0100
0000
,
0010
0001
0100
0010
0001
0100
0010
0001
,
0100
0010
0001
0100
0001
0100
0010
0100
,
1000
0000
0100
0010
1000
0000
0100
0000
0010
0000
0001
0000
0100
0000
0010
0000
,
0001
0000
0100
0001
0100
0000
0010
0000
0100
0000
1000
0100
0010
0000
0100
0000
,
0010
0000
0001
0100
0001
0000
0100
0000
0020
0000
0000
0000
0130
0010
0100
0010
,
0100
0000
0010
0001
0100
0000
0010
0000
0100
0000
1000
0100
1000
0000
0100
0000
,
0010
0000
0001
0100
0001
0000
0100
0000
0010
0000
0100
0010
0100
0000
1000
0000
,
0100
0000
1000
0100
1000
0000
0100
0000
0010
0000
0001
0100
0001
0000
0100
0000
,
0010
0000
0100
0010
0100
0000
1000
0000
0100
0000
1000
0100
1000
0000
0100
0000
,
0010
0000
0001
0100
0001
0000
0100
0000
0010
0000
0100
0010
0100
0000
0010
0000
,
0001
0000
0100
0001
0100
0000
0010
0000
0100
0000
0010
0100
0010
0000
0100
0000
,
1000
0000
0100
1000
0100
0000
1000
0000
0100
0000
0010
0100
0010
0000
0001
0000
,
0100
0000
0001
0100
0001
0000
0100
0000
0010
0000
0100
0010
0000
0000
0110
0000
,
0001
0000
0100
0001
0100
0000
0010
0000
0100
0000
0010
0100
0010
0000
0100
0000
,
1000
0000
0100
1000
0100
0000
1000
0000
0100
0000
0010
0100
0010
0000
0001
0000
,
0100
0000
0001
0100
0001
0000
0100
0000
0010
0000
0100
0010
0100
0000
1000
0000
,
0100
0000
1000
0100
1000
0000
0100
0000
0010
0000
0001
0100
0001
0000
0100
0000
,
0010
0000
0010
0010
0100
0000
0010
0000
0100
0000
0100
0100
1000
0000
0100
0000
,
1000
0000
0100
1000
0100
0000
1000
0000
0100
0000
0010
0100
0010
0000
0001
0000
,
0100
0000
0010
0001
0100
0000
0010
0001
,
0100
0000
0010
0100
0010
0000
0000
0000
;
