#VERSION:0.83;
#TITLE:xenon;
#SUBTITLE:;
#ARTIST:Mr.T;
#TITLETRANSLIT:;
#SUBTITLETRANSLIT:;
#ARTISTTRANSLIT:;
#GENRE:;
#ORIGIN:;
#CREDIT:;
#BANNER:xenon.png;
#BACKGROUND:xenon-bg.png;
#PREVIEWVID:;
#JACKET:xenon-jacket.png;
#CDIMAGE:;
#DISCIMAGE:;
#LYRICSPATH:;
#CDTITLE:;
#MUSIC:xenon.ogg;
#OFFSET:0.000000;
#SAMPLESTART:19.749001;
#SAMPLELENGTH:20.000000;
#SELECTABLE:YES;
#DISPLAYBPM:158.000000;
#BPMS:0.000=158.590,
4.000=158.002;
#STOPS:;
#DELAYS:;
#WARPS:;
#TIMESIGNATURES:0.000=4=4;
#TICKCOUNTS:0.000=4;
#COMBOS:0.000=1;
#SPEEDS:0.000=1.000=0.000=0;
#SCROLLS:0.000=1.000;
#FAKES:;
#LABELS:0.000=Song Start;
#BGCHANGES:;
#KEYSOUNDS:;
#ATTACKS:
;

//---------------dance-single - ----------------
#NOTEDATA:;
#CHARTNAME:;
#STEPSTYPE:dance-single;
#DESCRIPTION:;
#CHARTSTYLE:;
#DIFFICULTY:Beginner;
#METER:3;
#RADARVALUES:0.205921,0.256509,0.068100,0.000000,0.000000,127.000000,121.000000,6.000000,0.000000,0.000000,0.000000,0.000000,0.000000,0.000000,0.205921,0.256509,0.068100,0.000000,0.000000,127.000000,121.000000,6.000000,0.000000,0.000000,0.000000,0.000000,0.000000,0.000000;
#CREDIT:;
#DISPLAYBPM:158.000000;
#NOTES:
0000
0000
0000
0000
,
0000
0000
0000
0000
,
0000
0000
0000
0000
,
0000
0000
0000
0000
,
0000
0000
0000
0000
,
0100
0000
0100
0000
,
0100
0000
0100
0000
,
0010
0000
0010
0000
,
0010
0000
0010
0000
,
0100
0100
0100
0000
,
0100
0100
0100
0000
,
0010
0010
0010
0000
,
0010
0000
1001
0000
,
0000
0100
0000
0100
,
0000
0001
0000
0001
,
0000
1000
0000
1000
,
0000
0010
0000
0110
,
0000
0100
0000
0100
,
0000
0001
0000
0001
,
0000
1000
0000
1000
,
0000
0010
0000
0110
,
0000
0100
0100
0100
,
0000
0001
0001
0001
,
0000
1000
1000
1000
,
0000
0010
0000
0110
,
0000
0100
0100
0100
,
0000
0001
0001
0001
,
0000
1000
1000
1000
,
0000
0010
0010
0000
,
0100
0000
0010
0000
,
1000
0000
0001
0000
,
0100
0000
0000
1000
,
1000
0000
0001
0000
,
0100
0000
0000
0001
,
0001
0000
1000
0000
,
0010
0000
0000
0100
,
0100
0000
0010
0000
,
1000
0000
1000
1000
,
0000
0100
0100
0000
,
0001
0000
0001
0001
,
0000
0100
0100
0000
,
1000
0000
1000
1000
,
0000
0010
0010
0000
,
0001
0000
0001
0001
,
0000
0010
0010
0010
,
0000
0100
0000
0100
,
0000
0010
0000
0010
,
0000
1000
0000
1000
,
0000
0001
0000
1001
,
0000
0010
0000
0010
,
0000
0100
0000
0100
,
0000
0001
0000
0001
,
0000
1000
0000
1001
,
0000
0100
0100
0100
,
0000
0010
0010
0010
,
0000
1000
1000
1000
,
0000
0001
0001
0000
,
0000
0000
0000
0000
;

//---------------dance-single - ----------------
#NOTEDATA:;
#CHARTNAME:;
#STEPSTYPE:dance-single;
#DESCRIPTION:;
#CHARTSTYLE:;
#DIFFICULTY:Easy;
#METER:5;
#RADARVALUES:0.293478,0.384764,0.238349,0.136200,0.000000,181.000000,160.000000,21.000000,12.000000,0.000000,0.000000,0.000000,0.000000,0.000000,0.293478,0.384764,0.238349,0.136200,0.000000,181.000000,160.000000,21.000000,12.000000,0.000000,0.000000,0.000000,0.000000,0.000000;
#CREDIT:;
#DISPLAYBPM:158.000000;
#NOTES:
0000
0000
0000
0000
,
0000
0000
0000
0000
,
0000
0000
0000
0000
,
0000
0000
0000
0000
,
0000
0000
0000
0000
,
0100
1000
0100
1100
,
0010
0001
0010
0011
,
0100
0010
0100
0110
,
1000
0001
1000
1001
,
1000
0010
1000
1010
,
0100
0001
0100
0101
,
0010
0100
0010
0110
,
0001
0001
1000
1000
,
0100
0001
0000
0001
,
0100
1000
0000
1000
,
0010
0001
0000
0001
,
0100
0000
0000
1001
,
0100
1000
0000
1000
,
0100
0001
0000
0001
,
0010
1000
0000
1000
,
0100
0100
0000
1001
,
0010
0001
0000
0001
,
0010
1000
0000
1000
,
0100
0001
0000
0001
,
0010
0000
0000
1001
,
0010
1000
0000
1000
,
0010
0001
0000
0001
,
0100
1000
0000
1000
,
0010
0010
0000
1001
,
0200
0300
0020
0030
,
2000
3000
0002
0003
,
0200
0000
0300
0010
,
2000
3000
0002
0003
,
0200
0000
0300
0010
,
0200
0300
0002
0003
,
2000
0000
3000
0010
,
0200
0000
0000
0300
,
0010
1010
0010
0010
,
1000
0100
1000
0100
,
0010
0011
0010
0010
,
0001
0100
0001
0100
,
0010
1010
1000
1000
,
1000
0100
1000
0100
,
0010
0011
0001
0001
,
0001
0100
0001
0100
,
0010
1000
0000
1000
,
0010
0001
0000
0001
,
0100
1000
0000
1000
,
0010
0000
0000
1001
,
0010
0001
0000
0001
,
0010
1000
0000
1000
,
0100
0001
0000
0001
,
0010
0010
0000
1001
,
0100
0100
0000
0110
,
0010
0010
0000
0110
,
0100
0100
0000
1001
,
0010
0010
1001
0000
,
0000
0000
0000
0000
;

//---------------dance-single - ----------------
#NOTEDATA:;
#CHARTNAME:;
#STEPSTYPE:dance-single;
#DESCRIPTION:;
#CHARTSTYLE:;
#DIFFICULTY:Medium;
#METER:10;
#RADARVALUES:0.476698,0.578423,0.261049,0.136200,0.000000,294.000000,271.000000,23.000000,12.000000,0.000000,0.000000,0.000000,0.000000,0.000000,0.476698,0.578423,0.261049,0.136200,0.000000,294.000000,271.000000,23.000000,12.000000,0.000000,0.000000,0.000000,0.000000,0.000000;
#CREDIT:;
#DISPLAYBPM:158.000000;
#NOTES:
0000
0000
0000
0000
,
0000
0000
0000
0000
,
0000
0000
0000
0000
,
0000
0000
0000
0000
,
0000
0000
0000
0000
,
0100
0000
1000
0000
0100
1000
1100
0000
,
0010
0000
0001
0000
0010
0001
0011
0000
,
0100
0000
0010
0000
0100
0010
0110
0000
,
1000
0000
0001
0000
1000
0001
1001
0000
,
1000
0000
0010
0000
1000
0010
1010
0000
,
0100
0000
0001
0000
0100
0001
0101
0000
,
0010
0000
0100
0000
0010
0100
0110
0000
,
0001
0001
0001
1000
1000
1000
0010
0100
,
0001
0010
0100
1000
,
0100
0010
0001
0100
,
1000
0100
0001
0010
,
0100
1000
1000
1000
0001
0001
0001
0010
,
1000
0100
0010
0001
,
0010
0100
1000
0010
,
0001
0010
1000
0100
,
0010
1000
1000
1000
0001
0001
0001
0100
,
0010
1000
0100
0001
,
0100
1000
0010
0001
,
0010
1000
0001
0010
,
0100
1000
1000
1000
0001
0001
0001
0100
,
0010
0001
0010
1000
,
0010
0001
0100
1000
,
0100
0001
1000
0100
,
0010
0001
0001
0001
1000
1000
1000
0000
,
0200
0000
0302
0000
,
2003
0000
3020
0000
,
0230
0000
0000
0301
,
2000
0000
3200
0000
,
0302
0000
0000
0103
,
2000
0000
3002
0000
,
0023
0000
0000
0031
,
0200
0010
0010
0000
0010
0010
0310
0000
,
1000
0100
0000
1100
0001
0010
0011
0000
,
1000
0100
0010
0001
0100
0010
1000
0000
,
0001
0100
0000
0101
1000
0010
1010
0000
,
0001
0010
0100
1000
0010
0100
0001
0000
,
0100
0001
0000
0101
0010
1000
1010
0000
,
1000
0010
0100
0001
0010
0100
1000
0000
,
0100
1000
0000
1100
0010
0001
0011
0000
,
0010
0100
0100
0100
0010
0010
0010
0000
,
0100
1000
0100
1000
0100
1000
0100
0000
,
0001
1000
0001
1000
0001
1000
0001
0000
,
0010
1000
0010
1000
0010
1000
0010
0000
,
0000
0001
0001
0001
1000
1000
1000
0000
,
0100
0001
0100
0001
0100
0001
0100
0000
,
1000
0001
1000
0001
1000
0001
1000
0000
,
0010
0001
0010
0001
0010
0001
0010
0000
,
0000
1000
1000
1000
0001
0001
0001
0000
,
1000
0010
0000
1010
0100
0001
0101
0000
,
0001
0010
0000
0011
0100
1000
1100
0000
,
1000
0010
0000
0101
0010
1000
1010
0000
,
0001
0010
0000
1100
0010
0011
0000
0000
,
0000
0000
0000
0000
;

//---------------dance-single - ----------------
#NOTEDATA:;
#CHARTNAME:;
#STEPSTYPE:dance-single;
#DESCRIPTION:;
#CHARTSTYLE:;
#DIFFICULTY:Hard;
#METER:13;
#RADARVALUES:0.609655,0.675571,0.011350,0.124850,0.856922,376.000000,375.000000,1.000000,11.000000,0.000000,0.000000,0.000000,0.000000,0.000000,0.609655,0.675571,0.011350,0.124850,0.856922,376.000000,375.000000,1.000000,11.000000,0.000000,0.000000,0.000000,0.000000,0.000000;
#CREDIT:;
#DISPLAYBPM:158.000000;
#NOTES:
0000
0000
0000
0000
,
0000
0000
0000
0000
,
0000
0000
0000
0000
,
0000
0000
0000
0000
,
0000
0000
0000
0000
,
1000
0100
1000
0001
1000
0010
1000
0001
,
0010
0100
0010
0001
0010
0100
0010
1000
,
0001
0100
0001
1000
0001
0010
0001
1000
,
0100
0010
0100
0001
0100
0010
0100
1000
,
0001
0100
0001
1000
0001
0010
0001
1000
,
0010
0100
0010
1000
0010
0100
0010
0001
,
1000
0100
1000
0001
1000
0010
1000
0001
,
0000
1000
0100
0000
0010
0001
0000
1000
0000
0001
0100
0000
0010
0000
0100
0000
,
0001
0000
0000
1000
0000
0010
0000
0000
1000
0000
0000
0001
0000
0000
0010
0000
,
0001
0000
0000
1000
0000
0001
0000
0000
0100
0000
0000
0010
0000
1000
0000
0000
,
0001
0000
0000
1000
0000
0000
0100
0000
0010
0000
0000
0001
0000
0010
0000
0000
,
0100
1000
0000
1000
0001
1000
0000
0001
0000
1000
0010
0000
1000
0000
0100
0000
,
1000
0000
0000
0001
0000
0010
0000
0000
0001
0000
0000
1000
0000
0000
0010
0000
,
1000
0000
0000
0001
0000
1000
0000
0000
0100
0000
0000
0010
0000
0001
0000
0000
,
1000
0000
0000
0001
0000
0100
0000
0000
0010
0000
0000
1000
0000
0010
0000
0000
,
0100
0001
0100
0000
0001
0100
0000
0010
0000
1000
0001
0000
0010
0100
0010
0000
,
0001
0000
0000
1000
0000
0100
0000
0000
1000
0000
0000
0001
0000
0000
0100
0000
,
0001
0000
0000
1000
0000
0001
0000
0000
0010
0000
0000
0100
0000
1000
0000
0000
,
0001
0000
0000
1000
0000
0000
0010
0000
0100
0000
0000
0001
0000
0100
0000
0000
,
0010
1000
0000
1000
0001
1000
0000
0001
0000
1000
0100
0000
1000
0000
0010
0000
,
1000
0000
0000
0001
0000
0100
0000
0000
0001
0000
0000
1000
0000
0000
0100
0000
,
1000
0000
0000
0001
0000
1000
0000
0000
0010
0000
0000
0100
0000
0001
0000
0000
,
1000
0000
0000
0001
0000
0010
0000
0000
0100
0000
0000
1000
0000
0100
0000
0000
,
0010
0001
0010
0000
0001
0010
0000
0100
0000
1000
0001
0000
0100
0010
0100
0000
,
0002
1003
0020
1030
,
0200
0000
0000
0000
1300
0000
0000
0000
0020
0000
0000
0000
1030
0000
0001
1000
,
0200
1000
0300
0010
,
0002
1003
2000
3001
,
0200
0010
0300
0001
,
0200
0310
0002
1003
,
0020
1000
0030
0001
,
1000
0001
1000
0000
1000
0100
0000
0010
0000
0001
0100
0000
0001
1000
0001
0000
,
1000
0010
0000
0100
0000
0100
0010
0000
0010
1000
0000
0100
0000
0010
0000
0000
,
0001
0100
1000
0100
0001
0010
0100
1000
,
0001
0010
0000
0100
0000
0100
0000
0000
0010
0001
0000
0000
0000
0100
0000
0000
,
1000
0100
0001
0010
0100
1000
0001
0100
,
0010
1000
0000
1000
0000
0100
0010
0000
0010
0001
0000
1000
0000
0010
0000
0000
,
0100
1000
0100
0001
0010
0100
1000
0001
,
1000
0010
0000
0100
0000
0100
0000
0000
0010
1000
0000
0000
0000
0100
0000
0000
,
0010
0001
0010
0000
0100
1000
0000
0001
0000
1000
0100
0000
0010
0001
0010
0000
,
0100
0000
0000
1000
0000
0001
0000
0000
0100
0000
0000
0010
0000
0000
1000
0000
,
0001
0000
0000
0010
0000
0100
0000
0000
1000
0000
0000
0001
0000
0100
0000
0000
,
0010
0000
0000
1000
0000
0000
0001
0000
0100
0000
0000
0010
0000
1000
0000
0000
,
0001
0100
0000
0001
1000
0001
0000
1000
0000
0100
0010
0000
0001
0000
0100
0000
,
0010
0000
0000
1000
0000
0001
0000
0000
0010
0000
0000
0100
0000
0000
1000
0000
,
0001
0000
0000
0100
0000
0010
0000
0000
1000
0000
0000
0001
0000
0010
0000
0000
,
0100
0000
0000
1000
0000
0100
0000
0000
0010
0000
0000
0001
0000
1000
0000
0000
,
0001
0010
0001
0000
1000
0001
0000
1000
0000
0010
0100
0000
0001
1000
0001
0000
,
1000
0010
0000
0100
0000
0001
0100
0001
1000
0000
0000
0010
0000
0000
0100
0000
,
0000
0001
0000
0010
0000
0100
1000
0100
0010
0000
0000
0001
0000
0000
0100
0010
,
0100
0001
0000
1000
0000
0010
0100
0010
1000
0000
0000
0001
0000
0000
0100
0000
,
0000
0010
0000
1000
0000
0001
0100
0010
1000
0000
0000
1001
0000
0000
0000
0000
,
0000
0000
0000
0000
;

//---------------dance-double - ----------------
#NOTEDATA:;
#CHARTNAME:;
#STEPSTYPE:dance-double;
#DESCRIPTION:;
#CHARTSTYLE:;
#DIFFICULTY:Easy;
#METER:5;
#RADARVALUES:0.322663,0.352700,0.249699,0.136200,0.000000,199.000000,177.000000,22.000000,12.000000,0.000000,0.000000,0.000000,0.000000,0.000000,0.322663,0.352700,0.249699,0.136200,0.000000,199.000000,177.000000,22.000000,12.000000,0.000000,0.000000,0.000000,0.000000,0.000000;
#CREDIT:;
#DISPLAYBPM:158.000000;
#NOTES:
00000000
00000000
00000000
00000000
,
00000000
00000000
00000000
00000000
,
00000000
00000000
00000000
00000000
,
00000000
00000000
00000000
00000000
,
00000000
00000000
00000000
00000000
,
01000000
00100000
00000000
01100000
,
00100000
00001000
00000000
00011000
,
00001000
01000000
00000000
01100000
,
01000000
00001000
00000000
00011000
,
00000100
00000010
00000000
00000110
,
00000010
00010000
00000000
00011000
,
00010000
00000100
00000000
00000110
,
00000100
00010000
00001000
00011000
,
00100000
10000000
01000000
10000000
,
00100000
00010000
00001000
00010000
,
00001000
00000100
00000001
00000010
,
00000100
00000010
00000001
00001001
,
00000010
00000001
00000100
00000001
,
00000010
00001000
00010000
00001000
,
00010000
01000000
10000000
00100000
,
01000000
00100000
10000000
10010000
,
01000000
10000000
00100000
10000000
,
01000000
00010000
00001000
00010000
,
00001000
00000010
00000001
00000100
,
00000010
00000100
00000001
00001001
,
00000100
00000001
00000010
00000001
,
00000100
00001000
00010000
00001000
,
00010000
00100000
10000000
01000000
,
00100000
01000000
10000000
10010000
,
00020000
00030000
02000000
03000000
,
00002000
00003000
00020000
00030000
,
00000200
00000000
00000300
00000010
,
00000002
00000003
00000200
00000300
,
00020000
00000000
00030000
00000010
,
00000200
00000300
00002000
00003000
,
00020000
00000000
00030000
00100000
,
02000000
00000000
00000000
03100000
,
10000000
01000000
00000000
01100000
,
00010000
00100000
00001000
00010000
,
00000010
00000100
00000000
00000110
,
00000010
00001000
00000001
00000010
,
00000001
00000100
00000000
00000110
,
00001000
00000010
00010000
00001000
,
00100000
01000000
00000000
01100000
,
00100000
00010000
10000000
00100000
,
10000000
01000000
00010000
00001000
,
00010000
01000000
10000000
00100000
,
00010000
00001000
00000100
00000010
,
00000100
00000100
00000010
00000110
,
00000001
00000100
00001000
00010000
,
00001000
00000100
00000001
00000010
,
00001000
00010000
01000000
00100000
,
01000000
01000000
00100000
01100000
,
01000000
10000000
00000000
11000000
,
00010000
01000000
00000000
01010000
,
00001000
00010000
00000000
00011000
,
00000100
00000010
00000110
00000000
,
00000000
00000000
00000000
00000000
;

//---------------dance-double - ----------------
#NOTEDATA:;
#CHARTNAME:;
#STEPSTYPE:dance-double;
#DESCRIPTION:;
#CHARTSTYLE:;
#DIFFICULTY:Medium;
#METER:9;
#RADARVALUES:0.413463,0.417750,0.045400,0.124850,0.000000,255.000000,251.000000,4.000000,11.000000,0.000000,0.000000,0.000000,0.000000,0.000000,0.413463,0.417750,0.045400,0.124850,0.000000,255.000000,251.000000,4.000000,11.000000,0.000000,0.000000,0.000000,0.000000,0.000000;
#CREDIT:;
#DISPLAYBPM:158.000000;
#NOTES:
00000000
00000000
00000000
00000000
,
00000000
00000000
00000000
00000000
,
00000000
00000000
00000000
00000000
,
00000000
00000000
00000000
00000000
,
00000000
00000000
00000000
00000000
,
10000000
00000000
01000000
00000000
00100000
00010000
01000000
00000000
,
10000000
00000000
00100000
00000000
01000000
00010000
00100000
00000000
,
01000000
00000000
00010000
00000000
00001000
00000100
00000010
00000000
,
00001000
00000000
00000100
00000000
00000010
00000001
00000100
00000000
,
00000001
00000000
00000100
00000000
00000010
00001000
00000100
00000000
,
00000001
00000000
00000010
00000000
00000100
00001000
00000010
00000000
,
00000100
00000000
00001000
00000000
00010000
01000000
00100000
00000000
,
00010000
00010000
00010000
00000000
10000000
10000000
10000000
01000000
,
00010000
00001000
00000010
00000001
,
00000100
00000010
00000100
00001000
,
00010000
00001000
00000100
00000001
,
00000010
00000100
00000100
00000000
00010000
00001000
00011000
00000000
,
00001000
00010000
00100000
10000000
,
01000000
00100000
01000000
00010000
,
00001000
00010000
01000000
10000000
,
00100000
01000000
01000000
00000000
00001000
00010000
00011000
00000000
,
00010000
00001000
00000100
00000001
,
00000010
00000100
00000010
00001000
,
00010000
00001000
00000010
00000001
,
00000100
00000010
00000010
00000000
00010000
00010000
00011000
00000000
,
00001000
00010000
01000000
10000000
,
00100000
01000000
00100000
00010000
,
00001000
00010000
00100000
10000000
,
01000000
00100000
00100000
00000000
00001000
00001000
00011000
00000000
,
00002000
00003010
00000020
00000130
,
00000200
00010300
00020000
00130000
,
20000000
00010000
31000000
00010000
,
00200000
01300000
02000000
13000000
,
00200000
10000000
01300000
00010000
,
02000000
03010000
00002000
00103000
,
00020000
00001000
00030100
00000010
,
00000001
00000001
00000001
00000000
00001000
00001000
00001000
00000000
,
00000001
00000100
00000010
00001000
00000100
00000000
00000100
00000000
,
00000010
00000001
00000100
00001000
,
00010000
00100000
01000000
00010000
10000000
00000000
10000000
00000000
,
01000000
00010000
00001000
00000010
,
00000001
00000010
00000100
00001000
00000010
00000000
00000010
00000000
,
00000100
00000001
00000010
00001000
,
00010000
01000000
00100000
00010000
10000000
00000000
10000000
00000000
,
00100000
00100000
00100000
00000000
01000000
01000000
01000000
00000000
,
00010000
10000000
01000000
00100000
00001000
00000000
00010000
00000000
,
00001000
00000100
00000001
00000010
,
00001000
00010000
00001000
00000100
,
00000001
00001000
00001000
00000000
00001000
00000001
00000001
00000000
,
00001000
00000001
00000100
00000010
00010000
00000000
00001000
00000000
,
00010000
01000000
10000000
00100000
,
00010000
00001000
00010000
01000000
,
10000000
00010000
00010000
00000000
00010000
10000000
10000000
00000000
,
01000000
00100000
01000000
00000000
00010000
00000000
01000000
00000000
,
10000000
00100000
01000000
00000000
00001000
00000000
00010000
00000000
,
00000100
00000010
00000100
00000000
00000001
00000000
00000100
00000000
,
00001000
00000010
00000100
00001000
00010000
00001000
00000000
00000000
,
00000000
00000000
00000000
00000000
;

//---------------dance-double - ----------------
#NOTEDATA:;
#CHARTNAME:;
#STEPSTYPE:dance-double;
#DESCRIPTION:;
#CHARTSTYLE:;
#DIFFICULTY:Hard;
#METER:13;
#RADARVALUES:0.590198,0.643401,0.011350,0.136200,0.675323,364.000000,363.000000,1.000000,12.000000,0.000000,0.000000,0.000000,0.000000,0.000000,0.590198,0.643401,0.011350,0.136200,0.675323,364.000000,363.000000,1.000000,12.000000,0.000000,0.000000,0.000000,0.000000,0.000000;
#CREDIT:;
#DISPLAYBPM:158.000000;
#NOTES:
00000000
00000000
00000000
00000000
,
00000000
00000000
00000000
00000000
,
00000000
00000000
00000000
00000000
,
00000000
00000000
00000000
00000000
,
00000000
00000000
00000000
00000000
,
10000000
01000000
10000000
00010000
10000000
00100000
10000000
01000000
,
00010000
00001000
00010000
00000010
00010000
00000100
00010000
00001000
,
00000100
00000010
00000100
00000001
00000100
00000010
00000100
00001000
,
00010000
01000000
00010000
00001000
00010000
00000100
00010000
00001000
,
00100000
00010000
00100000
01000000
00100000
10000000
00100000
00010000
,
01000000
00100000
01000000
00001000
01000000
00010000
01000000
00100000
,
10000000
01000000
10000000
00010000
10000000
01000000
10000000
00010000
,
00000000
10000000
01000000
00000000
00100000
00001000
00000000
01000000
00000000
00010000
10000000
00000000
01000000
00000000
00010000
00000000
,
00001000
00000000
00000000
00000100
00000000
00000001
00000000
00000000
00000010
00000000
00000000
00000100
00000000
00000000
00010000
00000000
,
00001000
00000000
00000000
00010000
00000000
01000000
00000000
00000000
10000000
00000000
00000000
00100000
00000000
01000000
00000000
00000000
,
00100000
00000000
00000000
10000000
00000000
00000000
01000000
00000000
00010000
00000000
00000000
00001000
00000000
00010000
00000000
00000000
,
00000100
00001000
00000000
00000010
00000100
00000001
00000000
00001000
00000000
00000100
00000010
00000000
00000001
00000000
00000100
00000000
,
00001000
00000000
00000000
00010000
00000000
00100000
00000000
00000000
01000000
00000000
00000000
00010000
00000000
00000000
10000000
00000000
,
01000000
00000000
00000000
00010000
00000000
00001000
00000000
00000000
00010000
00000000
00000000
00100000
00000000
01000000
00000000
00000000
,
10000000
00000000
00000000
01000000
00000000
00010000
00000000
00000000
00001000
00000000
00000000
00000100
00000000
00000010
00000000
00000000
,
00001000
00000100
00001000
00000000
00000001
00000100
00000000
00000010
00000000
00001000
00000001
00000000
00000100
00000010
00000100
00000000
,
00001000
00000000
00000000
00010000
00000000
00100000
00000000
00000000
01000000
00000000
00000000
00100000
00000000
00000000
00010000
00000000
,
00100000
00000000
00000000
10000000
00000000
01000000
00000000
00000000
00010000
00000000
00000000
00001000
00000000
00000010
00000000
00000000
,
00000100
00000000
00000000
00001000
00000000
00000000
00010000
00000000
00100000
00000000
00000000
01000000
00000000
00010000
00000000
00000000
,
00001000
00010000
00000000
01000000
00100000
01000000
00000000
00100000
00000000
00001000
00010000
00000000
00001000
00000000
01000000
00000000
,
00100000
00000000
00000000
10000000
00000000
01000000
00000000
00000000
00010000
00000000
00000000
01000000
00000000
00000000
10000000
00000000
,
00100000
00000000
00000000
00010000
00000000
00001000
00000000
00000000
00000100
00000000
00000000
00001000
00000000
00010000
00000000
00000000
,
00100000
00000000
00000000
00010000
00000000
00001000
00000000
00000000
00000100
00000000
00000000
00000001
00000000
00000010
00000000
00000000
,
00000001
00000100
00000001
00000000
00001000
00000100
00000000
00000010
00000000
00000100
00010000
00000000
00001000
00000000
01000000
00000000
,
00200000
10300000
02000000
03010000
,
00000200
00000000
00000000
00000000
00001300
00000000
00000000
00000000
00000002
00000000
00000000
00000000
00000003
00000000
00001000
00000100
,
00000020
00000001
00001030
00000001
,
00000200
00001300
00020000
00130000
,
02000000
10000000
03010000
00100000
,
20000000
31000000
00020000
00031000
,
00000020
00000001
00001030
00000001
,
00000200
00001000
00001000
00000000
00000001
00000001
00000300
00001000
,
00010000
00100000
01000000
00010000
10000000
01000000
00100000
00001000
,
00010000
00000010
00000100
00000001
00001000
00000100
00000010
00000001
,
00000100
00001000
00010000
00100000
10000000
00010000
01000000
00100000
,
10000000
00010000
00100000
00001000
01000000
00001000
00010000
00000100
,
00000010
00000001
00000100
00000010
00010000
00001000
00100000
00010000
,
10000000
01000000
00010000
00001000
00000100
00000010
00010000
00001000
,
01000000
00100000
10000000
01000000
00100000
00010000
01000000
00001000
,
00010000
00001000
00010000
00000000
00000010
00000100
00000000
00000001
00000000
00001000
00000100
00000000
00011000
00000000
00000000
00000000
,
00100000
00000000
00000000
01000000
00000000
00010000
00000000
00000000
10000000
00000000
00000000
01000000
00000000
00000000
00100000
00000000
,
00010000
00000000
00000000
00001000
00000000
00000100
00000000
00000000
00000010
00000000
00000000
00000100
00000000
00001000
00000000
00000000
,
00010000
00000000
00000000
00100000
00000000
00000000
00001000
00000000
01000000
00000000
00000000
00010000
00000000
10000000
00000000
00000000
,
01000000
00100000
00000000
00010000
01000000
00010000
00000000
10000000
00000000
00010000
00100000
00000000
01000000
00000000
00010000
00000000
,
00001000
00000000
00000000
00000010
00000000
00000001
00000000
00000000
00000100
00000000
00000000
00000010
00000000
00000000
00001000
00000000
,
00010000
00000000
00000000
01000000
00000000
00100000
00000000
00000000
10000000
00000000
00000000
01000000
00000000
00100000
00000000
00000000
,
00001000
00000000
00000000
00010000
00000000
00000100
00000000
00000000
00000010
00000000
00000000
00000001
00000000
00001000
00000000
00000000
,
00000010
00001000
00000010
00000000
00000100
00000010
00000000
00000001
00000000
00001000
00000100
00000000
00000010
00000000
00000001
00000000
,
00001000
00000001
00000000
00000100
00000000
00000010
00001000
00000000
00000001
00000000
00000000
00000100
00000000
00001000
00000000
00000000
,
00000000
00010000
00000000
01000000
00000000
00100000
00010000
00000000
10000000
00000000
00000000
01000000
00000000
00010000
00001000
00000000
,
00000000
00010000
00000000
01000000
00000000
00100000
00010000
00000000
10000000
00000000
00000000
01000000
00000000
00010000
00000000
00000000
,
00000000
00001000
00000000
00000100
00000000
00000010
00000001
00000000
00001000
00000000
00000000
00000100
00000000
00000000
00000000
00000000
,
00000000
00000000
00000000
00000000
;

//---------------dance-single - ----------------
#NOTEDATA:;
#CHARTNAME:;
#STEPSTYPE:dance-single;
#DESCRIPTION:;
#CHARTSTYLE:;
#DIFFICULTY:Challenge;
#METER:17;
#RADARVALUES:0.946911,0.932932,0.680998,0.249699,1.526570,584.000000,524.000000,60.000000,22.000000,0.000000,0.000000,0.000000,0.000000,0.000000,0.946911,0.932932,0.680998,0.249699,1.526570,584.000000,524.000000,60.000000,22.000000,0.000000,0.000000,0.000000,0.000000,0.000000;
#CREDIT:;
#DISPLAYBPM:158.000000;
#NOTES:
// measure 0
0000
0000
0000
0000
,  // measure 1
0000
0000
0000
0000
,  // measure 2
0000
0000
0000
0000
,  // measure 3
1000
0000
0000
1000
0100
0000
0000
0000
0001
0000
0000
0001
0100
0000
0000
0000
,  // measure 4
1000
0010
1000
0010
0100
0010
0100
0010
0100
0001
0100
0001
1000
0001
1000
0001
,  // measure 5
0010
0100
0000
1000
0100
1000
0010
0100
0001
0010
0000
0001
0100
0000
0001
0000
,  // measure 6
0000
1000
0000
0001
1000
0010
0100
0001
0010
0100
0000
0100
1000
0000
0001
0000
,  // measure 7
1000
0100
0000
1000
0001
0010
0100
0010
0100
1000
0000
0001
1000
0000
0001
0000
,  // measure 8
0000
1000
0000
1000
0001
1000
0010
0100
0001
1000
0000
0010
1000
0000
0100
0000
,  // measure 9
0010
0001
0000
1000
0001
0100
0010
0100
0010
1000
0000
0100
0010
0000
0100
0000
,  // measure 10
0000
0010
0000
0001
0100
0001
1000
0100
0010
0100
0000
1000
0001
0000
1000
0000
,  // measure 11
0010
1000
0000
0100
0010
0001
0100
0010
0100
0001
0000
1000
0001
0000
0010
0000
,  // measure 12
0100
1000
0100
1000
0001
1000
0001
1000
0001
0010
0001
0010
0100
0010
0100
0010
,  // measure 13
0001
0000
0000
0101
0000
1100
0000
0000
0020
0000
0000
2030
0000
0000
3001
0000
,  // measure 14
0100
0000
0000
0110
0000
1010
0000
0000
1000
0000
0000
1100
0000
0011
0000
0000
,  // measure 15
0200
0000
0000
0302
0000
0000
0013
0000
0100
0000
0000
1001
0000
0011
0000
0000
,  // measure 16
1000
0010
0100
0010
1000
0100
0010
0001
0000
0010
1000
0100
1000
0001
1000
0000
,  // measure 17
0100
0000
0000
1010
0000
1100
0000
0000
0002
0000
0000
2003
0000
0000
3010
0000
,  // measure 18
1000
0000
0000
1100
0000
0101
0000
0000
0010
0000
0000
0110
0000
1010
0000
0000
,  // measure 19
1000
0000
0000
0011
0000
0110
0000
0000
0100
0000
0000
1010
0000
0101
0000
0000
,  // measure 20
1000
0001
0010
0100
1000
0010
1000
0100
0000
0001
0010
0001
0100
0010
1000
0000
,  // measure 21
0001
0000
0000
0110
0000
1001
0000
0000
0200
0000
0000
0320
0000
0000
1030
0000
,  // measure 22
0010
0000
0000
1100
0000
0110
0000
0000
0100
0000
0000
1001
0000
0101
0000
0000
,  // measure 23
0002
0000
0000
0203
0000
0000
0310
0000
1000
0000
0000
0011
0000
0101
0000
0000
,  // measure 24
1000
0100
0010
0001
0100
0001
1000
0010
0000
0010
1000
0001
0100
0010
1000
0000
,  // measure 25
0100
0000
0000
0110
0000
1100
0000
0000
2000
0000
0000
3020
0000
0000
0130
0000
,  // measure 26
0001
0000
0000
0011
0000
1010
0000
0000
0100
0000
0000
0101
0000
1100
0000
0000
,  // measure 27
1000
0000
0000
0110
0000
1010
0000
0000
0001
0000
0000
1100
0000
1001
0000
0000
,  // measure 28
0010
1000
0100
1000
0100
0010
0001
1000
0000
0001
1000
0001
0010
0100
1000
0000
,  // measure 29
0010
1000
0000
0100
0000
1000
0001
0000
0010
0000
0000
0001
0000
0100
0000
0000
,  // measure 30
0000
0001
0000
0010
0000
0001
0100
0000
0010
0000
0000
1000
0000
0000
0001
0000
,  // measure 31
0100
0001
0000
1000
0000
0100
0010
0000
0001
0000
0000
1000
0000
0010
0000
0000
,  // measure 32
0000
1000
0000
0100
0000
0010
0001
0000
0100
0000
0000
0010
0000
0000
1000
0000
,  // measure 33
0010
0100
0000
0010
0000
1000
0100
0000
0010
0000
0000
0001
0000
0001
0000
0000
,  // measure 34
0000
0100
0000
0010
0000
1000
0001
0000
1000
0000
0000
0100
0000
0000
0010
0000
,  // measure 35
0001
0100
0000
0010
0000
1000
0100
0000
1000
0000
0000
0010
0000
0100
0000
0000
,  // measure 36
0001
0010
0001
0010
0100
1000
0100
1000
0010
0100
0010
0100
0001
1000
0001
1000
,  // measure 37
0010
0100
0000
0100
0001
1000
0100
0000
0010
0001
0000
1000
0001
0200
0010
0000
,  // measure 38
1300
0000
0100
0000
0010
0000
0001
0000
0100
0001
0010
0100
1000
0001
1000
0000
,  // measure 39
0010
0001
0000
0001
1000
0100
0010
0000
0100
1000
0000
0001
1000
0020
0100
0000
,  // measure 40
1030
0000
0010
0000
0100
0000
0001
0000
0010
0001
0100
0001
0010
0100
1000
0000
,  // measure 41
0010
1000
0000
0001
1000
0100
0010
0000
0001
0100
0000
0001
0010
0002
1000
0000
,  // measure 42
0103
0000
0001
0000
0010
0000
0001
0000
1000
0100
0010
0100
1000
0001
0100
0000
,  // measure 43
0010
0100
0000
0010
1000
0100
0010
0000
0001
1000
0000
0010
0001
2000
0100
0000
,  // measure 44
3001
1000
0100
0010
0100
1000
0001
0100
0010
1000
0100
0010
0001
0100
0010
1000
,  // measure 45
0001
0000
0000
1010
0000
0011
0000
0000
0200
0000
0000
0320
0000
0000
1030
0000
,  // measure 46
1001
0000
0000
0110
0000
0101
0000
0000
0110
0000
0000
1010
0000
1100
0000
0000
,  // measure 47
0002
0000
0000
2003
0000
0000
3010
0000
1000
0000
0000
1100
0000
0110
0000
0000
,  // measure 48
0001
1000
0100
0010
0001
1000
0010
0100
0000
0001
1000
0100
0010
0100
1000
0000
,  // measure 49
0010
0000
0000
1100
0000
0011
0000
0000
0002
0000
0000
2003
0000
0000
3100
0000
,  // measure 50
1100
0000
0000
0011
0000
0110
0000
0000
1001
0000
0000
0011
0000
1100
0000
0000
,  // measure 51
0110
0000
0000
1001
0000
0101
0000
0000
0011
0000
0000
1001
0000
0110
0000
0000
,  // measure 52
1000
0001
0100
0001
0010
0100
1000
0010
0000
1000
0100
0010
0100
0010
0001
0000
,  // measure 53
0100
0010
0100
0001
0010
0100
1000
0100
1000
0010
0000
0100
0001
0000
0010
0000
,  // measure 54
0000
0001
1000
0010
1000
0100
0010
0001
0100
0010
0000
0010
1000
0000
0100
0000
,  // measure 55
1000
0001
0010
0001
1000
0100
1000
0010
0100
0001
0000
0001
1000
0000
0010
0000
,  // measure 56
0000
1000
0100
0010
0100
0010
0100
1000
0001
0000
0000
0001
0000
0000
0000
0000
;
