#VERSION:0.83;
#TITLE:wholeheartedly;
#SUBTITLE:;
#ARTIST:siqlo;
#TITLETRANSLIT:;
#SUBTITLETRANSLIT:;
#ARTISTTRANSLIT:;
#GENRE:;
#ORIGIN:;
#CREDIT:;
#BANNER:wholeheartedly-bn.png;
#BACKGROUND:wholeheartedly-bg.png;
#PREVIEWVID:;
#JACKET:wholeheartedly-jacket.png;
#CDIMAGE:;
#DISCIMAGE:;
#LYRICSPATH:;
#CDTITLE:;
#MUSIC:wholeheartedly.ogg;
#OFFSET:0.000000;
#SAMPLESTART:54.856998;
#SAMPLELENGTH:20.000000;
#SELECTABLE:YES;
#DISPLAYBPM:175.000000;
#BPMS:0.000=175.000;
#STOPS:;
#DELAYS:;
#WARPS:;
#TIMESIGNATURES:0.000=4=4;
#TICKCOUNTS:0.000=4;
#COMBOS:0.000=1;
#SPEEDS:0.000=1.000=0.000=0;
#SCROLLS:0.000=1.000;
#FAKES:;
#LABELS:0.000=Song Start;
#BGCHANGES:;
#KEYSOUNDS:;
#ATTACKS:
;

//---------------dance-single - ----------------
#NOTEDATA:;
#CHARTNAME:;
#STEPSTYPE:dance-single;
#DESCRIPTION:;
#CHARTSTYLE:;
#DIFFICULTY:Hard;
#METER:17;
#RADARVALUES:0.885247,1.087146,0.666783,1.043660,0.771873,855.000000,763.000000,92.000000,144.000000,0.000000,0.000000,0.000000,0.000000,0.000000,0.885247,1.087146,0.666783,1.043660,0.771873,855.000000,763.000000,92.000000,144.000000,0.000000,0.000000,0.000000,0.000000,0.000000;
#CREDIT:;
#DISPLAYBPM:175.000000;
#NOTES:
0000
0000
0000
0000
,
0000
0000
0000
0000
,
0022
0000
0000
0033
,
2200
0000
0000
0000
0000
0000
0000
0000
3300
0000
0000
0001
0000
0000
1000
0000
,
1002
0000
0203
0000
0301
0010
1000
0000
,
0100
0010
0001
0000
1020
0000
1030
0010
,
0100
0001
0010
0000
0001
0100
1000
0000
,
0010
0100
0001
0000
2100
0000
3010
0100
,
0001
0010
1000
0100
0001
0000
0012
0000
,
1000
0000
0010
0100
0103
0000
0001
1000
,
0001
0001
0010
0010
0100
0100
1000
1000
,
0001
0100
0001
0100
0010
1000
0010
1000
0100
0000
0010
0001
1000
0000
0100
0000
,
0220
0330
0000
0000
0001
0010
0000
0010
0000
0001
0000
1000
0010
0000
0130
0031
,
2000
3000
1010
0000
0001
0010
0001
0100
0000
0010
1000
0000
0202
0303
0010
0000
,
2002
3003
0000
0000
0010
1000
0000
1000
0000
0001
0010
0000
0001
0100
0000
0100
,
0010
0000
1000
0001
1000
0000
0100
0010
0000
0001
0100
0000
0120
0300
1030
3000
,
2200
3300
3300
0000
0001
1000
0000
0010
0000
1000
0100
0000
0010
0000
0001
1000
,
0002
0003
0011
0000
1000
0010
1000
0001
0000
0010
0100
0000
2200
3300
0001
0000
,
2020
3030
0000
0010
1000
0001
0000
1000
0000
0100
0000
0010
0001
0100
0000
0010
,
1000
0100
1000
0100
1000
0100
1000
0000
0110
0000
0001
0000
0022
0000
0033
0000
,
1000
0001
1000
0010
0000
0010
0100
0001
0000
0010
0000
0100
1000
0001
1000
0010
,
0100
0001
0100
0010
0000
0010
1000
0001
1000
0100
1000
0001
0200
0000
0310
0000
,
0100
0001
1000
0001
0000
1000
0100
0000
0010
0001
0000
0100
0001
1000
0010
0000
,
1000
0001
0010
0100
0000
0010
0100
0000
1000
0001
0010
0000
0110
0000
1002
0000
,
1003
0010
0100
0001
0000
0001
1000
0100
0010
0001
1000
0000
0010
0000
0100
0000
,
0002
0000
1003
0100
0000
1000
0010
0100
0001
1000
0001
0000
0022
0033
1000
0000
,
0001
0000
0100
0010
0000
0010
1000
0001
1000
0100
1000
0010
0000
0100
0000
0001
,
0010
0001
0100
0010
1000
0001
1000
0001
1000
0001
0010
0000
0100
1000
0100
1000
,
0002
0000
0000
0000
0013
0001
0100
0000
0010
1000
0100
1000
0001
0000
0010
0001
,
1000
0001
0000
0000
1000
0010
0100
0000
0001
0010
0100
1000
0001
0000
0000
0000
,
2010
0030
0000
0000
3100
0010
0001
0000
1000
0001
0010
0001
0100
0000
0010
1000
,
0100
0010
0000
0000
0001
0100
0010
1000
0001
0000
0011
0000
1100
0000
1000
0001
,
2000
0010
0000
3010
1000
0000
0220
0330
0002
0100
0000
0103
0001
0000
0220
0330
,
0200
0001
0000
0301
1000
0000
0220
0330
1001
0000
2002
3003
0010
0000
0100
0000
,
0202
0303
1000
0100
0000
0010
0001
0000
0011
0000
0110
0000
1100
0000
0110
0000
,
0011
0000
1000
0001
1000
0010
0100
0001
0010
0100
1000
0001
0100
0000
0010
0000
,
2002
0000
0000
0000
,
0000
0000
0000
3003
,
0002
0000
0000
0003
,
2000
0000
0200
3000
,
0320
0000
0031
1000
0002
0000
0203
0000
,
0320
0000
1030
0100
2000
0000
3001
0000
,
0201
0003
0301
2000
0000
3020
0000
0130
,
2010
0000
3001
0020
0000
0230
0000
1300
,
1100
0000
0000
1000
0001
0000
0010
0000
0200
0000
0000
0000
1300
0000
0000
0000
,
0011
0000
0000
0001
1000
0000
0020
0000
1000
0000
0230
0000
0000
0000
0310
0000
,
0110
0000
0000
0010
1000
0000
1002
0000
0000
0000
0103
0000
0001
0000
0000
0000
,
0011
0000
0000
0100
0010
0000
1000
0000
0101
0000
0000
0000
1000
0001
1000
3001
,
0103
0000
0000
0010
1000
0000
0001
0000
0010
0000
1000
0000
0010
0000
0100
0000
,
1000
0000
0001
0000
0100
0000
0010
1000
0010
0000
0100
0000
0001
0000
0000
0000
,
1010
0000
0000
0001
1000
0000
0100
0000
0001
0000
0100
0000
0010
0000
0001
0000
,
0100
0000
0000
0010
1000
0000
0100
0000
0001
0000
0100
0000
0010
0000
0000
0000
,
1001
0000
0000
1000
0010
0000
0100
0000
0001
0000
0010
0000
1000
0000
0000
0000
,
0110
0000
0000
0001
0100
0000
0010
0000
1000
0000
0100
0000
0001
0000
0000
0000
,
0011
0000
0000
0001
1000
0000
0010
0000
1000
0000
0000
0100
0010
0000
0001
0000
,
0101
0000
0000
0100
0010
0000
1000
0000
1100
0000
0000
0001
1000
0000
0010
0000
,
0101
0000
1000
0010
1000
0100
0001
0100
,
1000
0000
0010
0000
0001
0000
0010
0000
0100
0001
0000
1000
0100
0000
0010
0001
,
0100
0000
0100
0000
0010
0000
0010
0000
1000
0001
1000
0001
0010
0100
1000
0001
,
0200
0000
0310
2300
3200
0302
0203
2300
,
3010
0100
1000
0001
0100
0010
1000
0001
,
0020
0000
0000
0000
0031
0000
1000
0010
0100
0000
0001
0000
1000
0000
0100
0000
,
2002
3003
1100
0011
0000
0101
0110
2020
,
3030
0000
1001
0000
0220
0330
0331
0100
2000
0000
3020
0000
0230
0000
0302
0000
,
0013
1000
0010
0100
1000
0010
0001
0010
,
0100
0000
0001
0000
1000
0000
0100
0010
0001
0000
0100
0000
0010
0000
1000
0000
,
0100
0000
0001
0000
0100
0000
1000
0000
0010
0000
0100
0000
0001
0000
0022
0033
,
0000
0000
0101
0000
1001
0000
2200
3300
0000
0001
0100
0000
0220
0330
0010
1000
,
0001
0100
0010
0001
0010
1000
0100
0001
,
0100
0000
0010
0000
0001
0000
0100
0010
1000
0000
0001
0000
1000
0000
0010
0000
,
0202
0303
0011
1100
0000
1001
0110
2020
,
3030
0000
2200
0000
3300
0000
0001
0010
1000
0000
1000
0000
1000
0100
0010
0001
,
0010
0100
0010
1000
0010
0001
0100
1000
,
0100
0010
0100
0001
1000
0010
0100
0001
,
0022
0030
1000
2000
3000
0020
0030
0200
,
0003
0002
0000
0000
0000
0000
0303
0000
,
2002
3003
0100
0010
2002
3003
1000
0001
,
0220
0330
0010
0100
0220
0330
0001
1000
,
2200
3300
0010
0001
0202
0303
1000
0100
,
0022
0000
0033
0000
0001
0000
0100
0000
2020
0000
3030
0000
0010
1000
0100
0010
,
0001
0100
0001
0000
1000
0100
1000
0000
0010
0100
0010
0000
1000
0001
1000
0000
,
0001
0010
0001
0010
0100
1000
0100
1000
0010
0100
0010
0100
0001
1000
0001
0000
,
1000
0010
1000
0000
0100
0010
0100
0000
1000
0001
1000
0000
0001
0100
0001
0000
,
0010
0100
0010
0001
0100
0010
1000
0001
0010
0100
1000
0000
0002
0000
0203
0000
,
0320
0000
0000
1030
0010
0000
0100
0000
0001
0000
0010
0000
0100
1000
3001
0100
,
0002
0000
0000
1003
0010
0000
0100
0000
0010
0000
1000
0100
0000
1000
0001
0000
,
0010
0000
0001
0100
0000
0010
1000
0000
0110
0000
0110
0000
2002
0000
0000
0000
,
3003
0000
0001
0010
1000
0000
0001
0000
0100
0000
0010
1000
0000
0010
0100
0000
,
0001
0000
0010
0001
0000
1000
0100
0000
0010
0000
0001
0100
0001
0010
0100
1300
,
0010
0000
1000
0001
0000
0001
0010
0000
0100
0000
1000
0001
0100
0000
0010
0000
,
1000
1000
0001
0001
0011
0110
2200
3300
,
0001
0000
0100
0010
0100
0000
0001
1000
0100
1000
0010
1000
0001
0000
0100
0000
,
0020
0000
0000
2030
0030
0000
3002
0000
,
0023
0000
0000
0031
0000
0101
0000
2200
,
0300
0000
0000
3002
0000
0000
0203
0000
,
0302
0000
0000
0013
0000
1001
0000
0220
,
0030
0000
0000
0302
0000
0000
2003
0000
,
3200
0000
0000
0310
0000
0011
0000
2020
,
0030
0000
0000
3002
0000
0103
0000
0220
,
0000
0000
0000
0000
,
0330
0000
0000
0000
;

//---------------dance-single - ----------------
#NOTEDATA:;
#CHARTNAME:;
#STEPSTYPE:dance-single;
#DESCRIPTION:;
#CHARTSTYLE:;
#DIFFICULTY:Medium;
#METER:13;
#RADARVALUES:0.616049,0.652287,0.405868,1.058155,0.148577,595.000000,539.000000,56.000000,146.000000,0.000000,0.000000,0.000000,0.000000,0.000000,0.616049,0.652287,0.405868,1.058155,0.148577,595.000000,539.000000,56.000000,146.000000,0.000000,0.000000,0.000000,0.000000,0.000000;
#CREDIT:;
#DISPLAYBPM:175.000000;
#NOTES:
0000
0000
0000
0000
,
0000
0000
0000
0000
,
0022
0000
0000
0033
,
2200
0000
0000
0000
0000
0000
0000
0000
3300
0000
0000
0001
0000
0000
1000
0000
,
1001
0000
0100
0000
0001
0010
1000
0000
,
0100
0010
0001
0000
1010
0000
1000
0010
,
0001
0010
1000
0000
0100
0010
0001
0000
,
1000
0001
0100
0000
0011
0000
1000
0010
,
0001
0010
1000
0000
0001
0000
1100
0000
,
0001
0000
1000
0000
0010
0000
1000
0100
,
0010
0001
0010
0001
1000
0100
1300
0100
,
0010
0001
1000
0010
0100
0001
1000
0000
,
2002
3003
3003
0000
0010
0000
0001
0000
0100
0000
0010
0000
1000
0000
0001
0000
,
0020
0030
0001
0000
0100
0000
0010
0000
1000
0000
0001
0000
2200
3300
0000
0000
,
0202
0333
0000
0000
1000
0000
0001
0000
1000
0000
0010
0000
0100
0000
0001
0000
,
0200
0300
0010
0000
0100
0000
1000
0000
0100
0000
0001
0000
2000
0000
3010
3000
,
0220
0330
0000
0000
1000
0000
0001
0000
0010
0000
1000
0000
0010
0000
0100
0000
,
2000
3000
0001
0000
0010
0000
0001
0000
0100
0000
0010
0000
2020
3030
0000
0000
,
0022
0033
0000
0000
0010
0000
0001
0000
0100
0000
0010
0000
1000
0000
0001
0000
,
0010
0010
0010
0001
1001
0000
0220
0330
,
1000
0010
0100
0001
0010
0100
1000
0010
,
0001
0000
0010
0000
0100
0000
1000
0000
0100
0000
0001
0000
0022
0033
0033
0000
,
0001
1000
0100
0001
0100
0010
1000
0010
,
0001
0000
0100
0000
0010
0000
0001
0000
0010
0000
1000
0000
0020
3000
3230
0000
,
0301
0010
0001
0100
1000
0100
0010
1000
,
0100
0000
0001
0000
0100
0000
0010
0000
0001
0000
1000
0000
2020
3030
0000
0000
,
0001
0000
1000
0000
0010
0030
0100
0000
0010
0000
0001
0000
0010
0000
1000
0000
,
0100
0000
0000
0000
1000
0001
1000
0001
1000
0000
0000
0000
0101
0000
0000
0000
,
2002
3003
1000
0100
0010
0001
0100
0000
,
0220
0330
0010
1000
0001
0010
0100
0000
,
2200
3300
1000
0001
0010
0001
0100
0000
,
0202
0303
2020
3030
1000
0001
0022
0033
,
2000
0000
0000
3001
3000
0000
0020
0033
0002
0000
0000
1003
0000
0000
0200
0300
,
1000
0000
0010
0000
0100
0000
0002
0003
0010
0000
0200
0300
1000
0000
0000
0000
,
0020
0000
0000
0230
0000
0000
0301
0000
1000
0000
1000
0000
0001
0000
0100
0000
,
0020
0000
0100
0000
1000
1000
1030
0100
,
2002
0000
0000
0000
,
0000
0000
0000
3003
,
0002
0000
0000
0003
,
2000
0000
0200
3300
,
0020
0000
0000
0031
2000
0000
3002
0000
,
0203
0000
0000
0310
1000
0002
0000
0013
,
0200
0000
0000
2300
0000
3020
0000
1030
,
0002
0000
0000
0023
0000
0230
0000
0310
,
0002
0000
0000
1003
0002
0000
0203
0000
,
0320
0000
1030
0200
0000
2300
0000
3001
,
0200
0000
0301
0020
0000
0031
2030
0000
,
3020
0000
1030
0001
0200
0000
0310
1000
,
1100
0000
0001
0100
1000
0000
0010
0000
,
0101
0000
0010
1000
0100
0000
0001
0000
,
0011
0000
0100
0010
1000
0000
0001
0000
,
1010
0000
0001
0100
0010
0000
1000
0000
,
0110
0000
0001
0010
0100
0000
1000
0000
,
1001
0000
0010
1000
0001
0000
0100
0000
,
0101
0000
1000
0001
0010
0000
0100
0000
,
1100
0000
0001
1000
1010
0000
0010
0000
,
1001
0000
0001
0010
1000
0010
0001
0000
,
1100
0000
0000
0000
0001
0000
1000
0000
0020
0000
0000
0230
0000
0000
0301
0000
,
1000
0001
0010
0100
0001
1000
0010
0100
,
0022
0000
0033
1000
1000
0001
0010
0100
,
2000
0000
3001
0100
0000
0010
1000
0002
,
0000
0000
0000
0000
0000
0000
0013
0100
0010
0000
0001
0000
1000
0000
0001
0000
,
0200
0000
0310
1000
0000
0002
0000
0203
,
0000
0000
0310
0000
0100
0000
0001
1000
0001
0000
0010
0000
0100
0000
1000
0000
,
0020
0000
0130
0001
0000
2000
0000
3200
,
0000
0000
1300
0000
0001
0000
0100
0010
0100
0000
0001
0000
1000
0000
0010
0000
,
2000
0000
3100
0010
0000
0001
0000
0101
,
0000
1001
0000
1100
0000
0001
0200
0000
,
0320
0000
1030
0020
0000
0130
0001
2000
,
0000
0000
0000
0000
0000
0000
3100
1000
0100
0000
0010
0000
0001
0000
1000
0000
,
0020
0000
0130
0110
0000
1001
0000
2100
,
0000
0001
3001
1000
0010
0100
0010
1000
,
0200
0000
1300
0002
0000
0023
0000
0032
,
0000
2003
0001
0000
0100
0100
3000
0000
,
2010
0000
0001
3002
0000
2003
0000
3020
,
0000
0200
0000
0000
0000
0000
0330
0000
,
2002
3003
1000
0100
2002
3003
0010
0001
,
0220
0330
0001
0100
0220
0330
0010
1000
,
2200
3300
1000
0001
0022
0033
0100
0010
,
0202
0303
0001
0100
2020
3030
1000
0010
,
1000
0100
0001
0100
0010
1000
0010
0100
,
0010
0001
0100
0010
0110
0000
1000
0001
,
0010
1000
0010
0001
0100
0010
0100
1000
,
0100
0001
0010
0100
1000
0010
0100
0001
,
0010
0000
0000
0100
0000
0000
1000
0000
0001
0000
0000
0000
0100
0000
0010
0000
,
1000
0000
0000
0001
0000
0000
1000
0000
0100
0000
0000
0010
0000
0000
0001
0000
,
1000
0000
0000
0001
0000
0000
0100
0000
0010
0000
1000
0000
2002
0000
0000
0000
,
3003
0000
0001
1000
0001
0000
0100
0000
0010
0000
0000
1000
0000
0000
0001
0000
,
1000
0000
0000
0001
0000
0000
0010
0000
0100
0000
0000
1000
0000
0000
0010
0000
,
0100
0000
0000
0001
0000
0000
0010
0000
0001
0000
0000
0100
0000
0000
1000
0000
,
0010
0000
0000
0100
0000
0000
0010
0000
1000
0000
0001
0000
0220
0000
0000
0000
,
0330
0000
0001
1000
0001
0000
0100
0000
0010
0000
1000
0000
0100
0000
0010
0000
,
0002
0000
0000
2003
0000
0000
3020
0000
,
0230
0000
0000
0320
0000
2030
0000
3002
,
0000
0000
0000
0203
0000
0000
0320
0000
,
0230
0000
0000
0302
0000
0023
0000
0230
,
0000
0000
0000
2300
0000
0000
3020
0000
,
2030
0000
0000
3200
0000
0320
0000
0032
,
0000
0000
0000
0103
0000
1001
0000
0220
,
0000
0000
0000
0000
,
0330
0000
0000
0000
;

//---------------dance-single - ----------------
#NOTEDATA:;
#CHARTNAME:;
#STEPSTYPE:dance-single;
#DESCRIPTION:;
#CHARTSTYLE:;
#DIFFICULTY:Easy;
#METER:9;
#RADARVALUES:0.401726,0.543573,0.318896,0.652287,0.032614,388.000000,344.000000,44.000000,90.000000,0.000000,0.000000,0.000000,0.000000,0.000000,0.401726,0.543573,0.318896,0.652287,0.032614,388.000000,344.000000,44.000000,90.000000,0.000000,0.000000,0.000000,0.000000,0.000000;
#CREDIT:;
#DISPLAYBPM:175.000000;
#NOTES:
0000
0000
0000
0000
,
0000
0000
0000
0000
,
2002
0000
0000
3003
,
0220
0000
0330
0010
,
1001
0001
0010
0100
,
1000
0010
0100
0001
,
0010
1000
0100
0010
,
0001
0100
0010
0100
,
0001
0010
0001
1000
,
0100
0001
0010
0100
,
1000
0010
0100
0001
,
0010
0100
1000
0110
,
2002
3003
0000
0000
0001
0000
0000
0000
1000
0000
0000
0000
0100
0000
0000
0000
,
0010
0000
0000
0000
0001
0000
0000
0000
1000
0000
0000
0000
2200
3300
0000
0000
,
0022
0033
0000
0000
1000
0000
0000
0000
0010
0000
0000
0000
0100
0000
0000
0000
,
0001
0000
0000
0000
0010
0000
0000
0000
1000
0000
0000
0000
2020
3030
0000
0000
,
0202
0303
0000
0000
1000
0000
0000
0000
0010
0000
0000
0000
0001
0000
0000
0000
,
0010
0000
0000
0000
0100
0000
0000
0000
1000
0000
0000
0000
2020
3030
0000
0000
,
0022
0033
0000
0000
0100
0000
0000
0000
0001
0000
0000
0000
0010
0000
0000
0000
,
1000
0000
0100
0000
0001
0000
2002
3003
,
0010
1000
0100
0000
0010
0000
0001
0000
,
0100
0000
0010
0000
1000
0000
0000
0000
0001
0000
0000
0000
0202
0303
0303
0000
,
1000
0001
0010
0000
0100
0000
1000
0000
,
0010
0000
0100
0000
0001
0010
1000
0000
,
1001
0000
0100
0010
1000
0000
0100
0010
,
0001
0000
0000
0000
1000
0000
0100
0000
0001
0000
0000
0000
0202
0303
0000
0000
,
1100
0000
0010
0000
0001
0100
1000
0000
,
0010
0000
1000
0001
1000
0000
0110
0000
,
2002
3003
1000
0000
0100
0000
0010
0000
,
0022
0033
0001
0000
0100
0000
1000
0000
,
2020
3030
0001
0000
1000
0000
0010
0000
,
2000
3200
0320
0032
,
0103
0101
1000
1100
,
0001
0000
0011
0000
1000
0001
0100
0000
,
0110
0000
1001
0000
0001
0010
0100
1000
,
0002
0000
0000
0000
0000
0000
0003
0003
,
2002
0000
0000
0000
,
0000
0000
0000
3003
,
0002
0000
0000
0003
,
2000
0000
0000
3000
,
0010
0000
0000
0100
0000
0000
0001
0000
,
0010
0000
0000
0100
0000
0000
1000
0000
,
0001
0000
0000
1000
0000
0000
0010
0000
,
1000
0000
0000
0100
0000
0000
0001
0000
,
1000
0000
0000
0001
0000
0000
0010
0000
,
0100
0000
0000
1000
0000
0000
0010
0000
,
0100
0000
0000
0001
0000
0000
1000
0000
,
0001
0000
0000
0010
0000
0000
0100
0000
,
2000
0300
0002
3000
,
0200
0003
0020
0300
,
0002
0030
0020
0003
,
2000
0030
0200
3000
,
0020
0300
0002
0030
,
0200
0003
2000
0300
,
0302
3000
0200
0003
,
2000
0300
0020
3030
,
1100
0001
0100
0010
,
0101
1000
0001
0100
,
1010
0100
0010
0001
,
0022
0033
2000
3002
,
0013
0001
1000
0010
,
0100
0010
1000
0100
,
0010
0001
1000
0010
,
0100
0001
1000
0000
0020
0000
0230
0000
,
0301
0010
1000
0100
,
1000
0001
0010
0100
,
0010
0000
0001
0000
0100
0000
0010
2000
,
0000
3002
0000
2003
0000
3001
0200
0000
,
0301
1000
0100
0010
,
0001
0100
1000
0010
,
1000
0001
0010
0100
,
1000
0010
0100
0000
0001
0000
1000
0000
,
0100
0001
0010
0100
,
1000
0000
0001
0000
0100
0010
0000
0000
,
2000
0000
0000
3003
,
0020
0300
0000
0330
,
2002
3003
1000
0000
2002
3003
0001
0000
,
0220
0330
0100
0000
0220
0330
0010
0000
,
0202
0303
0001
0000
2200
3300
0100
0000
,
2020
3030
1000
0000
0022
0033
0010
0000
,
0001
0100
1000
0000
0010
0000
0100
0000
,
0001
0010
0100
1000
0001
0000
0100
0000
,
0010
1000
0100
0001
,
0010
0000
0001
0000
0100
0000
0010
1000
,
0001
0110
1000
0100
,
0010
0001
0100
0010
,
1000
0000
0001
0000
1000
0100
0020
0000
,
0000
0031
1000
0000
0101
0000
1100
0000
,
0010
1000
0100
0010
,
0001
0010
1000
0100
,
0010
0000
0001
0000
0100
0010
2000
0000
,
3001
0000
1010
0000
1000
0010
0100
0001
,
0020
0000
0000
0000
,
0000
0000
0000
0031
0000
1000
0000
0002
,
0000
0000
0000
0000
,
0000
0000
0000
0103
0000
0010
0000
0200
,
0000
0000
0000
0000
,
0000
0000
0000
0310
0000
1000
0000
1001
,
0000
0000
0000
0001
0000
0100
0000
0220
,
0000
0000
0000
0000
,
0330
0000
0000
0000
;

//---------------dance-single - ----------------
#NOTEDATA:;
#CHARTNAME:;
#STEPSTYPE:dance-single;
#DESCRIPTION:;
#CHARTSTYLE:;
#DIFFICULTY:Beginner;
#METER:6;
#RADARVALUES:0.202934,0.362382,0.188439,0.340639,0.018119,196.000000,170.000000,26.000000,47.000000,0.000000,0.000000,0.000000,0.000000,0.000000,0.202934,0.362382,0.188439,0.340639,0.018119,196.000000,170.000000,26.000000,47.000000,0.000000,0.000000,0.000000,0.000000,0.000000;
#CREDIT:;
#DISPLAYBPM:175.000000;
#NOTES:
// measure 0
0000
0000
0000
0000
,  // measure 1
0000
0000
0000
0000
,  // measure 2
2002
0000
3003
0000
,  // measure 3
0220
0000
0330
0000
,  // measure 4
1001
0000
0001
0000
,  // measure 5
0010
0000
0100
0000
,  // measure 6
1000
0000
0010
0000
,  // measure 7
0100
0000
0001
0000
,  // measure 8
1000
0000
0001
0002
,  // measure 9
0000
0000
0003
0000
,  // measure 10
0010
0010
0010
0010
,  // measure 11
0010
0010
0010
0000
,  // measure 12
2002
3003
0000
0000
0000
0000
0000
0000
0010
0000
0000
0000
0000
0000
0000
0000
,  // measure 13
1000
0000
0001
0000
,  // measure 14
0220
0330
0000
0000
0000
0000
0000
0000
0001
0000
0000
0000
0000
0000
0000
0000
,  // measure 15
0100
0000
1000
0000
,  // measure 16
2002
3003
0000
0000
0000
0000
0000
0000
0100
0000
0000
0000
0000
0000
0000
0000
,  // measure 17
0010
0000
1000
0000
,  // measure 18
0220
0330
0000
0000
0000
0000
0000
0000
0001
0000
0000
0000
0000
0000
0000
0000
,  // measure 19
0010
0000
1001
0000
,  // measure 20
0100
0000
0001
0000
,  // measure 21
1000
1000
1000
0000
,  // measure 22
0010
0000
0100
0000
,  // measure 23
0001
0000
0000
0000
1000
0000
2000
3000
,  // measure 24
1000
0000
0001
0000
,  // measure 25
0100
0000
0100
0000
,  // measure 26
0010
0000
1000
0000
,  // measure 27
0001
0001
0001
0000
,  // measure 28
2002
3003
0000
0000
0000
0000
0000
0000
,  // measure 29
0220
0330
0000
0000
0000
0000
0000
0000
,  // measure 30
2002
3003
0000
0000
0000
0000
0000
0000
,  // measure 31
0100
0100
0100
0000
,  // measure 32
0001
0000
1000
0000
,  // measure 33
0001
0000
1000
0000
,  // measure 34
0010
0010
0010
0010
,  // measure 35
0020
0000
0000
0000
0000
0000
0000
0000
0030
0000
0000
0000
,  // measure 36
2002
0000
0000
0000
,  // measure 37
0000
0000
0000
3003
,  // measure 38
0000
0000
0000
0000
,  // measure 39
0000
0000
0000
0000
,  // measure 40
0010
0000
0000
0000
,  // measure 41
1000
0000
0000
0000
,  // measure 42
0100
0000
0000
0000
,  // measure 43
0010
0000
0000
0000
,  // measure 44
0001
0000
0000
0000
,  // measure 45
0100
0000
0000
0000
,  // measure 46
0001
0000
0000
0000
,  // measure 47
1000
0000
0000
0000
,  // measure 48
0100
0000
0000
0000
,  // measure 49
0010
0000
0000
0000
,  // measure 50
0001
0000
0000
0000
,  // measure 51
0100
0000
0000
0000
,  // measure 52
0001
0000
0000
0000
,  // measure 53
1000
0000
0000
0000
,  // measure 54
0010
0000
0000
0000
,  // measure 55
0100
0000
0000
0000
,  // measure 56
0001
0001
0001
0000
,  // measure 57
1000
1000
1000
0000
,  // measure 58
0010
0010
0010
0010
,  // measure 59
0010
0000
0110
0000
,  // measure 60
1001
0000
0001
0000
,  // measure 61
1000
0000
0001
0000
,  // measure 62
0010
0000
0100
0000
,  // measure 63
1000
0000
0010
0010
,  // measure 64
0010
0000
0100
0000
,  // measure 65
0001
0000
1000
1000
,  // measure 66
1000
0000
0100
0000
,  // measure 67
0001
0001
0001
0000
,  // measure 68
0010
0000
0001
0000
,  // measure 69
1000
0000
0010
0000
,  // measure 70
1000
0000
0100
0000
,  // measure 71
1000
0000
0001
0001
,  // measure 72
0001
0000
0010
0000
,  // measure 73
2000
0000
3000
0000
,  // measure 74
0200
0000
0000
0000
,  // measure 75
0000
0300
0000
0000
,  // measure 76
2002
3003
0000
0000
2002
3003
0000
0000
,  // measure 77
0220
0330
0330
0000
0220
0330
0000
0000
,  // measure 78
2002
3003
0000
0000
2002
3003
0000
0000
,  // measure 79
0220
0330
0000
0000
0220
0330
0000
0000
,  // measure 80
1000
0000
0010
0000
,  // measure 81
0100
0100
0100
0000
,  // measure 82
0001
0000
0010
0000
,  // measure 83
0100
0000
1000
0000
,  // measure 84
0001
0001
0001
0000
,  // measure 85
0100
0100
0100
0000
,  // measure 86
0001
0000
0000
2002
,  // measure 87
3003
0000
0100
0000
,  // measure 88
0010
0000
1000
0000
,  // measure 89
0100
0100
0100
0000
,  // measure 90
1000
0000
0000
0220
,  // measure 91
0330
0000
0001
0000
,  // measure 92
0100
0000
0000
0000
,  // measure 93
0000
0000
0000
0000
,  // measure 94
0010
0000
0000
0000
,  // measure 95
0000
0000
0000
0000
,  // measure 96
1000
0000
0000
0000
,  // measure 97
0000
0000
0000
0000
,  // measure 98
1001
0000
0000
0000
,  // measure 99
0220
0000
0000
0000
,  // measure 100
0330
0000
0000
0000
;
