#TITLE:used to be so fun;
#SUBTITLE:;
#ARTIST:she loves boon;
#TITLETRANSLIT:;
#SUBTITLETRANSLIT:;
#ARTISTTRANSLIT:;
#GENRE:;
#CREDIT:;
#BANNER:used to be so fun-bn.png;
#BACKGROUND:used to be so fun-bg.png;
#LYRICSPATH:;
#CDTITLE:;
#MUSIC:used to be so fun.ogg;
#OFFSET:0.000000;
#SAMPLESTART:19.500000;
#SAMPLELENGTH:20.000000;
#SELECTABLE:YES;
#DISPLAYBPM:120.000000:140.000000;
#BPMS:0.000000=140.000000
,240.000000=120.000000
;
#STOPS:
;
#BGCHANGES:;
#KEYSOUNDS:;
#ATTACKS:;

//---------------dance-single - ----------------
#NOTES:
     dance-single:
     :
     Hard:
     13:
     0.549249,0.562599,0.213597,0.297510,0.125870,504.000000,476.000000,28.000000,39.000000,0.000000,0.000000,0.549249,0.562599,0.213597,0.297510,0.125870,504.000000,476.000000,28.000000,39.000000,0.000000,0.000000:
0000
0000
0000
0000
,
0000
0000
0000
0000
,
0000
0000
0000
0000
,
0000
0000
0000
0000
,
1000
0100
1000
0000
0000
0000
0001
0100
0001
0000
0000
0000
0010
0100
0010
0000
,
0000
0000
0000
0000
0000
0000
0000
0000
0001
0100
0000
0000
1000
0100
0000
0000
,
0001
0010
0001
0000
0000
0000
1000
0010
1000
0000
0000
0000
0100
0010
0100
0000
,
0000
0000
1000
0001
1000
0000
0000
0000
0000
0000
0000
0000
1002
0000
0023
0000
,
0031
0000
0100
0010
1010
1000
0100
0000
,
0001
0010
0001
0000
0100
0000
0000
0000
0110
0000
1000
0000
1000
0000
0000
0000
,
0001
1000
0010
0100
0010
0000
0101
0000
,
1000
0001
1000
0000
1000
0000
0100
0000
0010
0000
0010
0000
0001
0000
0001
0000
,
0012
0000
0103
0001
0100
1000
0100
0001
,
0010
1000
0010
0000
0010
0000
0001
0000
0100
0000
0010
0000
1000
0000
1000
0000
,
2100
0000
3010
0100
0001
0010
1000
0010
,
0002
0000
0100
0000
0103
0000
0000
0010
1000
0000
0001
0000
0100
0000
0010
0000
,
0210
0000
1300
0100
0010
1000
0001
0100
,
1000
0100
1000
0000
1000
0000
0010
0000
0100
0000
0001
0000
0010
0000
0001
0000
,
2001
0000
3100
1000
0010
0100
0010
0001
,
0020
1000
1030
0000
0001
1000
0010
0100
,
0020
0100
0130
0000
0010
1000
0100
1000
,
0020
0000
0000
1030
0001
0000
0000
0000
0010
0000
0001
0000
0100
0000
0001
0000
,
0020
1000
1030
0000
0010
0001
1000
0100
,
0020
0000
0000
0031
0100
0000
0010
0000
1000
0000
1000
0000
1000
0000
0001
0000
,
0201
0000
0310
0100
0001
1000
0100
0001
,
0010
0100
0010
0000
0010
0000
0000
0000
0001
0000
1000
0000
0110
0000
0000
0000
,
1010
0001
0100
0000
0010
1000
1100
0000
,
0101
1000
0010
0000
0100
0001
0010
1000
,
0020
0001
0032
0000
1003
0001
0100
1000
,
0100
0001
0100
0000
0200
0000
0010
0000
0310
0000
1000
0000
1001
0000
0000
0000
,
0010
0001
0100
1000
0100
0001
1000
0100
,
2000
0000
0001
0000
3002
0000
0000
0000
0013
0100
0010
0000
0002
0000
2003
0000
,
3010
0100
1000
0100
0010
1000
0100
0001
,
0100
0010
0100
0000
0200
0000
1000
0000
1300
0000
0001
0000
1010
0000
0000
0000
,
0001
0000
0100
0000
0100
0000
0010
0000
1000
0000
0001
0100
0001
0000
1000
0000
,
0010
0100
1001
0100
0001
0010
1000
0010
,
0002
1000
0100
0103
0000
0010
1000
0100
,
1000
0001
1000
0000
0010
0000
0010
0000
0100
0000
0001
0000
0010
0000
0100
0000
,
2000
0000
0000
3001
0010
0000
0010
0000
0000
0000
0001
0000
0100
0000
1000
0000
,
0020
1000
0100
0130
0001
0010
1000
0010
,
0002
0010
0100
0103
0000
0001
1000
0100
,
0001
0010
0001
0000
1000
0000
1000
0000
0010
0000
0200
0000
0001
0000
0000
0000
,
0310
0000
0100
0001
0010
0100
1000
0010
,
0200
0001
0010
0310
0100
1000
0100
0001
,
2100
0000
3010
0100
1000
0100
0001
1000
,
0010
1000
0100
0000
0100
0000
1000
0000
0001
0000
0001
0000
0001
0000
0010
0000
,
0021
0100
0130
0000
0010
0001
1000
0001
,
0200
0010
0310
1000
1000
0100
1000
0001
,
1002
0000
0103
0010
0100
1000
0100
0001
,
0010
0100
1000
0000
1000
0000
0001
0000
0001
0000
0100
0000
0010
0000
1000
0000
,
0201
0000
1300
0100
0010
1000
0001
0100
,
0020
0001
0031
0000
0010
1000
0001
0100
,
0020
1000
1030
0000
0001
0100
0001
1000
,
0010
0100
0001
0000
0001
0000
0000
0000
1000
0000
0001
0000
1000
0000
0100
0000
,
0020
0100
0130
0000
0010
0001
1000
0001
,
0020
0000
0000
0031
1000
0000
0100
0000
0100
0000
0001
0000
0100
0000
1000
0000
,
0210
0000
0310
0001
0100
0010
1000
0001
,
0010
0001
1000
0000
1000
0000
0010
0000
0100
0000
0001
0000
0011
0000
0000
0000
,
1010
0001
1000
0100
0010
0000
0110
1000
,
1001
0010
0100
1000
0001
0100
2010
0000
,
3001
0000
0001
1000
0010
0100
0001
0010
,
0001
0100
1000
0000
1001
0000
0000
0000
0010
0000
0100
0000
0010
0000
1000
0000
,
0100
0000
0100
0000
1000
0001
1000
0010
,
0100
0001
0100
0000
0000
0000
1000
0000
1000
0000
0001
0000
1000
0000
0010
0000
,
0010
0000
1000
0100
0001
0100
0010
0001
,
0100
0010
1000
0000
0110
0000
0000
0000
0001
0000
1000
0000
0100
0000
0010
0000
,
0001
0000
0001
0010
0100
1000
0010
0100
,
0010
1000
0001
0000
0000
0000
0000
0000
1000
0000
0001
0000
1000
0000
0100
0000
,
0020
0000
0000
0000
,
0000
0000
0000
0000
,
0000
0000
0000
0000
,
0000
0000
0000
0000
,
0000
0000
0000
0000
,
0000
0000
0000
0030
;

//---------------dance-single - ----------------
#NOTES:
     dance-single:
     :
     Medium:
     10:
     0.407578,0.450079,0.183083,0.350909,0.041957,374.000000,350.000000,24.000000,46.000000,0.000000,0.000000,0.407578,0.450079,0.183083,0.350909,0.041957,374.000000,350.000000,24.000000,46.000000,0.000000,0.000000:
0000
0000
0000
0000
,
0000
0000
0000
0000
,
0000
0000
0000
0000
,
0000
0000
0000
0000
,
1000
0100
0000
0001
0100
0000
0010
0100
,
0000
0000
0101
1100
,
0001
0010
0000
1000
0010
0000
0100
0010
,
0000
0001
1000
0000
0000
0000
0020
0230
,
0301
1000
0010
1000
0100
0100
0000
0000
,
1000
0100
1000
0000
0001
0000
0100
0000
0100
0000
0000
0000
0000
0000
0000
0000
,
0001
0100
0001
0010
1000
0000
0110
0000
,
0001
1000
0001
1000
0000
0000
0000
0000
0100
0000
0100
0000
0100
0000
0000
0000
,
1001
0000
0100
0001
0010
0000
0001
1000
,
0020
0000
0030
0000
1000
1000
1000
0000
,
2200
0000
3300
0000
0001
0010
0100
1000
,
0002
0000
0003
0000
0010
0010
0010
0000
,
0101
0000
1000
0001
0010
0000
0100
1000
,
0002
0000
0003
1000
0001
0001
0001
0000
,
1010
0000
0010
0100
0001
0000
1000
0100
,
0020
0000
0030
0000
0001
0100
1000
0001
,
0020
0000
0130
0000
0001
1000
0010
0100
,
0010
0000
0000
0010
0100
0000
0000
0000
0001
0000
0010
0000
0001
0000
1000
0000
,
0020
0000
0130
0000
0010
0001
1000
0100
,
0010
0000
0000
0001
1000
0000
0000
0000
0100
0000
0100
0000
0100
0000
0000
0000
,
1001
0000
1000
0001
0010
0000
0001
0100
,
0020
1000
1030
0000
0000
0000
0011
0000
,
2100
0001
3001
0000
0000
0000
0100
0001
,
0020
0000
0030
0000
0001
1000
0001
1000
,
0020
0000
0230
0000
0301
0010
0001
1000
,
0002
0203
1300
0101
,
0001
1000
0100
0000
0010
0001
1000
0000
,
0020
0000
0230
0000
0301
0000
2000
3002
,
1003
0100
0001
0000
0010
1000
0100
0000
,
2000
3020
0230
0301
,
0000
1000
1000
0001
0200
0000
0310
0100
,
0001
0000
1100
0000
0010
0100
0010
0100
,
2000
0000
0001
3001
0000
0000
1000
0010
,
0200
0000
0001
0301
0000
0000
1000
0001
,
0200
0000
0010
0310
0000
0000
0100
0001
,
2000
0000
0100
3100
0000
1000
0001
0010
,
0002
0000
1000
1003
0000
0000
0010
1000
,
0200
0000
1000
1300
0000
0002
0000
0000
,
0003
0000
0001
0100
1000
0000
0001
1000
,
0020
0000
0100
0130
0001
1000
0001
0000
,
0101
0000
1100
0000
0001
1000
0100
1000
,
0020
0000
0030
0100
0001
0001
0001
0000
,
0022
0000
0033
0000
1000
0001
0010
0100
,
2000
0000
3000
0000
0010
0010
0010
0000
,
0110
0000
0001
1000
0001
0000
0010
0100
,
2000
0000
3000
0001
1000
1000
1000
0000
,
1010
0000
0100
0010
1000
0000
0100
0001
,
0020
0000
0030
0000
0001
0010
0100
1000
,
0020
0000
0130
0000
0001
1000
0001
0100
,
0010
0000
0000
0100
0010
0000
0000
0000
1000
0000
0100
0000
1000
0000
0001
0000
,
0020
0000
0031
0000
0100
0001
1000
0100
,
0010
0000
0000
0001
0100
0000
0000
0000
0001
0000
1000
0000
0100
0000
0000
0000
,
1010
0000
0100
1000
0001
0000
1000
0100
,
0020
0001
0031
0000
0000
0000
1001
0000
,
0102
1000
1003
0000
0000
0000
0001
1000
,
0020
0100
0130
0000
0001
1000
0201
0000
,
0310
0000
1001
0000
0001
0100
1000
0000
,
0010
0100
0010
0000
0000
0000
0000
0000
1000
0000
0100
0000
0001
0000
0000
0000
,
1010
0000
0000
0000
0001
1000
0010
0000
,
1000
0100
1000
0000
0000
0000
0000
0000
0001
0000
1000
0000
0001
0000
0100
0000
,
0010
0000
0101
0000
1000
0010
1000
0001
,
0100
0010
0100
0000
0000
0000
0000
0000
0001
0000
0010
0000
0001
0000
1000
0000
,
0100
0000
0100
0000
1000
0001
1000
0100
,
0010
0001
0010
0000
0000
0000
0000
0000
0001
0000
0100
0000
1000
0000
0001
0000
,
0020
0000
0000
0000
,
0000
0000
0000
0000
,
0000
0000
0000
0000
,
0000
0000
0000
0000
,
0000
0000
0000
0000
,
0000
0000
0000
0030
;

//---------------dance-single - ----------------
#NOTES:
     dance-single:
     :
     Easy:
     6:
     0.260458,0.301038,0.228854,0.061028,0.000000,239.000000,209.000000,30.000000,8.000000,0.000000,0.000000,0.260458,0.301038,0.228854,0.061028,0.000000,239.000000,209.000000,30.000000,8.000000,0.000000,0.000000:
0000
0000
0000
0000
,
0000
0000
0000
0000
,
0000
0000
0000
0000
,
0000
0000
0000
0000
,
1000
0100
0001
0100
,
0010
0000
1000
1001
,
0001
1000
0100
0001
,
0010
0000
0000
1001
,
0001
0100
1000
0000
,
0010
0100
0010
0000
,
1000
0001
1000
0010
,
0100
0000
0001
1001
,
0010
0010
1000
0001
,
0010
0000
0100
0110
,
0001
0000
1000
0110
,
0100
0000
0010
0110
,
1000
1000
0100
0001
,
0010
0000
0001
1001
,
0010
0001
0100
1000
,
0010
0000
1000
0100
,
0010
0000
0001
0100
,
0010
1010
0001
0100
,
0010
0000
1000
0001
,
0010
0011
0100
1000
,
0001
0001
1000
0001
,
0010
0000
0000
0100
,
0110
0000
0000
0001
,
1001
0000
1000
0100
,
0010
0010
0001
0100
,
2000
0002
0000
3003
,
0010
1000
0100
0100
,
0020
0200
0000
0330
,
0010
0001
0100
1000
,
0002
0200
0000
0303
,
0000
1010
0001
0100
,
1000
0001
1000
0100
,
0011
1000
0000
0001
,
0110
0100
0000
0001
,
1001
0010
0000
1000
,
1010
0100
0000
1000
,
0101
0001
0000
0010
,
1100
0001
0000
0000
,
0000
1001
0010
1000
,
0101
1000
0010
0100
,
0001
1000
0100
1000
,
0010
0000
0100
0100
,
0010
0100
0001
0010
,
1000
0000
0001
0001
,
1000
0001
1000
0010
,
0001
0000
0100
1000
,
0001
1000
0100
0001
,
0010
0000
0001
0100
,
0010
0000
1000
0100
,
0010
1100
0001
0100
,
0010
0000
1000
0001
,
0010
0101
0001
0100
,
1000
1000
0010
0100
,
0010
0000
0000
1000
,
1001
0000
0000
0010
,
0110
0000
0001
2000
,
3010
1000
0100
1000
,
0010
0000
1010
1010
,
0001
0100
1000
0001
,
0010
0000
0101
0101
,
0010
0100
0010
1000
,
0001
0000
1001
1001
,
0100
0100
0001
1000
,
0010
0000
1000
0100
,
0020
0000
0000
0000
,
0000
0000
0000
0000
,
0000
0000
0000
0000
,
0000
0000
0000
0030
;

//---------------dance-single - ----------------
#NOTES:
     dance-single:
     :
     Beginner:
     4:
     0.129684,0.164203,0.061028,0.007628,0.000000,119.000000,111.000000,8.000000,1.000000,0.000000,0.000000,0.129684,0.164203,0.061028,0.007628,0.000000,119.000000,111.000000,8.000000,1.000000,0.000000,0.000000:
// measure 0
0000
0000
0000
0000
,  // measure 1
0000
0000
0000
0000
,  // measure 2
0000
0000
0000
0000
,  // measure 3
0000
0000
0000
0000
,  // measure 4
1000
0000
1000
0000
,  // measure 5
1000
0000
0000
0000
,  // measure 6
0001
0000
0001
0000
,  // measure 7
0001
0000
0000
0000
,  // measure 8
0100
0000
0100
0000
,  // measure 9
0010
0000
0010
0000
,  // measure 10
1000
0000
0001
0000
,  // measure 11
1000
0000
0010
0000
,  // measure 12
0100
0000
0100
0000
,  // measure 13
0010
0000
1000
0000
,  // measure 14
0100
0000
1000
0000
,  // measure 15
0001
0000
0010
0000
,  // measure 16
0001
0000
0001
0000
,  // measure 17
1000
0000
0010
0000
,  // measure 18
1000
0000
0100
0000
,  // measure 19
0010
0000
0001
0000
,  // measure 20
0010
0000
0100
0000
,  // measure 21
0010
0000
1000
0000
,  // measure 22
0010
0000
0100
0000
,  // measure 23
0010
0000
0001
0000
,  // measure 24
0100
0000
0100
0000
,  // measure 25
0010
0000
0000
0000
,  // measure 26
1001
0000
0000
0000
,  // measure 27
0110
0000
0001
0000
,  // measure 28
0100
0000
0100
0000
,  // measure 29
1000
0000
0000
0000
,  // measure 30
0001
0000
0001
0000
,  // measure 31
0100
0000
0000
0000
,  // measure 32
0010
0000
1000
0000
,  // measure 33
0001
0000
0000
0000
,  // measure 34
0000
0000
1000
0000
,  // measure 35
0001
0000
0010
0000
,  // measure 36
1001
0000
0000
0000
,  // measure 37
0010
0000
0000
0000
,  // measure 38
0110
0000
0000
0000
,  // measure 39
1000
0000
0000
0000
,  // measure 40
1001
0000
0000
0000
,  // measure 41
0100
0000
0000
0000
,  // measure 42
0000
0000
0010
0000
,  // measure 43
0110
0000
0001
0000
,  // measure 44
1000
0000
1000
0000
,  // measure 45
0010
0000
1000
0000
,  // measure 46
0100
0000
0100
0000
,  // measure 47
0010
0000
0001
0000
,  // measure 48
0100
0000
1000
0000
,  // measure 49
0100
0000
0001
0000
,  // measure 50
1000
0000
0001
0000
,  // measure 51
0010
0000
0100
0000
,  // measure 52
0010
0000
0001
0000
,  // measure 53
0010
0000
1000
0000
,  // measure 54
0010
0000
0100
0000
,  // measure 55
0010
0000
0001
0000
,  // measure 56
0100
0000
1000
0000
,  // measure 57
0010
0000
0000
0000
,  // measure 58
1001
0000
0000
0000
,  // measure 59
0110
0000
0000
0000
,  // measure 60
0001
0000
0001
0000
,  // measure 61
0010
0000
0001
0000
,  // measure 62
1000
0000
1000
0000
,  // measure 63
1000
0000
0100
0000
,  // measure 64
1000
0000
0001
0000
,  // measure 65
0100
0000
0100
0000
,  // measure 66
0001
0000
1000
0000
,  // measure 67
0010
0000
0010
0000
,  // measure 68
0020
0000
0000
0000
,  // measure 69
0000
0000
0000
0000
,  // measure 70
0000
0000
0000
0000
,  // measure 71
0000
0000
0000
0030
;
