#TITLE:twinkle fairy floss;
#SUBTITLE:;
#ARTIST:soyomogi;
#TITLETRANSLIT:;
#SUBTITLETRANSLIT:;
#ARTISTTRANSLIT:;
#GENRE:;
#CREDIT:;
#BANNER:twinkle fairy floss-bn.png;
#BACKGROUND:twinkle fairy floss-bg.png;
#LYRICSPATH:;
#CDTITLE:;
#MUSIC:twinkle fairy floss.ogg;
#OFFSET:0.000000;
#SAMPLESTART:17.421000;
#SAMPLELENGTH:20.000000;
#SELECTABLE:YES;
#DISPLAYBPM:124.000000;
#BPMS:0.000000=123.989998
;
#STOPS:217.000000=0.242000
;
#BGCHANGES:;
#KEYSOUNDS:;
#ATTACKS:;

//---------------dance-single - ----------------
#NOTES:
     dance-single:
     :
     Hard:
     16:
     0.772867,0.758169,0.695238,0.687247,0.607334,677.000000,590.000000,87.000000,86.000000,0.000000,0.000000,0.772867,0.758169,0.695238,0.687247,0.607334,677.000000,590.000000,87.000000,86.000000,0.000000,0.000000:
0000
0000
0000
0000
,
0000
0000
0000
0000
,
0000
0000
0000
0000
0000
0000
0000
0000
1010
0000
0000
0101
0000
0001
1000
0000
,
1100
0000
0000
0011
0000
0100
0010
0000
0110
0000
0000
1001
0000
1000
0010
0100
,
0002
0000
0023
0000
0230
0000
2300
0000
3010
0100
0010
0000
0100
0001
0100
0000
,
0002
0000
2003
0000
3100
1000
0100
0000
1000
0010
1000
0000
0010
0000
0100
0000
,
0110
0000
0102
0000
1000
0000
0000
0000
0013
0001
0010
0000
0001
1000
0001
0000
,
0100
0000
0010
0000
1010
0000
1100
0000
1000
0001
1000
0000
0001
0100
0001
0000
,
0011
0000
0000
0001
1000
0000
0000
1000
0001
0000
0000
0001
1000
0000
1001
0000
,
0001
1000
0100
1000
0001
0000
0010
0000
0011
0000
1001
0000
1100
0000
1000
0010
,
0100
0010
1000
0000
0001
0100
0001
0000
2000
0000
3020
0000
0130
0010
1000
0010
,
0100
0001
0101
0110
1010
0200
0302
2003
,
3010
0100
0001
0000
0010
0100
1000
0000
0010
1000
0001
1000
0010
0000
0100
0000
,
0101
0000
1100
0000
0011
0000
0001
0100
0010
0100
0001
0000
1000
0100
0010
0000
,
0002
0000
0203
0000
0310
0100
0001
1000
0100
0000
1000
0000
1010
0000
1001
0000
,
0110
0000
1001
0000
0001
0010
0100
0000
1000
0000
1000
0001
0100
0000
0101
0000
,
0011
1000
0110
0001
0100
0010
1000
0001
,
0010
0001
0010
0100
1000
0000
0001
0000
1100
0000
1010
0000
0100
0000
0001
0000
,
1000
0000
0010
0000
1000
0010
0100
0000
0001
1000
0001
0000
1000
0100
1000
0000
,
0001
1000
0100
0010
0002
0000
0100
0000
0103
0000
2000
0000
0100
0000
3100
0000
,
2000
0010
3010
0002
0010
0023
0230
1000
,
2300
3002
2003
3020
2030
3200
0320
0230
,
0320
0000
0032
0000
1003
0001
0010
0000
0001
1000
0010
0000
0100
0000
0100
0000
,
0100
0000
0001
1000
0010
0000
1000
0000
1100
0000
0001
0000
0011
0000
0100
0000
,
0010
1000
0100
0000
1000
0010
1000
0000
1000
0000
0001
0100
0001
0000
0100
0001
,
0010
0000
0000
0000
0001
0100
1000
0000
1000
0100
0001
0000
1001
0000
0110
0000
,
1010
0000
0010
1000
0100
0000
0101
0000
1000
0000
0001
0000
0010
0001
1000
0000
,
0001
0010
0100
1000
0010
0100
0001
0010
0100
0000
1000
0010
0100
0000
0001
1000
,
0001
0000
0000
0000
0020
0000
0000
1000
0000
1030
0100
0000
0020
0000
0000
0001
,
0000
0031
0100
0000
0020
0000
0000
1000
0000
1030
0001
0000
1001
0000
1100
0000
,
0011
0000
1100
0000
2000
0000
0000
0010
0000
3010
0100
0000
0002
0000
0000
1000
,
0000
1003
0010
0000
0200
0000
0000
0001
0000
0301
0100
0000
0110
0000
1010
0000
,
0101
0000
1010
0000
0010
0100
0010
0000
0100
0010
0100
0000
0002
0000
2003
0000
,
3020
0000
0230
0000
0000
0301
1000
0000
1000
0000
0010
0000
0010
0000
0100
0001
,
1000
0100
1000
0000
0100
1000
0100
0000
2000
0000
3020
0000
0230
0000
0302
0000
,
0000
0013
0001
0000
0001
0000
1000
0000
1000
0000
0010
0100
0001
0010
0001
0000
,
0010
0001
0010
0000
0002
0000
0203
0000
0320
0000
2030
0000
0000
3100
1000
0000
,
1000
0000
0001
0000
0001
0000
1000
0100
1000
0001
1000
0000
0001
1000
0001
0000
,
2000
0000
3002
0000
0203
0000
0320
0000
0000
1030
0010
0000
0010
0100
0001
0010
,
0001
1000
0020
0000
0230
0000
0301
0000
0010
0000
0001
0000
0100
0000
0010
0000
,
1000
0000
0100
1000
0100
0010
0001
0000
0001
0000
0001
1000
0010
0000
0100
0000
,
0010
0000
1000
0000
0001
0000
0010
0001
1000
0000
0100
1000
0100
0000
1000
0010
,
0100
0001
0010
0000
0100
0000
1100
0000
0110
0000
0011
0000
0101
0000
1001
0000
,
1010
0000
1000
0001
0010
0001
1000
0000
0010
0000
0100
0001
0100
0000
0010
0000
,
1000
0000
0100
0000
1000
0000
0010
0100
0001
0000
1000
0001
1000
0000
0001
0010
,
0001
0000
0100
0010
1000
0001
0200
0000
0010
0000
0310
0000
2000
0000
3001
1000
,
0010
0100
0002
0000
0013
0001
2000
0000
3200
0000
0001
0000
2300
0000
3020
0000
,
0130
0010
1000
0001
0020
0000
0032
0000
2003
0000
3020
0000
0230
0000
0302
0000
,
2003
0000
3200
0000
0320
0000
0031
1000
0001
0000
0100
0010
1000
0000
0011
0000
,
1100
0000
0101
0000
1000
0100
0010
0000
0101
0000
1100
0000
0001
0000
1001
0000
,
0011
0000
2010
0000
0000
0000
3001
1000
0001
0000
0010
0000
0100
1000
0001
0000
,
0001
1000
0020
0000
0000
0000
0130
0010
1000
0000
0100
0010
0001
0000
1001
0000
,
0110
0000
1010
0000
0001
1000
0100
0000
1100
0000
0011
0000
1010
0000
0001
0010
,
0001
0000
0100
0010
1000
0001
1000
0100
0010
0001
1000
0000
0001
0010
0100
0000
,
1000
0010
1000
0000
1100
0001
0010
0100
1000
0010
0100
0000
0101
0000
0000
0110
,
0000
0010
1000
0000
1100
0000
0000
0011
0000
0001
0100
0000
1001
0000
0000
1010
,
0000
1000
0002
0000
0023
0000
0032
0000
2003
0000
3010
0000
1001
0000
0000
0011
,
0000
1000
0100
0000
1010
0000
0000
1100
0000
0010
0001
0000
0101
0000
0000
0110
,
0000
0010
0100
0001
2000
0000
3002
0000
0023
0000
0230
0000
1300
0010
1000
0000
,
0010
0100
0001
0000
0011
0000
1001
0000
1000
0100
1000
0000
0010
0100
0001
0000
,
0010
0100
1000
0000
1100
0000
2010
0000
0002
0000
3003
0000
1000
0100
0010
0000
,
0001
0100
0010
0000
1100
0000
0011
0000
1010
0000
0101
0000
1000
0001
0100
0000
,
0001
1000
0010
0000
0220
0000
0000
0000
0330
0000
0000
0000
2002
0000
0000
0000
,
3003
0000
0000
1000
0001
0000
0000
0000
0000
0000
0000
0000
0000
0000
0000
0000
;

//---------------dance-single - ----------------
#NOTES:
     dance-single:
     :
     Medium:
     13:
     0.611901,0.606535,0.447510,0.111877,0.243733,536.000000,480.000000,56.000000,14.000000,0.000000,0.000000,0.611901,0.606535,0.447510,0.111877,0.243733,536.000000,480.000000,56.000000,14.000000,0.000000,0.000000:
0000
0000
0000
0000
,
0000
0000
0000
0000
,
0000
0000
0000
0000
0000
0000
0000
0000
1001
0000
0000
1001
0000
0000
0100
0000
,
0110
0000
0000
0110
0000
0000
0001
0000
0011
0000
0000
0011
0000
0000
1000
0000
,
0001
0100
0010
1000
0100
0010
0100
0001
,
0100
0010
0100
1000
0001
0100
0010
0001
,
0010
2000
3100
0000
1000
0100
0001
0100
,
0010
0100
1000
0010
0001
0010
0100
0010
,
1010
0000
0000
1000
0100
0000
0000
1000
0100
0000
0000
0000
0011
0000
0011
0000
,
0001
1000
0001
1000
0001
0000
0010
0000
0100
0000
1000
0000
0001
0000
0100
0000
,
0010
0001
0010
0000
1000
0000
0100
0000
0010
0000
0001
0000
0100
0010
0100
0010
,
0100
1000
0100
0001
0010
1000
0010
0100
,
0010
0000
0001
0000
0100
0000
1001
0000
0010
1000
0010
1000
0010
0000
0100
0000
,
0001
0000
0010
0000
1000
0000
0010
0000
0001
0100
0001
0000
0010
0000
0100
0000
,
1000
0000
0010
0000
0001
0010
0001
0010
0001
0000
0100
0000
1000
0000
0001
0000
,
0100
0000
0010
0000
1000
0100
1000
0000
0001
0000
0100
0000
0110
0000
0010
0000
,
1010
1000
0001
0100
1000
0100
0001
0000
,
1000
0100
1000
0100
1000
0000
0010
0000
0100
0000
0000
0000
0001
0000
0010
0000
,
1000
0010
0001
0000
1000
0100
0010
0001
,
0100
0010
0100
0010
0200
0000
0301
0000
0000
0000
0002
0000
1003
0000
0000
0000
,
0020
0130
0000
0020
1030
0101
1100
0000
,
0001
0010
0100
1000
0010
0100
0001
1000
,
0100
0010
1000
0010
0001
0100
0010
0010
,
0010
0000
1000
0001
1000
0000
0100
0000
0010
0000
0001
0000
1000
0000
0100
0000
,
1002
0000
0000
0000
0013
0100
0010
0000
0001
0000
0100
0000
1000
0000
0100
0001
,
0100
0000
0010
1000
0100
0001
0100
0010
,
0100
0000
1000
0001
1000
0000
0010
0000
0100
0000
0001
0000
0010
0000
1000
0000
,
0010
0000
0001
0000
1000
0100
1000
0100
1000
0000
0010
0000
0100
0000
0001
0000
,
0001
0000
0000
0000
1100
0000
0000
1100
0000
0000
0001
0000
0011
0000
0000
0011
,
0000
0000
0100
0000
1010
0000
0000
1010
0000
0000
0001
0000
1000
0000
0010
0000
,
1000
0000
0100
0000
0101
0000
0000
0101
0000
0000
0100
0000
0110
0000
0000
0110
,
0000
0000
1000
0000
1001
0000
0000
1001
0000
0000
0010
0000
1000
0000
0100
0000
,
0010
0001
0100
0010
0100
0010
1000
0100
,
0010
1001
0000
0100
0001
0010
0100
1000
,
1000
0010
0100
0010
1000
0100
0010
1100
,
0000
0001
1000
0010
0100
0001
0001
1000
,
0100
0001
0100
0010
0001
0110
0000
0001
,
1000
0100
0010
1000
0010
0001
0100
0001
,
1000
0010
1000
0101
0000
0001
0010
0100
,
0001
0100
1000
0010
0100
0010
1000
0001
,
0000
0000
0010
0001
0010
0001
0010
0000
0100
0000
1000
0000
0000
0000
0001
0000
,
0010
0000
0100
0000
1000
0000
0010
0000
0000
0000
0100
0010
0100
0000
0001
0000
,
0010
1000
0000
0100
1000
0001
0100
0010
,
0000
0000
1000
0001
1000
0001
1000
0000
0010
0000
0100
0000
0000
0000
0010
0000
,
1000
0000
0100
0000
1000
0000
0001
0000
0000
0000
0010
0001
0010
0000
0001
0000
,
0100
0000
0010
1000
0010
1000
0020
0000
0130
0000
0010
0000
0002
0000
1003
0000
,
0010
0100
0001
0000
0000
1000
0001
0000
0100
0000
0000
0000
0110
0000
1001
0000
,
0000
0000
0001
1000
0010
0000
0010
0000
0010
0000
0100
0000
0001
0000
1000
0000
,
0100
0000
0010
0000
0001
0000
1000
0010
1000
0000
0001
0000
0100
0000
0010
0000
,
1010
0000
1010
0000
0001
1000
0001
0000
0010
0000
0100
0000
1000
0000
0010
0000
,
0110
0000
0110
0000
0000
0000
0001
1000
0001
0000
0100
0000
0010
0000
1000
0000
,
0100
0010
0001
0000
0000
0000
0010
0001
1000
0000
0010
0000
0100
0000
0001
0000
,
0010
0000
0100
0000
1000
0010
1000
0000
1100
0000
1100
0000
0001
0000
0100
0000
,
0101
0000
0101
0000
0000
0000
1000
0100
0010
0000
0001
0000
0100
0000
0010
0000
,
1000
0001
1000
0000
1001
0000
0010
0000
0010
0100
0010
0000
1010
0000
0000
1010
,
0000
0000
0001
0000
0110
0000
0000
0110
0000
0000
1000
0000
0101
0000
0000
0101
,
0000
0000
0010
0000
0100
0000
0001
0000
0010
0000
0100
0000
1100
0000
0000
1100
,
0000
0000
0010
0000
1001
0000
0000
1001
0000
0000
0100
0000
0011
0000
0000
0011
,
0000
1000
0010
0100
0010
0001
0100
0010
,
1000
0100
0010
0100
1000
0010
0100
0001
,
0010
0100
2000
3002
0013
0000
0001
0100
,
0010
0000
1000
0000
0100
0000
0010
0000
0001
0000
0100
0000
0010
1000
0100
0000
,
0010
0001
0100
0000
0220
0000
0000
0000
0330
0000
0000
0000
2002
0000
0000
0000
,
3003
0000
0000
1000
0001
0000
0000
0000
0000
0000
0000
0000
0000
0000
0000
0000
;

//---------------dance-single - ----------------
#NOTES:
     dance-single:
     :
     Easy:
     10:
     0.385863,0.429629,0.127860,0.351615,0.059934,338.000000,322.000000,16.000000,44.000000,0.000000,0.000000,0.385863,0.429629,0.127860,0.351615,0.059934,338.000000,322.000000,16.000000,44.000000,0.000000,0.000000:
0000
0000
0000
0000
,
0000
0000
0000
0000
,
0000
0000
0000
0000
0000
0000
0000
0000
0001
0000
0000
0001
0000
0000
0000
0000
,
1000
0000
0000
1000
0000
0000
0000
0000
0010
0000
0000
0010
0000
0000
0000
0000
,
0100
0001
1000
0000
0010
0000
1000
0000
,
0100
0010
0001
0000
0100
0000
0001
0000
,
2000
0002
3003
0000
0010
0000
1000
0000
,
0001
0100
1000
0000
0010
0000
0100
0000
,
2002
0000
0000
0000
3003
0000
0010
0010
,
1000
0001
0010
0000
0001
1000
0100
0000
,
0010
0000
0001
0000
0100
0000
1000
0010
,
0100
0000
0010
1000
0001
0000
0010
0000
,
0100
0000
1000
0000
0010
0100
0001
0000
,
0010
0100
1000
0000
0001
0000
1000
0000
,
0100
0000
0010
0001
0100
0000
0001
0010
,
1000
0000
0010
0000
1000
0000
0110
0110
,
1001
0002
2003
3002
,
0013
0100
0010
0001
1000
0000
0020
0000
,
0230
0000
0320
0000
1030
0100
0010
0001
,
0100
0000
0202
0000
0303
2200
0000
3300
,
0022
0000
0033
1010
0000
0001
1001
0000
,
0100
0100
0001
1000
0001
0010
0100
1000
,
0001
0100
0010
0000
1000
0000
0001
0100
,
1000
0000
0001
0010
0100
1000
0100
0010
,
0001
0000
1000
0100
0001
0000
0010
0100
,
1000
0000
0010
0000
0100
0000
0010
1000
,
0001
0000
0010
0001
0100
0001
1000
0100
,
0010
0000
0001
0010
1000
0000
0100
0010
,
0001
0000
0000
0000
0100
0000
0000
0100
0000
0000
0000
0000
0010
0000
0000
0010
,
0000
0000
0000
0000
1000
0000
0000
1000
0000
0000
0000
0000
0001
0000
0010
0000
,
0100
0000
0000
0000
1000
0000
0000
1000
0000
0000
0000
0000
0001
0000
0000
0001
,
0000
0000
0000
0000
0010
0000
0000
0010
0000
0000
0000
0000
0001
0000
0100
0000
,
1000
0000
0020
0000
2030
0000
3001
0100
,
0001
1000
0000
1000
0100
0010
0001
0000
,
0200
0000
0320
0000
1030
0001
0010
0100
,
0000
0100
0010
0001
1000
0000
0002
0000
,
0203
0000
0310
1000
0100
0010
0000
0010
,
0001
1000
0100
0000
2000
0000
3002
0000
,
0013
0100
1000
0001
0000
0001
0000
1000
,
0001
0010
0100
2000
0000
3020
0000
0230
,
0000
0301
0100
0001
0100
0010
0000
0200
,
0000
0302
0000
2003
0000
3100
0010
0001
,
0100
0001
0000
2000
0000
3002
0000
0203
,
0000
0301
0010
0100
1000
0001
0000
0200
,
0000
0302
0000
0023
0000
0031
1000
0100
,
0010
0001
1000
2020
0000
3030
0101
0000
,
1000
1100
0000
0010
0110
0000
0001
0011
,
0000
1000
1000
0001
0010
0001
0100
0010
,
1000
0100
0010
0001
0000
0100
0000
1000
,
0001
0100
0000
0010
1000
0100
1000
0001
,
0010
0100
0000
1000
0010
0100
0000
0001
,
0010
0001
0000
1000
0000
0100
0000
1000
,
0010
0001
0000
0100
0001
1000
0100
1000
,
0010
0010
0000
1000
0100
0010
0001
0010
,
0100
0000
1000
0000
0000
0000
0000
0000
0001
0000
1000
0000
0010
0000
0000
0010
,
0000
0000
0000
0000
1000
0000
0000
1000
0000
0000
0000
0000
0100
0000
0000
0100
,
0000
0000
0000
0000
0010
0000
0001
0000
1000
0000
0000
0000
0100
0000
0000
0100
,
0000
0000
0000
0000
1000
0000
0000
1000
0000
0000
0000
0000
0001
0000
0000
0001
,
0000
0000
1000
0010
0001
0000
0100
0000
,
0001
0000
1000
0100
0010
0000
0001
0000
,
0100
0000
0020
0200
0330
0000
0010
0000
,
1000
0000
0100
1000
0001
0000
0010
0001
,
0100
1000
0220
0000
0330
0000
2002
0000
,
0003
3001
0000
0000
;

//---------------dance-single - ----------------
#NOTES:
     dance-single:
     :
     Beginner:
     6:
     0.240879,0.277995,0.167816,0.079912,0.000000,211.000000,190.000000,21.000000,10.000000,0.000000,0.000000,0.240879,0.277995,0.167816,0.079912,0.000000,211.000000,190.000000,21.000000,10.000000,0.000000,0.000000:
// measure 0
0000
0000
0000
0000
,  // measure 1
0000
0000
0000
0000
,  // measure 2
0000
0000
0110
0000
,  // measure 3
1001
0000
0110
0000
,  // measure 4
1000
0100
0001
0010
,  // measure 5
0001
1000
0010
0100
,  // measure 6
0100
0000
0001
1000
,  // measure 7
0100
0010
0001
1000
,  // measure 8
2002
0000
3003
0000
,  // measure 9
1000
0001
0010
0010
,  // measure 10
0001
1000
0100
1000
,  // measure 11
0010
0100
0100
0001
,  // measure 12
1000
0001
0100
0010
,  // measure 13
1000
1000
0100
0010
,  // measure 14
0001
1000
0100
0001
,  // measure 15
0001
0010
0100
0110
,  // measure 16
1001
0020
0000
0030
,  // measure 17
1000
1000
1000
0002
,  // measure 18
0000
0003
0100
0100
,  // measure 19
0100
0000
0010
0000
0000
0010
0000
0000
,  // measure 20
0100
0000
0000
0100
0000
0000
0001
0000
,  // measure 21
0000
0001
0000
0000
1000
0000
0000
1000
,  // measure 22
0000
0002
0003
2000
,  // measure 23
3000
0010
1000
0100
,  // measure 24
0000
1000
0010
0100
,  // measure 25
0001
0010
0010
0001
,  // measure 26
0001
1000
0010
1000
,  // measure 27
0100
0010
0001
0100
,  // measure 28
1000
1001
0000
0110
,  // measure 29
0000
1001
0000
0010
,  // measure 30
0010
0110
0000
1001
,  // measure 31
0000
0110
0000
0100
,  // measure 32
0100
0001
0000
0001
,  // measure 33
0000
1000
0000
0000
0000
1000
0000
0000
,  // measure 34
0010
0000
0000
0000
0010
0000
0000
0100
,  // measure 35
0000
0000
0000
0100
0000
0000
0001
0000
,  // measure 36
0001
0000
0001
0000
0000
0010
0000
0010
,  // measure 37
0000
0010
0000
0000
0100
0000
0100
0000
,  // measure 38
0100
0000
0000
1000
0000
1000
0000
1000
,  // measure 39
0000
0000
0000
0200
0000
0000
0000
0300
,  // measure 40
0000
0001
0000
0001
0000
0001
0000
2000
,  // measure 41
0000
0000
0000
3000
0000
0010
0000
0010
,  // measure 42
0000
0010
0000
0100
0000
0100
0000
0100
,  // measure 43
0000
0010
0000
0010
0000
0010
0000
1000
,  // measure 44
0000
1000
0000
1000
0000
0001
0000
0001
,  // measure 45
0000
0001
0000
1000
0000
0000
1000
0000
,  // measure 46
0000
0100
0000
0000
0100
0000
0000
0010
,  // measure 47
0000
0000
0010
0000
0000
0001
0000
0000
,  // measure 48
0001
0000
0000
0200
0000
0300
0000
0020
,  // measure 49
0000
0030
0000
1000
0000
0100
0000
0001
,  // measure 50
0000
0000
0000
0010
0000
0100
0000
1000
,  // measure 51
0000
0001
0000
1000
0000
1000
0000
0100
,  // measure 52
0000
0100
0000
1000
0000
0010
0000
1000
,  // measure 53
0000
0001
0000
0010
0000
0100
0000
1000
,  // measure 54
0000
0001
0000
0000
0000
0000
0101
0000
,  // measure 55
0000
0101
0000
0101
,  // measure 56
0000
1000
1000
1100
,  // measure 57
0000
1100
0000
1100
,  // measure 58
0000
0001
0001
0010
,  // measure 59
0100
1000
0010
0100
,  // measure 60
0001
1000
0000
0100
,  // measure 61
0010
0001
0100
1000
,  // measure 62
0001
1001
0000
0110
,  // measure 63
0000
1001
0000
0000
;
