#TITLE:symbolic;
#SUBTITLE:;
#ARTIST:TaQ;
#TITLETRANSLIT:;
#SUBTITLETRANSLIT:;
#ARTISTTRANSLIT:;
#GENRE:;
#CREDIT:;
#BANNER:symbolic-bn.png;
#BACKGROUND:symbolic-bg.png;
#LYRICSPATH:;
#CDTITLE:;
#MUSIC:symbolic.ogg;
#OFFSET:-0.050000;
#SAMPLESTART:68.179039;
#SAMPLELENGTH:20.000000;
#SELECTABLE:YES;
#DISPLAYBPM:155.000000;
#BPMS:0.000000=155.000000
;
#STOPS:
;
#BGCHANGES:;
#KEYSOUNDS:;
#ATTACKS:;

//---------------dance-single - ----------------
#NOTES:
     dance-single:
     :
     Hard:
     14:
     0.683002,0.766567,0.371669,0.000000,0.557503,566.000000,522.000000,44.000000,0.000000,0.000000,0.000000,0.683002,0.766567,0.371669,0.000000,0.557503,566.000000,522.000000,44.000000,0.000000,0.000000,0.000000:
0000
0000
0000
0000
,
0000
0000
0000
0000
,
0000
0000
0000
0000
,
0000
0000
0000
0000
0000
0000
0010
0010
,
0010
1000
0010
0100
,
0001
0000
0010
0000
0100
1000
0001
1000
,
0100
0010
0001
0100
,
0001
0000
0000
0000
0010
0000
0000
0000
0001
0000
0000
0000
1000
0100
1000
0000
,
0010
0101
1000
0011
,
0001
0000
0000
0000
0110
0000
0000
0000
1000
0000
0001
0000
0100
0010
0100
0000
,
0001
1010
0100
1100
,
0010
0000
0000
0000
1001
0000
0000
0000
0100
0000
0010
0000
1000
0001
1000
0000
,
0010
0010
1001
0000
0001
1000
1010
0000
,
0100
0000
1000
0000
1010
0000
0000
0000
0010
0000
0010
0000
0100
0001
0100
0000
,
0001
1000
1010
0000
0010
0100
0110
0000
,
0001
0000
0010
0000
0011
0000
0000
0000
0100
0000
0010
0000
1000
0100
1000
0000
,
0001
0010
0011
0000
1000
0010
1000
0001
,
0010
0000
0100
0000
1100
0000
0000
0000
1000
0000
0010
0000
0100
0001
0100
0000
,
0001
0010
0110
0000
0100
1000
0010
1000
,
0001
0000
0100
0000
0110
0000
0000
0000
0001
0000
1000
0000
0010
0100
0010
0000
,
0000
0000
1000
0000
0101
0000
0000
0000
0000
0000
0001
0000
0010
0000
0100
1000
,
0000
0000
0000
0000
,
0010
0000
0100
0000
1001
0000
0000
0000
0000
0000
0001
0000
0010
0000
0100
1000
,
0000
0000
0000
0000
0000
0000
0010
0101
,
0000
0000
0010
0000
1100
0000
0000
0000
0000
0000
0001
0000
0010
0000
0100
1000
,
0000
0000
0000
0000
,
1000
0000
0100
0000
0011
0000
0000
0000
0000
0000
0001
0000
0010
0000
0100
1000
,
0000
0000
0000
0000
0000
0000
0000
0000
1001
0000
0010
0000
1000
0001
0100
0000
,
0001
0010
0000
0010
0001
0000
0000
0000
1000
0100
0000
0100
1000
0000
0000
0000
,
0010
0100
0000
0100
0010
0000
0000
0000
1000
0001
0000
0001
1000
0000
0000
0000
,
0010
1000
0000
1000
0010
0000
0000
0000
0100
0001
0000
0001
0100
0000
0000
0000
,
0010
0001
0000
0001
0010
0000
0000
0000
0100
1000
0000
1000
0100
0000
0000
0000
,
0001
1000
0000
1000
0001
0000
0000
0000
0100
0010
0000
0010
0100
0000
0000
0000
,
0001
0100
0000
0100
0001
0000
0000
0000
1000
0010
0000
0010
1000
0000
0000
0000
,
0001
0010
0000
0100
1000
0000
0000
0000
0010
0100
0000
0001
1000
0000
0000
0000
,
0101
0000
0000
0000
0000
0000
0000
0000
1100
0000
1000
0000
0010
0100
0001
0000
,
1000
0010
0000
1000
0001
0000
0000
0000
0010
0100
0000
1000
0010
0000
0000
0000
,
0100
0001
0000
1000
0100
0000
0000
0000
0010
0000
0001
0000
0100
0001
1000
0000
,
0010
1000
0000
0001
0010
0000
0000
0000
0100
1000
0000
0010
0100
0000
0000
0000
,
0010
1000
0000
0001
0100
0000
0000
0000
0001
0000
1000
0000
0100
0010
0001
0000
,
1000
0010
0000
1000
0100
0000
0000
0000
0001
0010
0000
0001
0100
0000
0000
0000
,
0010
1000
0000
0100
0010
0000
0000
0000
0100
0000
1000
0000
0001
0010
0100
0000
,
1000
0001
0000
0010
0001
0000
0000
0000
0010
0100
0000
1000
0001
0000
0000
0000
,
1000
0010
0000
0100
0001
0000
0000
0000
0010
0000
0100
0000
0010
0001
1000
0000
,
0001
0000
0010
0000
0110
0000
0000
0000
0100
0000
1000
0000
0010
0000
0100
0001
,
0100
0000
0010
0000
1010
0000
0000
0000
1000
0000
0001
0000
0010
0100
1000
0000
,
0010
0000
0100
0000
0101
0000
0000
0000
1000
0000
0010
0000
1000
0000
0001
0010
,
0001
0000
1000
0000
1100
0000
0000
0000
1000
0000
0010
0000
0100
0001
0010
0000
,
0001
0000
0100
0000
1001
0000
0000
0000
0001
0000
1000
0000
0010
0000
1000
0100
,
1000
0000
0001
0000
0011
0000
0000
0000
0010
0000
0001
0000
1000
0010
0100
0000
,
0010
0000
0100
0000
1010
0000
0000
0000
0001
0000
1000
0000
0010
0000
0100
0001
,
0100
0000
0010
0000
0101
0000
0000
0000
0001
0000
1000
0000
0010
1000
0100
0000
,
0000
0000
1000
0000
0101
0000
0000
0000
0000
0000
0001
0000
0010
0000
0100
1000
,
0000
0000
0000
0000
0000
0000
0000
0000
0010
0000
1000
0000
0001
0100
0010
0000
,
0000
0000
0100
0000
1010
0000
0000
0000
0000
0000
0010
0000
0100
0000
0001
1000
,
0000
0000
0000
0000
0000
0000
0000
0000
1000
0000
0010
0000
1000
0001
0100
0000
,
0000
0000
0001
0000
1100
0000
0000
0000
0000
0000
0010
0000
1000
0000
0001
0100
,
0000
0000
0000
0000
0000
0000
0000
0000
0001
0000
1000
0000
0001
0100
0010
0000
,
0000
0010
1001
0000
0010
0001
0100
0010
,
1000
0100
1000
0000
0001
0100
0001
0000
1000
0010
1000
0000
0001
0010
0001
0010
,
0100
0000
1000
0000
1100
0000
0000
0000
0001
0000
1000
0000
0010
0000
1000
0001
,
0010
0000
0100
0000
1100
0000
0000
0000
0010
0000
1000
0000
0001
1000
0001
0100
,
0001
0000
0010
0000
0101
0000
0000
0000
0001
0000
0010
0000
0100
0000
1000
0010
,
0100
0000
0001
0000
0101
0000
0000
0000
0001
0000
1000
0000
0010
0100
0010
1000
,
0001
0000
1000
0000
0110
0000
0000
0000
0010
0000
1000
0000
0001
0000
0010
0100
,
1000
0000
0001
0000
1001
0000
0000
0000
0010
0000
0100
0000
0001
1000
0010
0100
,
0001
0000
0010
0000
0011
0000
0000
0000
0010
0000
0001
0000
1000
0000
0010
1000
,
0100
0000
0010
0000
0100
0000
1000
0000
0010
0000
0100
0000
0001
0010
0001
1000
,
0010
1000
0000
0000
1000
0001
0000
0000
0001
0010
0000
0000
0010
0100
0000
0000
,
0100
0010
0000
0000
0010
0001
0000
0000
0001
0000
0010
0000
0001
0100
0010
1000
,
0100
0010
0000
0000
0010
0001
0000
0000
0001
0100
0000
0000
0100
0010
0000
0000
,
0010
1000
0000
0000
1000
0001
0000
0000
0001
0000
1000
0000
0100
0010
0001
0100
,
0010
1000
0000
0000
1000
0001
0000
0000
0001
0010
0000
0000
0010
0100
0000
0000
,
0100
0010
0000
0000
0010
0001
0000
0000
0001
0000
1000
0000
0100
1000
0010
0100
,
0001
0010
0000
0000
0010
1000
0000
0000
1000
0100
0000
0000
0100
0001
0000
0000
,
0001
1000
0001
1000
0001
1000
0001
1000
0001
0000
1001
0000
0000
0000
0000
0000
;

//---------------dance-single - ----------------
#NOTES:
     dance-single:
     :
     Medium:
     12:
     0.535782,0.638806,0.489927,0.000000,0.168940,444.000000,386.000000,58.000000,0.000000,0.000000,0.000000,0.535782,0.638806,0.489927,0.000000,0.168940,444.000000,386.000000,58.000000,0.000000,0.000000,0.000000:
0000
0000
0000
0000
,
0000
0000
0000
0000
,
0000
0000
0000
0000
,
0000
0000
0000
0000
0000
0000
0010
0010
,
0010
1000
0001
0010
,
0100
1000
0010
0100
,
0001
1000
0001
0010
,
0100
0000
1000
0000
0001
0000
0100
0100
,
0100
1001
0010
1000
,
0001
0010
0100
1000
,
0001
0110
0010
1000
,
0100
0000
0000
0000
1000
0001
0100
0010
,
0000
1000
0001
0000
0010
0100
1000
0000
,
0010
0000
0100
0000
0001
1000
0010
0100
,
0000
0001
0010
0000
0100
1000
0010
0000
,
0100
0000
0001
0000
0010
0100
1000
0010
,
0000
1000
1001
0000
0010
0100
0001
0000
,
0010
0000
0110
0000
0100
1000
0001
0100
,
0000
0001
0011
0000
1000
0100
0010
0000
,
1000
0000
0101
0000
0001
0010
0100
1000
,
0000
0000
0101
0000
0000
0001
1000
0010
,
0000
0000
0000
0000
,
0000
0000
1010
0000
0000
0010
0100
0001
,
0000
0000
0000
0000
0000
0000
0000
0011
,
0000
1000
1100
0000
0000
0010
0100
0001
,
0000
0000
0000
0000
,
0000
0010
1001
0000
0000
0001
1000
0100
,
0000
0000
0000
0000
0110
0010
0001
0100
,
0001
0000
0000
0000
0100
0000
0000
0000
0001
1000
0000
0000
0100
0000
0000
0000
,
1000
0000
0000
0000
0010
0000
0000
0000
1000
0001
0000
0000
0010
0000
0000
0000
,
0100
0000
0000
0000
0010
0000
0000
0000
0001
0100
0000
0000
0010
0000
0000
0000
,
1000
0000
0000
0000
0001
0000
0000
0000
0010
0001
0000
0000
1000
0000
0000
0000
,
0001
0010
0000
0000
0100
0000
0000
0000
1000
0001
0000
0000
0100
0000
0000
0000
,
0010
1000
0000
0000
0001
0000
0000
0000
0010
0100
0000
0000
1000
0000
0000
0000
,
0001
1000
0000
0000
0100
0000
0000
0000
1000
0010
0000
0000
0100
0000
0000
0000
,
0001
0000
0000
0000
0010
0001
1000
0100
,
0010
0100
0000
0000
0010
0000
0000
0000
0001
1000
0000
0000
0100
0000
0000
0000
,
1000
0010
0000
0000
0100
0000
0000
0000
0001
0000
0010
0000
0100
0000
1000
0000
,
0001
1000
0000
0000
0010
0000
0000
0000
1000
0100
0000
0000
0010
0000
0000
0000
,
0100
1000
0000
0000
0001
0000
0000
0000
0100
0000
0010
0000
1000
0000
0001
0000
,
0010
0001
0000
0000
1000
0000
0000
0000
0100
1000
0000
0000
0010
0000
0000
0000
,
0100
0001
0000
0000
0010
0000
0000
0000
0001
0000
1000
0000
0100
0000
0010
0000
,
0100
0010
0000
0000
0001
0000
0000
0000
1000
0001
0000
0000
0010
0000
0000
0000
,
0100
1000
0000
0000
0010
0000
0000
0000
1000
0000
0001
0000
0010
0000
0100
0000
,
0000
0010
1001
0000
0001
1000
0010
0100
,
0001
0000
0011
0000
0100
1000
0010
0100
,
0000
0001
1100
0000
1000
0010
0100
0001
,
0010
0000
0110
0000
1000
0001
0100
1010
,
0000
0001
0101
0000
0001
0010
0100
1000
,
0010
0000
1010
0000
0100
0001
1000
1100
,
0000
0010
0101
0000
0001
1000
0100
0010
,
0001
0000
1001
0000
1000
0010
0100
0101
,
0000
0000
1100
0000
0000
0010
0100
0001
,
0000
0000
0000
0000
1000
0001
1000
0110
,
0000
0000
1010
0000
0000
0100
0010
1000
,
0000
0000
0000
0000
0001
0010
0100
1001
,
0000
0000
0011
0000
0000
0010
0001
1000
,
0000
0000
0000
0000
0010
0100
0001
0011
,
0000
0000
1100
0000
0000
1000
0001
0100
,
0010
0000
0000
0000
0010
0000
0000
0000
0010
0000
1000
0000
0001
0100
0001
0100
,
0001
0010
0100
0000
1000
0001
0010
0000
,
0001
0000
1000
0000
0100
0000
0000
0000
1000
0000
0010
0000
0100
0001
0100
0001
,
0100
0010
1000
0000
0100
0010
0001
0000
,
0100
0000
0001
0000
1000
0000
0000
0000
0010
0000
0100
0000
0001
1000
0001
1000
,
0001
0010
0011
0000
1000
0100
1100
0000
,
0010
0000
0100
0000
0110
0000
0000
0000
0001
0000
1000
0000
0010
0100
0010
0100
,
0010
1000
1010
0000
0001
0100
0101
0000
,
0001
0000
1000
0000
1001
0000
0000
0000
0010
0000
0100
0000
0010
1000
0010
1000
,
0010
1100
0101
0011
,
1010
0000
0000
0000
1001
0000
0000
0000
0110
0000
0000
0000
1000
0001
1000
0001
,
1000
0011
0110
1100
,
1010
0000
0000
0000
1001
0000
0000
0000
0101
0000
0000
0000
0010
0001
0010
0001
,
0010
1001
0101
1100
,
0110
0000
0000
0000
0011
0000
0000
0000
1010
0000
0000
0000
0100
1000
0100
1000
,
0100
1100
0110
0011
,
0001
1000
0001
1000
0001
0000
0000
0000
0001
0000
1001
0000
0000
0000
0000
0000
;

//---------------dance-single - ----------------
#NOTES:
     dance-single:
     :
     Easy:
     7:
     0.358395,0.414537,0.337881,0.000000,0.000000,297.000000,257.000000,40.000000,0.000000,0.000000,0.000000,0.358395,0.414537,0.337881,0.000000,0.000000,297.000000,257.000000,40.000000,0.000000,0.000000,0.000000:
0000
0000
0000
0000
,
0000
0000
0000
0000
,
0000
0000
0000
0000
,
0000
0000
0000
0000
,
0010
1000
0100
0010
,
0100
0010
0001
1000
,
0001
0010
0001
0100
,
0010
1000
0100
0010
,
1000
1001
0010
0100
,
0001
1000
0100
0010
,
0001
1001
1000
0100
,
0010
0000
0010
0010
,
0001
0011
0100
1000
,
0010
0100
0001
1000
,
0100
1100
0010
0001
,
0100
0010
1000
0001
,
0010
0110
0100
1100
,
0010
0100
0001
1000
,
0001
0011
0010
0110
,
0100
0010
0001
1000
,
0000
1001
0000
0110
,
0000
0100
0000
0001
,
0000
0011
0000
1100
,
0000
1000
0000
0010
,
0000
0110
0000
1001
,
0000
1000
0000
0100
,
0000
1100
0000
0011
,
0000
0000
0010
0001
,
1000
1000
1000
1000
,
0001
0001
0001
0001
,
0100
0100
0100
0100
,
0010
0010
0010
0010
,
1000
1000
0100
0100
,
0010
0010
0001
0001
,
0100
0010
1000
0001
,
0100
0000
0100
0100
,
0001
0010
0100
1000
,
0010
0100
0001
1000
,
0100
1000
0010
0100
,
0001
0010
0001
1000
,
0001
1000
0100
0010
,
0001
0100
0010
1000
,
0100
1000
0010
0100
,
0001
0010
0001
1000
,
0010
1001
0100
0010
,
0001
0100
0010
1000
,
0001
0110
1000
0010
,
0100
0010
1000
0001
,
0010
0011
0001
1000
,
0010
0100
0001
0010
,
0100
1100
1000
0010
,
1000
0001
0010
0100
,
0000
1100
0000
0110
,
0000
0001
0000
1000
,
0000
1001
0000
0011
,
0000
0010
0000
0100
,
1000
0001
1001
0000
,
0010
0100
1100
0000
,
1000
1000
0001
0001
,
1000
0000
0011
0110
,
1000
0010
1000
0001
,
0010
0100
1000
0010
,
0100
0001
0010
0001
,
1000
0010
1000
0100
,
1100
0010
0001
0100
,
0010
1000
0001
1000
,
0011
0010
0100
1000
,
0010
0100
0001
1000
,
0010
0110
0001
1001
,
1000
0001
1000
0100
,
1000
1100
0001
0011
,
0010
0100
1000
0001
,
0100
1001
0010
0110
,
1000
1100
0001
0011
,
0001
1000
0010
0100
,
0110
0000
1001
0000
;

//---------------dance-single - ----------------
#NOTES:
     dance-single:
     :
     Beginner:
     4:
     0.179801,0.255100,0.067576,0.000000,0.000000,149.000000,141.000000,8.000000,0.000000,0.000000,0.000000,0.179801,0.255100,0.067576,0.000000,0.000000,149.000000,141.000000,8.000000,0.000000,0.000000,0.000000:
// measure 0
0000
0000
0000
0000
,  // measure 1
0000
0000
0000
0000
,  // measure 2
0000
0000
0000
0000
,  // measure 3
0000
0000
0000
0000
,  // measure 4
0010
0000
0010
0000
,  // measure 5
0100
0000
0100
0000
,  // measure 6
0001
0000
0001
0000
,  // measure 7
1000
0000
1000
0000
,  // measure 8
0001
0000
0010
0000
,  // measure 9
0001
0000
0010
0000
,  // measure 10
0100
0000
1000
0000
,  // measure 11
0100
0000
1000
0000
,  // measure 12
0010
0000
0100
0000
,  // measure 13
0001
0000
1000
0000
,  // measure 14
0100
0000
1000
0000
,  // measure 15
0001
0000
0010
0000
,  // measure 16
0001
0000
1000
0000
,  // measure 17
0010
0000
0100
0000
,  // measure 18
0001
0000
0100
0000
,  // measure 19
0010
0000
1000
0000
,  // measure 20
0000
1001
0000
0000
,  // measure 21
0000
0000
0000
0000
,  // measure 22
0000
0110
0000
0000
,  // measure 23
0000
0000
0000
0000
,  // measure 24
0000
1001
0000
0000
,  // measure 25
0000
0000
0000
0000
,  // measure 26
0000
0110
0000
0000
,  // measure 27
0000
0000
0000
0000
,  // measure 28
0001
0000
0000
0000
,  // measure 29
0100
0000
0000
0000
,  // measure 30
1000
0000
0000
0000
,  // measure 31
0010
0000
0000
0000
,  // measure 32
1000
0000
1000
0000
,  // measure 33
0001
0000
0001
0000
,  // measure 34
0100
0000
0100
0000
,  // measure 35
0010
0000
0010
0000
,  // measure 36
1000
0000
0001
0000
,  // measure 37
1000
0000
0010
0010
,  // measure 38
0010
0000
0100
0000
,  // measure 39
0001
0000
1000
1000
,  // measure 40
1000
0000
0100
0000
,  // measure 41
0010
0000
0001
0001
,  // measure 42
0001
0000
1000
0000
,  // measure 43
0010
0000
0100
0100
,  // measure 44
0100
0000
0001
0000
,  // measure 45
0010
0000
0100
0100
,  // measure 46
0100
0000
1000
0000
,  // measure 47
0001
0000
0010
0010
,  // measure 48
0010
0000
0001
0000
,  // measure 49
0100
0000
1000
1000
,  // measure 50
1000
0000
0010
0000
,  // measure 51
0100
0000
0001
0001
,  // measure 52
0000
1001
0000
0000
,  // measure 53
0000
0000
0000
0000
,  // measure 54
0000
0110
0000
0000
,  // measure 55
0000
0000
0000
0000
,  // measure 56
1000
1000
0000
0000
,  // measure 57
0010
0010
0000
0000
,  // measure 58
0100
0100
0000
0000
,  // measure 59
0001
0001
0000
0000
,  // measure 60
1000
1000
1000
0000
,  // measure 61
0010
0000
0100
0000
,  // measure 62
0001
0001
0001
0000
,  // measure 63
0010
0000
0001
0000
,  // measure 64
0100
0100
0100
0000
,  // measure 65
0001
0000
1000
0000
,  // measure 66
0010
0010
0010
0000
,  // measure 67
0100
0000
0001
0000
,  // measure 68
1000
1000
1000
0000
,  // measure 69
0100
0100
0100
0000
,  // measure 70
0010
0010
0010
0000
,  // measure 71
0001
0001
0001
0000
,  // measure 72
0100
0100
0100
0000
,  // measure 73
0010
0010
0010
0000
,  // measure 74
1000
1000
1000
0000
,  // measure 75
0110
0000
1001
0000
;
