#TITLE:super highway;
#SUBTITLE:;
#ARTIST:nouvo nude;
#TITLETRANSLIT:;
#SUBTITLETRANSLIT:;
#ARTISTTRANSLIT:;
#GENRE:;
#CREDIT:;
#BANNER:super highway-bn.png;
#BACKGROUND:super highway-bg.png;
#LYRICSPATH:;
#CDTITLE:;
#MUSIC:super highway.ogg;
#OFFSET:0.000000;
#SAMPLESTART:32.992001;
#SAMPLELENGTH:20.000000;
#SELECTABLE:YES;
#DISPLAYBPM:160.000000;
#BPMS:0.000000=160.039993
;
#STOPS:
;
#BGCHANGES:;
#KEYSOUNDS:;
#ATTACKS:;

//---------------dance-single - ----------------
#NOTES:
     dance-single:
     :
     Hard:
     13:
     0.694224,0.679516,0.211797,0.211797,0.470660,413.000000,395.000000,18.000000,18.000000,0.000000,0.000000,0.694224,0.679516,0.211797,0.211797,0.470660,413.000000,395.000000,18.000000,18.000000,0.000000,0.000000:
0000
0000
0000
0000
,
1100
0000
0000
1000
0001
0000
1001
0000
0000
0000
0010
0000
0100
0000
0000
0000
,
0001
0010
0001
0010
0001
0010
0000
0000
0000
0000
0000
0000
0000
0000
0000
0000
,
0011
0000
0000
0001
0100
0000
0110
0000
0000
0000
0010
0000
1000
0000
0000
0000
,
0010
0100
0010
0100
0000
0000
0101
0000
0000
0000
0000
0000
0000
0000
0000
0000
,
1000
0100
0010
0001
0100
0020
1000
0000
,
0001
0000
0001
0000
0001
0000
0000
0000
0130
0000
0000
0010
0000
0000
1000
0000
,
0001
0010
0100
2000
0000
0010
0010
0000
,
0100
0000
0100
0000
3100
0000
1000
0001
1000
0001
1000
0000
0010
0000
0000
0000
,
1000
0001
1000
0100
0010
0002
0100
0000
,
1000
0000
1000
0000
1000
0000
0000
0000
0103
0000
0000
0001
0000
0000
1000
0000
,
0010
1000
0001
0200
0000
0010
0010
0000
,
0301
0100
0001
0100
0001
0000
1010
0000
0000
0000
1000
0000
0100
0000
0000
0000
,
1001
0000
0000
0000
0010
0000
1000
0000
0001
0000
1000
0000
0100
0010
0000
0000
,
0010
0000
0000
0010
0000
0000
0010
0000
0000
0000
0101
0000
0000
1100
0000
0000
,
0101
0000
0010
1000
0001
0010
0100
0000
,
1000
0001
1000
0020
0000
0100
0130
0000
,
0110
0000
0000
0000
0010
0000
1000
0000
0001
0000
1000
0000
0010
0100
0000
0000
,
0100
0000
0000
0100
0000
0000
0100
0000
0000
0000
1010
0000
0000
0011
0000
0000
,
1010
0000
0100
1000
0001
0010
0001
0000
,
1000
0000
0000
1000
0001
0000
0000
0100
0010
0100
0010
0000
0110
0000
0000
0000
,
2002
0000
0003
0000
0100
0200
3300
0000
,
1000
0100
1000
0100
1000
0000
0001
0000
0000
0000
0100
0001
0100
0001
0000
0000
,
0010
0000
0010
0000
0010
1000
0000
0100
0000
0000
1000
0001
1000
0001
0000
0000
,
0100
0001
0100
0001
0100
0000
0010
0000
0000
0000
0010
1000
0010
1000
0000
0000
,
0100
0000
0100
0000
0100
1000
0100
0000
0010
0000
0001
1000
0001
1000
0000
0000
,
0010
0100
0010
0100
0010
0000
1000
0000
0000
0000
1000
0100
1000
0100
0000
0000
,
0010
0000
0010
0000
0010
0001
0000
1000
0000
0000
0100
1000
0100
1000
0000
0000
,
0001
0010
0001
0010
0001
0000
0100
0000
0000
0000
0010
0100
0010
0100
0000
0000
,
0001
0000
0001
0000
0001
1000
0001
0000
0100
0000
0010
1000
0010
1000
0000
0000
,
0100
1000
0100
0000
0010
0000
0001
0000
0100
0000
0010
1000
0010
0000
0000
0000
,
1000
0000
1000
0000
1000
0000
0100
0000
0010
0000
0001
0100
0001
0000
0000
0000
,
0010
0001
0010
0000
0100
0000
1000
0000
0001
0000
0100
0010
0100
0000
0000
0000
,
0001
0000
0001
0000
0001
1000
0001
0000
0100
0000
0010
1000
0010
0000
0000
0000
,
1000
0010
1000
0000
0100
0000
0010
0000
0001
0000
0100
0001
0100
0000
0000
0000
,
0010
0000
0010
0000
0010
0000
1000
0000
0100
0000
1000
0001
1000
0000
0000
0000
,
0100
0010
0100
0000
1000
0000
0010
0000
0100
0000
0001
1000
0001
0000
0000
0000
,
0010
0000
0010
0000
0010
0001
0010
0000
0100
0000
1000
0010
1000
0000
0000
0000
,
1001
0000
0000
0000
0010
0100
0020
0000
0000
0000
0000
0000
0030
0000
0000
0000
,
0010
1000
0100
0010
0001
0200
1000
0000
,
0010
0000
0010
0000
0010
0000
0000
0000
0301
0000
0000
1000
0000
0000
0100
0000
,
0010
0001
0100
0002
0000
1000
1000
0000
,
0010
0000
0010
0000
0013
0000
0001
0100
0001
0100
0001
0000
1000
0000
0000
0000
,
0100
1000
0010
0100
0001
2000
0100
0000
,
0001
0000
0001
0000
0001
0000
0000
0000
3100
0000
0000
0010
0000
0000
0001
0000
,
0100
0001
1000
0020
0000
1000
1000
0000
,
0130
0010
0100
0010
0200
0000
0000
0000
0301
0000
0000
1000
0000
0000
0010
0000
,
1000
0001
1000
0010
0100
0002
1000
0000
,
0100
0000
0100
0000
0100
0000
0000
0000
1003
0000
0000
0010
0000
0000
0001
0000
,
1000
0100
1000
0020
0000
0001
0001
0000
,
0100
0000
0100
0000
0130
0000
1000
0010
1000
0010
1000
0000
0001
0000
0000
0000
,
0100
0001
1000
0100
0010
0200
0010
0000
,
0001
0000
0001
0000
0001
0000
0000
0000
0301
0000
0000
1000
0000
0000
0010
0000
,
0100
0001
0010
2000
0000
0100
0100
0000
,
3100
0010
0100
0010
0100
0000
1000
0000
0001
0000
0001
0000
0001
0000
0000
0000
,
1001
0000
0000
0000
;

//---------------dance-single - ----------------
#NOTES:
     dance-single:
     :
     Medium:
     10:
     0.511003,0.485368,0.164731,0.164731,0.064716,304.000000,290.000000,14.000000,14.000000,0.000000,0.000000,0.511003,0.485368,0.164731,0.164731,0.064716,304.000000,290.000000,14.000000,14.000000,0.000000,0.000000:
0000
0000
0000
0000
,
1001
0000
0000
0110
0000
1000
0001
0000
,
0100
0100
0100
0100
0000
0010
1000
0000
,
0110
0000
0000
1001
0000
0001
1000
0000
,
0010
0010
0100
0001
0000
1000
0100
0000
,
0001
1000
0001
0010
0000
0200
0000
0000
,
1000
0000
0000
0000
1300
0000
0000
0000
0001
0000
0000
1000
0000
0000
0010
0000
,
1000
0000
0001
0020
0000
0000
0001
0000
,
0100
1000
0100
0031
,
0010
0001
1000
0001
0000
0200
0000
0000
,
0010
0000
0000
0000
0310
0000
0000
0000
0100
0000
0000
0001
0000
0000
1000
0000
,
0010
0000
1000
0200
0000
0000
1000
0000
,
0010
0000
0001
0000
0310
0001
0100
0000
,
0001
0000
1000
0010
0000
1010
0000
0000
,
0001
0000
0000
0010
0000
0000
0001
0000
0000
0000
1100
0000
0000
1100
0000
0000
,
1000
0000
0001
0100
0000
0101
0000
0000
,
0001
0010
0100
0000
1000
0010
0100
0000
,
0001
0000
0100
0010
0000
0110
0000
0000
,
1000
0000
0000
0100
0000
0000
1000
0000
0000
0000
0011
0000
0000
0011
0000
0000
,
0010
0000
0001
1000
0000
1001
0000
0000
,
0010
1000
0001
0000
0010
0100
1000
0000
,
0002
0000
2000
3003
,
0001
1000
0010
0100
0000
0001
0001
0000
,
0010
0010
0010
0100
1000
0001
0001
0000
,
1000
0001
0010
0100
0000
1000
1000
0000
,
0001
0001
0001
1000
0010
0100
0100
0000
,
0010
0100
1000
0001
0000
0100
0100
0000
,
0001
0001
0001
1000
0100
0010
0010
0000
,
0100
1000
0010
0100
0000
0001
0001
0000
,
1000
1000
1000
0001
0100
0010
0010
0000
,
1000
0001
0010
0100
0000
1000
1000
0000
,
0010
0010
0100
0001
1000
0100
0100
0000
,
1000
0010
1000
0001
0000
0100
0100
0000
,
0001
0001
1000
0010
0100
0010
0010
0000
,
0100
0010
1000
0001
0000
1000
1000
0000
,
0001
0001
0010
0100
0010
0100
0100
0000
,
0010
0001
0100
0001
0000
1000
1000
0000
,
0010
0010
1000
0001
0100
0001
0001
0000
,
1001
0000
0000
0000
0010
0100
0010
0000
0000
0000
0000
0000
0000
0000
0000
0000
,
1000
0100
0010
0001
0000
2000
0001
0000
,
0100
0000
0000
0000
0100
0000
0000
0000
3001
0000
0000
1000
0000
0000
0010
0000
,
1000
0001
0010
0200
0000
0000
1000
0000
,
0001
0000
1300
0000
0010
0100
0001
0000
,
0010
0001
1000
0001
0000
0200
0010
0000
,
1000
0000
0000
0000
0001
0000
0000
0000
0310
0000
0000
1000
0000
0000
0100
0000
,
0010
0100
1000
0002
0000
0000
0010
0000
,
1000
0000
0103
0000
0001
1000
0100
0000
,
1000
0010
1000
0001
0000
0020
0100
0000
,
0001
0000
0000
0000
0031
0000
0000
0000
1000
0000
0000
0001
0000
0000
0100
0000
,
0001
1000
0100
0020
0000
0000
1000
0000
,
0100
0000
0031
0000
0100
0010
1000
0000
,
0001
1000
0001
1000
0000
0020
0100
0000
,
1000
0000
0000
0000
1030
0000
0000
0000
0010
0000
0000
0100
0000
0000
0001
0000
,
0010
0100
1000
0002
0000
0000
0100
0000
,
0010
0000
0100
0000
1003
0001
0100
0000
,
0110
0000
0000
0000
;

//---------------dance-single - ----------------
#NOTES:
     dance-single:
     :
     Easy:
     8:
     0.388295,0.388295,0.047066,0.000000,0.000000,231.000000,227.000000,4.000000,0.000000,0.000000,0.000000,0.388295,0.388295,0.047066,0.000000,0.000000,231.000000,227.000000,4.000000,0.000000,0.000000,0.000000:
0000
0000
0000
0000
,
0010
0000
0000
0100
0000
0010
0000
0000
,
1000
0001
1000
0000
0000
0000
0000
0000
,
0001
0000
0000
0010
0000
0100
0000
0000
,
1000
0001
0000
1001
0000
0000
0000
0000
,
1000
0010
0100
0001
0000
0000
0000
0000
,
0010
0010
0001
1000
,
0001
1000
0100
0010
,
0100
0010
0001
0100
,
0001
1000
0010
0100
0000
0000
0000
0000
,
0001
0001
1000
0100
,
1000
0010
0100
0001
,
0010
0100
1000
0010
,
1000
0010
0100
0001
,
0010
0000
0100
0000
0000
1000
0000
0001
,
1000
0001
0010
0100
,
1000
0010
0100
0001
,
0010
0100
1000
0001
,
1000
0000
0010
0000
0000
0100
0000
0001
,
1000
0001
1000
0010
,
0100
0001
0010
0100
,
1001
0000
0000
0000
0100
0010
0000
0000
,
1000
0000
0000
0001
0000
1000
0100
0000
,
0010
0100
0010
0000
0001
1000
0100
0000
,
1000
0000
0000
0001
0000
0010
0001
0000
,
0100
0001
0100
0000
0001
0010
0100
0000
,
0010
0000
0000
0001
0000
0100
0010
0000
,
1000
0001
0010
0000
0001
1000
0100
0000
,
1000
0000
0000
0010
0000
1000
0001
0000
,
0010
0100
1000
0000
0001
1000
0100
0000
,
1000
0000
0010
0000
1000
0100
0010
0000
,
0001
0000
1000
0000
0010
1000
0100
0000
,
0010
0000
0001
0000
1000
0001
0100
0000
,
0001
0000
1000
0000
0010
0100
0010
0000
,
1000
0000
0100
0000
0010
0100
1000
0000
,
0001
0000
1000
0000
0001
0010
0100
0000
,
0010
0000
0001
0000
1000
0010
0100
0000
,
0010
0000
0100
0000
0001
1000
0001
0000
,
1001
0000
1000
0001
0000
0000
0000
0000
,
0010
0001
1000
0100
0000
0000
0000
0000
,
1000
0010
0100
0010
,
1000
0001
0010
0100
,
0001
1000
0010
1000
,
0100
0010
0001
1000
0000
0000
0000
0000
,
0001
0001
1000
1000
,
0010
1000
0100
0010
,
0100
0010
0100
1000
,
0010
0100
0001
1000
0000
0000
0000
0000
,
0100
1000
0010
0100
,
0010
0100
0001
0010
,
0001
1000
0100
0100
,
1000
0100
0010
0001
0000
0000
0000
0000
,
1000
0010
1000
0001
,
0010
0100
1000
0010
,
0100
0001
0010
0100
,
1001
0000
0000
0000
;

//---------------dance-single - ----------------
#NOTES:
     dance-single:
     :
     Beginner:
     5:
     0.201712,0.258863,0.058833,0.000000,0.000000,120.000000,115.000000,5.000000,0.000000,0.000000,0.000000,0.201712,0.258863,0.058833,0.000000,0.000000,120.000000,115.000000,5.000000,0.000000,0.000000,0.000000:
// measure 0
0000
0000
0000
0000
,  // measure 1
0100
0000
0000
0000
,  // measure 2
1001
0000
0000
0000
,  // measure 3
0010
0000
0000
0000
,  // measure 4
1001
0000
0000
0000
,  // measure 5
0001
0001
0000
0000
,  // measure 6
0010
0000
0100
0000
,  // measure 7
1000
0000
0010
0000
,  // measure 8
1000
0000
0001
0000
,  // measure 9
0100
0100
0000
0000
,  // measure 10
0001
0000
0010
0000
,  // measure 11
0001
0000
1000
0000
,  // measure 12
0100
0000
0010
0000
,  // measure 13
0001
0000
0000
0000
,  // measure 14
1000
1000
1000
1000
,  // measure 15
1000
0000
0000
0000
,  // measure 16
0010
0000
0100
0000
,  // measure 17
0010
0000
0000
0000
,  // measure 18
0001
0001
0001
0001
,  // measure 19
0001
0000
0000
0000
,  // measure 20
1000
0000
0100
0000
,  // measure 21
1001
0000
0000
0000
,  // measure 22
1000
0000
0001
0000
,  // measure 23
0010
0010
0010
0000
,  // measure 24
0001
0000
0100
0000
,  // measure 25
1000
1000
1000
0000
,  // measure 26
0010
0000
0100
0000
,  // measure 27
0001
0001
0001
0000
,  // measure 28
0010
0000
0001
0000
,  // measure 29
0100
0100
0100
0000
,  // measure 30
0001
0001
0001
0000
,  // measure 31
0010
0010
0010
0000
,  // measure 32
0100
0100
0100
0000
,  // measure 33
1000
1000
1000
0000
,  // measure 34
0010
0010
0010
0000
,  // measure 35
1000
1000
1000
0000
,  // measure 36
0001
0001
0001
0000
,  // measure 37
0100
0100
0100
0000
,  // measure 38
1001
0000
0000
0000
,  // measure 39
1000
1000
0000
0000
,  // measure 40
0001
0000
1000
0000
,  // measure 41
0001
0000
0010
0000
,  // measure 42
0100
0000
1000
0000
,  // measure 43
0010
0010
0000
0000
,  // measure 44
0100
0000
0010
0000
,  // measure 45
1000
0000
0100
0000
,  // measure 46
1000
0000
0001
0000
,  // measure 47
0001
0001
0000
0000
,  // measure 48
0010
0000
0001
0000
,  // measure 49
1000
0000
0001
0000
,  // measure 50
1000
0000
0010
0000
,  // measure 51
0100
0100
0000
0000
,  // measure 52
0001
0000
1000
0000
,  // measure 53
0100
0000
0010
0000
,  // measure 54
0100
0000
1000
0000
,  // measure 55
1001
0000
0000
0000
;
