#VERSION:0.83;
#TITLE:stoic (EXTREME version);
#SUBTITLE:;
#ARTIST:TaQ;
#TITLETRANSLIT:;
#SUBTITLETRANSLIT:;
#ARTISTTRANSLIT:;
#GENRE:;
#ORIGIN:;
#CREDIT:;
#BANNER:stoic (EXTREME version).png;
#BACKGROUND:stoic (EXTREME version)-bg.png;
#PREVIEWVID:;
#JACKET:stoic (EXTREME version)-jacket.png;
#CDIMAGE:;
#DISCIMAGE:;
#LYRICSPATH:;
#CDTITLE:;
#MUSIC:stoic (EXTREME version).ogg;
#OFFSET:0.000000;
#SAMPLESTART:58.839001;
#SAMPLELENGTH:15.000000;
#SELECTABLE:YES;
#DISPLAYBPM:155.000000;
#BPMS:0.000=155.172,
4.000=155.002,
215.750=118.421,
216.000=155.000;
#STOPS:215.750=0.467;
#DELAYS:;
#WARPS:;
#TIMESIGNATURES:0.000=4=4;
#TICKCOUNTS:0.000=4;
#COMBOS:0.000=1;
#SPEEDS:0.000=1.000=0.000=0;
#SCROLLS:0.000=1.000;
#FAKES:;
#LABELS:0.000=Song Start;
#BGCHANGES:;
#KEYSOUNDS:;
#ATTACKS:
;

//---------------dance-single - ----------------
#NOTEDATA:;
#CHARTNAME:;
#STEPSTYPE:dance-single;
#DESCRIPTION:;
#CHARTSTYLE:;
#DIFFICULTY:Beginner;
#METER:3;
#RADARVALUES:0.183036,0.252083,0.218750,0.000000,0.000000,123.000000,102.000000,21.000000,0.000000,0.000000,0.000000,0.000000,0.000000,0.000000,0.183036,0.252083,0.218750,0.000000,0.000000,123.000000,102.000000,21.000000,0.000000,0.000000,0.000000,0.000000,0.000000,0.000000;
#CREDIT:;
#DISPLAYBPM:155.000000;
#NOTES:
0000
0000
0000
0000
,
0000
0000
0000
0000
,
0000
0000
0000
0000
,
0000
0000
0000
0000
,
0000
0000
0000
0000
,
0001
0000
0000
0000
,
0010
0000
0000
0000
,
1000
0000
0000
0000
,
0100
0000
0000
0000
,
1001
0000
0000
0000
,
0110
0000
0000
0000
,
1001
0000
0000
0000
,
1001
0000
0000
0000
,
0001
0000
0001
0000
,
1000
0000
1000
0000
,
0010
0000
0010
0000
,
0100
0000
0100
0000
,
0001
0000
0010
0000
,
1000
0000
0010
0000
,
0100
0000
0010
0000
,
0001
0000
1000
0000
,
1001
0000
0000
0000
,
0001
0000
1001
0000
,
0100
0000
0110
0000
,
1000
0000
1001
0000
,
0010
0000
0110
0000
,
1000
0000
0110
0000
,
0001
0000
0110
0000
,
0100
0000
1001
0000
,
0010
0000
1001
0000
,
0010
0010
0010
0000
,
0100
0100
0100
0000
,
0001
0001
0001
0000
,
1000
1000
1000
0000
,
0001
0000
0001
0000
,
0010
0000
0010
0000
,
1000
0000
1000
0000
,
0100
0000
0100
0000
,
0010
0000
0110
0000
,
0001
0000
1001
0000
,
0100
0000
0110
0000
,
1000
0000
1001
0000
,
0001
0000
1001
0000
,
1000
0000
1001
0000
,
0001
0000
0110
0000
,
1000
0000
0110
0000
,
0001
0000
0001
0000
,
0001
0000
1000
0000
,
1000
0000
1000
0000
,
1000
0000
0001
0000
,
0001
0000
1000
0000
,
1000
0000
0001
0000
,
0100
0000
0100
0000
,
1000
0000
0100
0000
,
0000
0000
0000
0000
,
0100
0000
0000
0000
,
1000
0000
0000
0000
,
0001
0000
0000
0000
,
1000
0000
0100
0000
,
0001
0000
0100
0000
,
0001
0000
0010
0000
,
0000
0000
0000
0000
;

//---------------dance-single - ----------------
#NOTEDATA:;
#CHARTNAME:;
#STEPSTYPE:dance-single;
#DESCRIPTION:;
#CHARTSTYLE:;
#DIFFICULTY:Easy;
#METER:5;
#RADARVALUES:0.236607,0.348763,0.260417,0.000000,0.000000,159.000000,134.000000,25.000000,0.000000,0.000000,0.000000,0.000000,0.000000,0.000000,0.236607,0.348763,0.260417,0.000000,0.000000,159.000000,134.000000,25.000000,0.000000,0.000000,0.000000,0.000000,0.000000,0.000000;
#CREDIT:;
#DISPLAYBPM:155.000000;
#NOTES:
0000
0000
0000
0000
,
0000
0000
0000
0000
,
0000
0000
0000
0000
,
0000
0000
0000
0000
,
0000
0000
0000
0000
,
0001
0000
0000
0000
,
0010
0000
0000
0000
,
1000
0000
0000
0000
,
0100
0000
0000
0000
,
1001
0000
0000
0000
,
0110
0000
0000
0000
,
1001
0000
0000
0000
,
1001
0000
0000
0000
,
0001
0000
0001
0000
,
1000
0000
1000
0000
,
0010
0000
0010
0000
,
0100
0000
0100
0000
,
0001
0000
0010
0000
,
1000
0000
0010
0000
,
0100
0000
0010
0000
,
0001
0000
1000
0000
,
1001
0000
0000
0000
,
0001
0000
1001
0000
,
0100
0000
0110
0000
,
1000
0000
1001
0000
,
0010
0000
0110
0000
,
1000
0000
0110
0000
,
0001
0000
0110
0000
,
0100
0000
1001
0000
,
0010
0000
1001
0000
,
0010
0010
0010
0000
,
0100
0100
0100
0000
,
0001
0001
0001
0000
,
1000
1000
1000
0000
,
0001
1000
0001
0000
,
0010
0100
0010
0000
,
1000
0001
1000
0000
,
0100
0010
0100
0000
,
0010
0100
0110
0000
,
0001
1000
1001
0000
,
0100
0010
0110
0000
,
1000
0001
1001
0000
,
0001
0010
1001
0000
,
1000
0100
1001
0000
,
0001
1000
0110
0000
,
1000
0001
0110
0000
,
0001
1000
0001
1000
,
0001
0010
1000
0010
,
1000
0001
1000
0001
,
1000
0100
0001
0100
,
0001
0100
1000
1001
,
1000
0010
0001
1001
,
0100
0010
0100
0010
,
1000
0001
0100
1001
,
0000
0000
0000
0000
,
0100
0000
0000
0000
,
1000
0000
0000
0000
,
0001
0000
0000
0000
,
1000
0001
0100
0000
,
0001
1000
0100
0000
,
0001
0000
1000
0000
0010
0000
0000
1001
,
0000
0000
0000
0000
;

//---------------dance-single - ----------------
#NOTEDATA:;
#CHARTNAME:;
#STEPSTYPE:dance-single;
#DESCRIPTION:;
#CHARTSTYLE:;
#DIFFICULTY:Medium;
#METER:9;
#RADARVALUES:0.430060,0.538997,0.197917,0.041667,0.000000,289.000000,270.000000,19.000000,4.000000,0.000000,0.000000,0.000000,0.000000,0.000000,0.430060,0.538997,0.197917,0.041667,0.000000,289.000000,270.000000,19.000000,4.000000,0.000000,0.000000,0.000000,0.000000,0.000000;
#CREDIT:;
#DISPLAYBPM:155.000000;
#NOTES:
0000
0000
0000
0000
,
0000
0000
0000
0000
,
0000
0000
0000
0000
,
0000
0000
0000
0000
,
0000
0000
0000
0000
,
0010
1000
0001
1000
,
0001
1000
0001
1000
,
0100
0001
1000
0001
,
1000
0001
1000
0001
,
0100
1000
0100
0001
,
0100
1000
0100
0001
,
0010
1000
0010
0001
,
0100
0100
0100
0100
,
0010
0001
0100
1001
,
0010
1000
0100
1001
,
0001
0100
1000
0110
,
1000
0100
0001
0110
,
0010
1000
0010
0101
,
0010
0001
0010
1100
,
0001
0100
0001
1010
,
1000
0100
1000
0011
,
1000
1000
1000
1000
,
0001
0000
1000
0000
0000
0100
0100
0000
,
0010
0000
0100
0000
0000
1000
1000
0000
,
0001
0000
1000
0000
0000
0010
0010
0000
,
0100
0000
0010
0000
0000
0001
0001
0000
,
0010
0000
0101
0000
0000
1000
0001
0000
,
0010
0000
1100
0000
0000
0001
1000
0000
,
0010
0000
1001
0000
0000
0100
0010
0000
,
0001
0001
0001
0001
,
0010
0002
0100
0103
,
0010
2000
0100
3100
,
0010
0200
0001
1300
,
0100
0020
1000
0031
,
0001
0110
0100
1000
,
1000
0110
0100
0001
,
0010
1001
0010
0100
,
0010
0010
0010
0010
,
0001
0000
1100
0000
0010
1000
0010
0000
,
1000
0000
0101
0000
0010
0001
0010
0000
,
0001
0000
1010
0000
0100
0001
0100
0000
,
1000
0000
0011
0000
0100
1000
0100
0000
,
1000
0010
1000
0000
0001
0010
0001
0000
,
0100
0010
0100
0000
0010
1000
0010
0000
,
0100
0001
0100
0000
0010
0100
0010
0000
,
0001
1000
0001
1000
0001
1000
0001
0000
,
1000
0100
1000
0010
1000
0100
1000
0000
,
0001
0010
0001
0100
0001
0010
0001
0000
,
1000
0100
0010
0001
0010
0100
1000
0000
,
0001
0010
0100
1000
0100
0010
0001
0000
,
1000
0100
1000
0100
0010
0001
1000
0010
,
0100
0001
1000
0010
1000
0100
1000
0001
,
0100
0010
1000
0010
0100
0001
0010
0100
,
0010
0001
1000
0010
0100
0001
1000
0000
,
0001
1000
0001
1000
,
0010
1000
0010
1000
,
0010
0100
0010
0100
,
0001
0100
0001
0100
,
0001
0100
0001
0000
1000
0100
1000
0000
,
0001
0100
1000
0000
1000
0100
0001
0000
,
1000
0010
1000
0001
0100
0000
0000
1001
,
0000
0000
0000
0000
;

//---------------dance-single - ----------------
#NOTEDATA:;
#CHARTNAME:;
#STEPSTYPE:dance-single;
#DESCRIPTION:;
#CHARTSTYLE:;
#DIFFICULTY:Hard;
#METER:13;
#RADARVALUES:0.571429,0.729232,0.437500,0.031250,0.031250,384.000000,342.000000,42.000000,3.000000,0.000000,0.000000,0.000000,0.000000,0.000000,0.571429,0.729232,0.437500,0.031250,0.031250,384.000000,342.000000,42.000000,3.000000,0.000000,0.000000,0.000000,0.000000,0.000000;
#CREDIT:;
#DISPLAYBPM:155.000000;
#NOTES:
0000
0000
0000
0000
,
0000
0000
0000
0000
,
0000
0000
0000
0000
,
0000
0000
0000
0000
,
0000
0000
0000
0000
,
0100
0001
1000
0001
,
1000
0001
0100
0001
,
0010
1000
0001
1000
,
0001
1000
0010
1000
,
1000
0000
0001
0000
1000
0100
0001
0000
,
0001
0000
1000
0000
0001
0100
1000
0000
,
0010
0000
0100
0000
0010
1000
0100
0000
,
0010
0000
0100
0000
0010
0001
0100
0000
,
0010
1000
0001
0000
1000
0000
0110
0000
,
0010
0001
1000
0000
0001
0000
0110
0000
,
1000
0100
0001
0000
0010
0000
0101
0000
,
0001
0100
1000
0000
0010
0000
1100
0000
,
0001
0100
0101
0000
1000
0000
1100
0000
,
0010
0001
0011
0000
1000
0000
1010
0000
,
0100
0010
0110
0000
0001
0000
1001
0000
,
0010
0100
0110
0000
1000
0000
1001
0000
,
0020
0000
0000
0030
,
1000
0100
1000
0000
0010
0100
0010
0000
,
0001
0010
0001
0000
0100
0010
0100
0000
,
1000
0001
0010
0000
0100
0010
1000
0000
,
0001
0100
0010
0000
0100
1000
0001
0000
,
1000
0010
1010
0000
0100
1000
1100
0000
,
0010
0100
0110
0000
0001
1000
1001
0000
,
0010
1000
0101
0000
0010
0001
1100
0000
,
0001
0100
1010
0000
1000
0010
0101
0000
,
2000
0000
0001
0000
0100
0100
0100
0000
,
0000
0000
0001
0000
0010
0010
3010
0000
,
0002
0000
1000
0000
0100
0100
0100
0000
,
0000
0000
1000
0000
0010
0010
0013
0000
,
0001
1000
0010
0100
0001
0010
0100
0000
,
0010
0100
0001
0010
0001
1000
0100
0000
,
0010
0001
0100
0001
1000
0100
0010
0000
,
1000
0010
0100
0001
1000
0100
0010
0000
,
0001
1000
0001
0010
0100
0010
0001
0100
,
1000
0010
0100
0010
1000
0001
0100
0001
,
0010
1000
0100
1000
0010
0100
0001
0010
,
1000
0001
0100
0001
1000
0010
0101
0000
,
0010
1000
0110
1000
0010
0100
0001
1000
,
0001
0100
1001
0100
0001
1000
0010
0100
,
1000
0001
1010
0001
1000
0010
0100
0001
,
0010
0001
1100
0001
1000
0100
0010
0001
,
0100
1000
0110
1000
0001
1000
0101
1000
,
0010
0100
1010
0100
0001
0100
1001
0100
,
1000
0001
1100
0001
0100
0001
0110
0001
,
1000
0010
1001
0010
0100
0010
0101
0010
,
0001
1000
0110
1000
0010
0100
1001
0100
,
1000
0001
0110
0001
0100
0010
1001
0100
,
0010
1000
0100
1000
0010
0100
0001
0010
,
0001
0100
0001
0000
1000
0001
1000
0000
0010
1000
0010
1000
0010
1000
0010
1000
,
0001
1000
0001
1000
,
0010
0100
0010
0100
,
0001
1000
0001
1000
,
0010
0100
0010
0100
,
0001
0100
0101
0010
1000
0001
1001
0100
,
1000
0010
1010
0100
0010
0100
0110
0001
,
1000
0010
0100
0001
0100
0000
0000
1001
,
0000
0000
0000
0000
;

//---------------dance-double - ----------------
#NOTEDATA:;
#CHARTNAME:;
#STEPSTYPE:dance-double;
#DESCRIPTION:;
#CHARTSTYLE:;
#DIFFICULTY:Easy;
#METER:4;
#RADARVALUES:0.235119,0.348763,0.281250,0.000000,0.000000,158.000000,131.000000,27.000000,0.000000,0.000000,0.000000,0.000000,0.000000,0.000000,0.235119,0.348763,0.281250,0.000000,0.000000,158.000000,131.000000,27.000000,0.000000,0.000000,0.000000,0.000000,0.000000,0.000000;
#CREDIT:;
#DISPLAYBPM:155.000000;
#NOTES:
00000000
00000000
00000000
00000000
,
00000000
00000000
00000000
00000000
,
00000000
00000000
00000000
00000000
,
00000000
00000000
00000000
00000000
,
00000000
00000000
00000000
00000000
,
00100000
00000000
00000000
00000000
,
10000000
00000000
00000000
00000000
,
01000000
00000000
00000000
00000000
,
00011000
00000000
00000000
00000000
,
00000110
00000000
00000000
00000000
,
00001001
00000000
00000000
00000000
,
00000110
00000000
00000000
00000000
,
00011000
00000000
00000000
00000000
,
01000000
00000000
01000000
00000000
,
10000000
00000000
10000000
00000000
,
00100000
00000000
00100000
00000000
,
00010000
00000000
00010000
00000000
,
00001000
00000000
00010000
00000000
,
00000010
00000000
00000100
00000000
,
00000001
00000000
00001000
00000000
,
00000100
00000000
00010000
00000000
,
00011000
00000000
00000000
00000000
,
00100000
00000000
01100000
00000000
,
10000000
00000000
10010000
00000000
,
01000000
00000000
01100000
00000000
,
00010000
00000000
00011000
00000000
,
00001000
00000000
00000110
00000000
,
00000100
00000000
00001001
00000000
,
00000001
00000000
00000110
00000000
,
00000010
00000000
00011000
00000000
,
00100000
00100000
00100000
00000000
,
00010000
00010000
00010000
00000000
,
10000000
10000000
10000000
00000000
,
01000000
01000000
01000000
00000000
,
00001000
00010000
00001000
00000000
,
00000010
00000100
00000010
00000000
,
00001000
00000001
00001000
00000000
,
00000100
00000010
00000100
00000000
,
00010000
00001000
00011000
00000000
,
00100000
01000000
01100000
00000000
,
00010000
10000000
10010000
00000000
,
01000000
00100000
01100000
00000000
,
00010000
00001000
00011000
00000000
,
00000010
00000001
00000110
00000000
,
00001000
00000001
00000110
00000000
,
00000010
00000100
00001001
00000000
,
00001000
00000100
00001000
00000100
,
00010000
00001000
00010000
00001000
,
00100000
00010000
00100000
00010000
,
10000000
00010000
10000000
00010000
,
01000000
00100000
01000000
01100000
,
00000000
00001000
00010000
00011000
,
00000010
00000100
00000010
00000110
,
00000000
00010000
00001000
00011000
,
00000000
00000000
00000000
00000000
,
01000000
00000000
00000000
00000000
,
00010000
00000000
00000000
00000000
,
00001000
00000000
00000000
00000000
,
00000001
00001000
00000100
00000000
,
00010000
00001000
00010000
00000000
,
00001000
00000000
00010000
00000000
00000000
00000000
00000000
00011000
,
00000000
00000000
00000000
00000000
;

//---------------dance-double - ----------------
#NOTEDATA:;
#CHARTNAME:;
#STEPSTYPE:dance-double;
#DESCRIPTION:;
#CHARTSTYLE:;
#DIFFICULTY:Medium;
#METER:10;
#RADARVALUES:0.415179,0.507292,0.145833,0.000000,0.000000,279.000000,265.000000,14.000000,0.000000,0.000000,0.000000,0.000000,0.000000,0.000000,0.415179,0.507292,0.145833,0.000000,0.000000,279.000000,265.000000,14.000000,0.000000,0.000000,0.000000,0.000000,0.000000,0.000000;
#CREDIT:;
#DISPLAYBPM:155.000000;
#NOTES:
00000000
00000000
00000000
00000000
,
00000000
00000000
00000000
00000000
,
00000000
00000000
00000000
00000000
,
00000000
00000000
00000000
00000000
,
00000000
00000000
00000000
00000000
,
00100000
10000000
00100000
10000000
,
00010000
01000000
00010000
01000000
,
00100000
00001000
00010000
00001000
,
00010000
00000010
00001000
00000010
,
00000100
00000001
00000100
00001000
,
00000010
00000001
00000100
00001000
,
00010000
01000000
10000000
00010000
,
01000000
01000000
01000000
01000000
,
00100000
00010000
01000000
10010000
,
00100000
10000000
01000000
10010000
,
10000000
01000000
00010000
00011000
,
00000010
00001000
00000100
00001001
,
00000100
00000010
00000100
00001001
,
00000001
00000100
00001000
00011000
,
00100000
00010000
01000000
10010000
,
01000000
00100000
01000000
10010000
,
01000000
01000000
01000000
01000000
,
00100000
00000000
00010000
00000000
00000000
00001000
00010000
00000000
,
00000010
00000000
00000100
00000000
00000000
00000001
00001000
00000000
,
00000010
00000000
00001000
00000000
00000000
00010000
00001000
00000000
,
01000000
00000000
00100000
00000000
00000000
10000000
00010000
00000000
,
01000000
00000000
11000000
00000000
00000000
10000000
01000000
00000000
,
00010000
00000000
00011000
00000000
00000000
00000010
00001000
00000000
,
00000001
00000000
00000101
00000000
00000000
00000001
00000100
00000000
,
00000001
00001000
00010000
10000000
,
00100000
10000000
01000000
00010000
,
00100000
10000000
01000000
00010000
,
00001000
00000010
00000001
00000100
,
00001000
00010000
00001000
00000010
,
00000001
00000100
00001000
00010000
,
00100000
01100000
10000000
00010000
,
10000000
11000000
00010000
00001000
,
00000010
00000010
00000010
00000010
,
00000001
00000000
00001000
00000000
00000010
00001000
00000010
00000000
,
00010000
00000000
00001000
00000000
00010000
00001000
00010000
00000000
,
00100000
00000000
00010000
00000000
10000000
00100000
10000000
00000000
,
00010000
00000000
01000000
00000000
00001000
00010000
00001000
00000000
,
00000010
00001000
00000010
00000000
00000001
00000100
00000001
00000000
,
00001000
00000100
00001000
00000000
00010000
00001000
00010000
00000000
,
01000000
00100000
01000000
00000000
10000000
00010000
10000000
00000000
,
00100000
00100000
00100000
00100000
,
10000000
01000000
10000000
01000000
00100000
00010000
00100000
00000000
,
00001000
00010000
00001000
00010000
00000010
00001000
00000010
00000000
,
00000100
00000001
00000100
00000001
00001000
00000010
00001000
00000000
,
00000100
00010000
00000100
00010000
00001000
00010000
00001000
00000000
,
00100000
00010000
10000000
00010000
00100000
00010000
10000000
00000000
,
10000000
01000000
00100000
00010000
00100000
00001000
00010000
00000000
,
00000010
00001000
00000010
00001000
00000001
00000100
00000001
00000010
,
00000001
00000100
00000010
00001000
00000010
00010000
00001000
00000000
,
00100000
00010000
00100000
00010000
,
10000000
01000000
10000000
01000000
,
00100000
00001000
00100000
00001000
,
00010000
00000100
00010000
00000100
,
00001000
00000100
00001000
00000000
00000001
00000100
00000001
00000000
,
00000010
00001000
00000010
00000000
00010000
00000100
00010000
00000000
,
00001000
00010000
00001000
00010000
00001000
00000000
00000000
00011000
,
00000000
00000000
00000000
00000000
;

//---------------dance-double - ----------------
#NOTEDATA:;
#CHARTNAME:;
#STEPSTYPE:dance-double;
#DESCRIPTION:;
#CHARTSTYLE:;
#DIFFICULTY:Hard;
#METER:12;
#RADARVALUES:0.535714,0.602409,0.281250,0.000000,0.000000,360.000000,333.000000,27.000000,0.000000,0.000000,0.000000,0.000000,0.000000,0.000000,0.535714,0.602409,0.281250,0.000000,0.000000,360.000000,333.000000,27.000000,0.000000,0.000000,0.000000,0.000000,0.000000,0.000000;
#CREDIT:;
#DISPLAYBPM:155.000000;
#NOTES:
00000000
00000000
00000000
00000000
,
00000000
00000000
00000000
00000000
,
00000000
00000000
00000000
00000000
,
00000000
00000000
00000000
00000000
,
00000000
00000000
00000000
00000000
,
00100000
10000000
01000000
00010000
,
10000000
01000000
00010000
00001000
,
00000010
00000001
00000100
00001000
,
00000001
00000100
00001000
00010000
,
01000000
00000000
10000000
00000000
10000000
01000000
00010000
00000000
,
01000000
00000000
00010000
00000000
00001000
00000010
00000001
00000000
,
00000100
00000000
00000001
00000000
00000001
00000100
00001000
00000000
,
00000100
00000000
00001000
00000000
00010000
00100000
10000000
00000000
,
01000000
10000000
00100000
00000000
10000000
00000000
11000000
00000000
,
00100000
00010000
01000000
00000000
00010000
00000000
00110000
00000000
,
01000000
00010000
00001000
00000000
00010000
00000000
00011000
00000000
,
00010000
00001000
00000100
00000000
00000001
00000000
00000101
00000000
,
00000100
00000001
00000010
00000000
00000001
00000000
00000101
00000000
,
00000010
00001000
00000100
00000000
00001000
00000000
00001010
00000000
,
00000100
00001000
00010000
00000000
00001000
00000000
00011000
00000000
,
00001000
00010000
01000000
00000000
10000000
00000000
11000000
00000000
,
10000000
00010000
00001000
00000001
,
00000010
00000001
00000010
00000000
00000100
00001000
00000100
00000000
,
00010000
00001000
00010000
00000000
00100000
10000000
00100000
00000000
,
10000000
01000000
00100000
00000000
00100000
01000000
00010000
00000000
,
00010000
00001000
00000010
00000000
00000010
00000001
00001000
00000000
,
00000001
00001000
00001001
00000000
00000100
00000010
00000110
00000000
,
00001000
00010000
00011000
00000000
00100000
01000000
01100000
00000000
,
10000000
10000000
11000000
00000000
00010000
00010000
00110000
00000000
,
00001000
00001000
00001010
00000000
00000001
00000001
00000101
00000000
,
00001000
00000000
00000001
00000000
00000010
00000100
00000100
00000000
,
00001000
00000000
00010000
00000000
01000000
00100000
00100000
00000000
,
00010000
00000000
10000000
00000000
00100000
01000000
01000000
00000000
,
00010000
00000000
00001000
00000000
00000100
00000010
00000010
00000000
,
00001000
00000010
00000100
00000010
00000001
00000010
00001000
00000000
,
00000001
00000100
00000010
00000100
00001000
00010000
00100000
00000000
,
00010000
00100000
01000000
00100000
10000000
00100000
00010000
00000000
,
10000000
01000000
00100000
01000000
00010000
00001000
00000010
00000000
,
00000001
00000100
00000001
00000100
00001000
00000100
00001000
00000100
,
00000010
00000100
00001000
00010000
00100000
00010000
00100000
01000000
,
10000000
01000000
10000000
01000000
00010000
01000000
00010000
01000000
,
00100000
01000000
00010000
00001000
00000100
00001000
00010000
00100000
,
10000000
01000000
00100000
01000000
00010000
10000000
01000000
00010000
,
10000000
01000000
00010000
00001000
00000010
00000001
00001000
00000010
,
00000001
00001000
00001010
00000000
00000100
00000001
00000100
00001000
,
00010000
00100000
00110000
00000000
00010000
10000000
01000000
10000000
,
01000000
00100000
01100000
00000000
01000000
00010000
00001000
00000100
,
00000010
00000100
00000110
00000000
00000100
00001000
00010000
00100000
,
01000000
00100000
01100000
00000000
00010000
01000000
10000000
01000000
,
00010000
00001000
00011000
00000000
00000010
00000100
00000010
00001000
,
00000100
00000001
00000101
00000000
00000010
00001000
00001010
00000100
,
00001000
00010000
00011000
00000000
00010000
00100000
00110000
00000000
,
10000000
01000000
10000000
01000000
00100000
00010000
00100000
00010000
,
00100000
01000000
00010000
00001000
00010000
00001000
00000100
00000010
,
00000001
00000100
00001000
00000100
,
00000001
00000100
00001000
00010000
,
00100000
10000000
00100000
00010000
,
00100000
10000000
01000000
00010000
,
00001000
00000100
00001000
00000100
00000001
00000010
00000001
00000010
,
00000100
00001000
00000100
00001000
00000010
00000001
00000010
00000001
,
00000010
00000100
00001000
00010000
00001000
00000000
00000000
00011000
,
00000000
00000000
00000000
00000000
;

//---------------dance-single - ----------------
#NOTEDATA:;
#CHARTNAME:;
#STEPSTYPE:dance-single;
#DESCRIPTION:;
#CHARTSTYLE:;
#DIFFICULTY:Challenge;
#METER:13;
#RADARVALUES:0.647321,0.760938,0.458333,0.000000,0.484375,435.000000,391.000000,44.000000,0.000000,0.000000,0.000000,0.000000,0.000000,0.000000,0.647321,0.760938,0.458333,0.000000,0.484375,435.000000,391.000000,44.000000,0.000000,0.000000,0.000000,0.000000,0.000000,0.000000;
#CREDIT:;
#DISPLAYBPM:155.000000;
#NOTES:
// measure 0
0000
0000
0000
0000
,  // measure 1
0000
0000
0000
0000
,  // measure 2
0000
0000
0000
0000
,  // measure 3
0000
0000
0000
0000
,  // measure 4
0000
0000
0000
0000
,  // measure 5
0010
0000
0000
0000
1001
0000
0000
1000
0100
0000
0010
0000
0001
0000
0000
0000
,  // measure 6
0100
0000
0000
0000
0110
0000
0000
0010
1000
0000
0001
0000
0100
0000
0101
0000
,  // measure 7
0000
0000
0000
0000
0110
0000
0000
0001
0100
0000
0010
0000
1000
0000
0000
0000
,  // measure 8
0100
0000
0000
0000
1010
0000
0000
0010
1000
0000
0001
0000
0100
0000
1010
0000
,  // measure 9
0000
0000
0000
0000
1100
0000
0000
1000
0100
0000
1000
0000
0001
0000
0000
0000
,  // measure 10
0010
0000
0000
0000
0101
0000
0000
0001
1000
0000
0100
0000
1000
0000
1001
0000
,  // measure 11
0000
0000
0000
0000
0011
0000
0000
0010
0001
0000
1000
0000
0100
0000
0000
0000
,  // measure 12
1000
0100
0001
0100
1000
0001
0100
1001
,  // measure 13
0000
0000
0000
0000
1000
0100
0000
1000
0100
0000
0010
0000
0001
0000
0000
0000
,  // measure 14
0100
0000
0000
0000
0001
0010
0000
0001
0010
0000
0100
0000
1000
0000
0110
0000
,  // measure 15
0000
0000
0000
0000
0010
1000
0000
0010
1000
0000
0001
0000
0100
0000
0000
0000
,  // measure 16
0001
0000
0000
0000
0100
0010
0000
0100
0010
0000
1000
0000
0001
0000
0011
0000
,  // measure 17
0000
0000
0000
0000
0001
0100
0000
0010
0100
0000
0001
0000
1000
0000
0000
0000
,  // measure 18
0100
0000
0000
0000
1000
0001
0000
0010
0001
0000
0100
0000
0010
0000
1100
0000
,  // measure 19
0000
0000
0000
0000
0001
0100
0000
0100
0010
0000
1000
0000
0001
0000
0000
0000
,  // measure 20
0010
0000
0000
0000
0001
1000
0000
1000
0010
0000
0100
0000
0001
0000
1001
0000
,  // measure 21
0000
1000
0000
1000
0100
0000
1000
0001
0000
0001
0100
0000
0010
0000
1000
0001
,  // measure 22
1000
0000
0000
0000
0001
0100
0000
0010
1000
0000
0001
0000
0100
0000
0000
0000
,  // measure 23
0010
0000
0000
0000
1000
0100
0000
0010
0001
0000
0100
0000
1000
0000
0000
0000
,  // measure 24
0001
0000
0000
0000
0010
0001
0000
1000
0100
0000
1000
0000
0010
0000
0000
0000
,  // measure 25
0100
0000
0000
0000
0001
1000
0000
0001
0010
0000
0100
0000
1000
0000
0000
0000
,  // measure 26
1010
0000
0000
0000
1000
0010
0000
1000
0100
0000
0010
0000
0001
0000
0000
0000
,  // measure 27
0101
0000
0000
0000
0001
1000
0000
0100
0010
0000
0100
0000
1000
0000
0000
0000
,  // measure 28
1100
0000
0000
0000
1000
0001
0000
0010
0001
0000
0100
0000
0010
0000
0000
0000
,  // measure 29
1001
0000
0000
0000
0001
0100
0000
0100
0010
0000
1000
0000
0001
0000
0110
0000
,  // measure 30
0000
0000
0000
0000
1000
0000
0000
1000
0000
0000
0001
0000
0100
0000
0000
0000
,  // measure 31
0000
0000
0000
0000
0100
0000
0000
0100
0000
0000
0010
0000
1000
0000
1100
0000
,  // measure 32
0000
0000
0000
0000
0001
0000
0000
0001
0000
0000
0010
0000
0100
0000
0000
0000
,  // measure 33
0000
0000
0000
0000
1000
0000
0000
1000
0000
0000
0001
0000
0010
0000
0011
0000
,  // measure 34
0000
0000
0000
0000
0100
0000
0000
1000
0000
0000
0001
0000
0100
0000
0000
0000
,  // measure 35
0010
0000
0000
0000
1000
0000
0000
0100
0000
0000
0010
0000
0001
0000
0101
0000
,  // measure 36
0000
0000
0000
0000
0001
0000
0000
0010
0000
0000
0001
0000
0100
0000
0000
0000
,  // measure 37
0001
0010
0100
1000
0010
0100
0001
1001
,  // measure 38
0000
0000
0000
0000
0001
1000
0000
0100
1000
0000
0001
0000
0101
0000
0000
0000
,  // measure 39
0001
0000
1000
0000
0100
0010
0000
0010
0001
0000
0100
0000
1000
0000
1001
0000
,  // measure 40
0000
0000
0000
0000
0100
0010
0000
0010
0001
0000
1000
0000
1100
0000
0000
0000
,  // measure 41
0001
0000
1000
0000
0100
1000
0000
0001
0100
0000
0010
0000
1000
0000
0101
0000
,  // measure 42
0000
0000
0001
0000
0100
0010
0000
1000
0100
0000
1000
0000
1100
0000
0000
0000
,  // measure 43
0010
0000
0010
0000
1000
0001
0000
0001
0100
0000
0010
0000
0100
0000
0110
0000
,  // measure 44
0000
0000
0001
0000
1000
0100
0000
0100
0010
0000
0001
0000
0101
0000
0000
0000
,  // measure 45
0001
0010
1000
0010
0001
0100
0010
1010
,  // measure 46
0000
0000
1000
0000
1000
0001
0000
0100
0010
0000
1000
0000
1100
0000
0000
0000
,  // measure 47
0001
0000
0001
0000
0001
0100
0000
1000
0010
0000
0100
0000
1001
0000
0000
0000
,  // measure 48
1000
0000
1000
0000
0100
0010
0000
0100
0001
0000
0010
0000
0011
0000
0000
0000
,  // measure 49
0001
0000
0001
0000
0010
1000
0000
0100
0010
0000
0001
0000
0110
0000
0000
0000
,  // measure 50
0001
0000
0010
0000
0001
0100
0000
0010
1000
0000
0001
0000
1010
0000
0000
0000
,  // measure 51
1000
0000
0010
0000
1000
0100
0000
0010
0001
0000
1000
0000
0101
0000
0000
0000
,  // measure 52
1000
0000
0010
0000
1000
0010
0000
0100
0001
0000
0100
0000
1001
0000
0000
0000
,  // measure 53
1000
0100
1000
0000
0001
0100
0001
0000
1000
0100
0010
0001
0100
0010
1000
0001
,  // measure 54
0010
0000
0000
0000
0001
0000
0000
0100
0010
0000
1000
0000
0001
0000
0000
0000
,  // measure 55
1000
0000
0000
0000
0010
0000
0000
1000
0100
0000
0010
0000
0001
0000
0000
0000
,  // measure 56
0100
0000
0000
0000
0001
0000
0000
1000
0001
0000
0010
0000
0100
0000
0000
0000
,  // measure 57
0010
0000
0000
0000
0100
0000
0000
0100
1000
0000
0001
0000
0010
0000
0000
0000
,  // measure 58
1001
0000
0100
0000
0010
1000
0000
0100
0010
0000
0001
0000
0011
0000
0000
0000
,  // measure 59
0101
0000
0100
0000
0001
1000
0000
0100
1000
0000
0010
0000
0110
0000
0000
0000
,  // measure 60
1000
0100
0010
0100
0010
0001
1000
1001
;
