#VERSION:0.83;
#TITLE:roppongi EVOLVED ver. D;
#SUBTITLE:;
#ARTIST:TAG underground;
#TITLETRANSLIT:;
#SUBTITLETRANSLIT:;
#ARTISTTRANSLIT:;
#GENRE:;
#ORIGIN:;
#CREDIT:;
#BANNER:roppongi EVOLVED ver. D.png;
#BACKGROUND:roppongi EVOLVED ver. D-bg.png;
#PREVIEWVID:;
#JACKET:roppongi EVOLVED ver. D-jacket.png;
#CDIMAGE:;
#DISCIMAGE:;
#LYRICSPATH:;
#CDTITLE:;
#MUSIC:roppongi EVOLVED ver. D.ogg;
#OFFSET:0.000000;
#SAMPLESTART:24.000000;
#SAMPLELENGTH:20.000000;
#SELECTABLE:YES;
#DISPLAYBPM:85.000000:681.000000;
#BPMS:0.000=170.616,
4.000=169.984,
134.000=169.811,
139.000=166.667,
139.500=169.811,
140.500=170.455,
145.500=169.811,
150.500=166.667,
151.000=169.811,
155.000=340.081,
211.000=680.851,
243.000=339.623,
247.000=169.811,
249.000=84.906,
251.000=169.968,
292.000=173.077,
293.000=166.667,
294.500=170.039,
358.000=170.270;
#STOPS:134.000=0.180,
135.000=0.173,
139.000=0.173,
139.500=0.173,
140.500=0.180,
145.500=0.180,
146.500=0.173,
150.500=0.173,
151.000=0.173,
152.000=0.180,
292.000=0.353,
292.500=0.353,
293.000=0.353,
293.500=0.173,
294.000=0.173,
294.500=0.353,
358.000=0.180;
#DELAYS:;
#WARPS:;
#TIMESIGNATURES:0.000=4=4;
#TICKCOUNTS:0.000=4;
#COMBOS:0.000=1;
#SPEEDS:0.000=1.000=0.000=0;
#SCROLLS:0.000=1.000;
#FAKES:;
#LABELS:0.000=Song Start;
#BGCHANGES:0.000=roppongi EVOLVED ver. D.avi=1.000=0=0=0=StretchNoLoop====,
99999=-nosongbg-=1.000=0=0=0 // don't automatically add -songbackground-
;
#KEYSOUNDS:;
#ATTACKS:
;

//---------------dance-single - ----------------
#NOTEDATA:;
#CHARTNAME:;
#STEPSTYPE:dance-single;
#DESCRIPTION:;
#CHARTSTYLE:;
#DIFFICULTY:Beginner;
#METER:6;
#RADARVALUES:0.193838,0.344176,0.025601,0.093871,0.000000,159.000000,156.000000,3.000000,11.000000,0.000000,0.000000,0.000000,0.000000,0.000000,0.193838,0.344176,0.025601,0.093871,0.000000,159.000000,156.000000,3.000000,11.000000,0.000000,0.000000,0.000000,0.000000,0.000000;
#CREDIT:;
#DISPLAYBPM:170.000000;
#NOTES:
0000
0000
0000
0000
,
0000
0000
0000
0000
,
0000
0000
0000
0000
,
0000
0000
0000
0000
,
0000
0000
0000
0000
,
0000
0000
0000
0000
,
0000
0000
0000
0000
,
0000
0000
0000
0000
,
0000
0000
0000
0000
,
0000
0001
0000
0001
,
0000
1000
0000
1000
,
0000
0001
0000
1000
,
0000
0001
0000
1000
,
1000
0000
0000
0000
,
0000
0000
0000
0000
,
0001
0000
1000
0000
,
0001
0001
1000
1000
,
0010
0010
0100
0100
,
0100
0000
0000
0000
,
0010
0010
0100
0100
,
0010
0000
0010
0000
,
1000
1000
0001
0001
,
0001
0000
0000
0000
,
0001
0001
1000
1000
,
0002
0000
0000
0003
,
1000
1000
0100
1000
,
0200
0000
0000
0300
,
0001
0001
0100
0001
,
0200
0000
0000
0300
,
1000
0000
1000
0000
,
0010
0000
0010
0000
,
0001
0000
0001
0000
,
0020
0000
0000
0030
,
0100
0000
0100
0000
,
0000
0000
0000
0000
0010
0000
0000
0010
,
0000
0000
0000
0000
0000
0000
0000
1000
,
0000
0000
0000
1000
0000
0000
0000
0000
,
0000
0000
0000
0001
0000
0000
0001
0000
,
0000
0000
0000
0100
,
0000
0000
0000
0100
,
0000
0000
0000
0100
,
0000
0000
0000
0000
,
0000
0010
0000
0000
,
0000
0010
0000
0000
,
0000
0010
0000
0000
,
0000
0000
0000
0100
,
0000
0000
0000
0100
,
0000
0000
0000
0100
,
0000
0000
0000
0010
,
0000
0100
0000
0000
,
0000
0100
0000
0000
,
0000
1000
0000
0000
,
0000
0010
0000
0200
,
0000
0000
0000
0000
,
0000
0000
0000
0000
,
0000
0000
0000
0000
,
0000
0000
0000
0000
,
0000
0000
0000
0000
,
0000
0000
0000
0000
,
0000
0000
0000
0000
,
0000
0000
0000
0300
,
0000
0000
0000
0000
,
0000
0000
0000
0001
,
0000
0001
0000
1000
,
0000
1000
0000
0010
,
0000
0010
0000
0200
,
0000
0000
0300
0001
,
0000
0001
0000
1000
,
0000
1000
0000
0100
,
0000
0100
0000
0020
,
0000
0000
0030
0001
,
0000
1000
0000
2002
,
0000
0000
0000
3003
,
1001
0000
0000
0001
,
0100
0001
0100
0100
,
0001
0100
0001
0100
,
1000
0100
0001
0100
,
1000
0100
1000
1000
,
0100
1000
0100
0100
,
1000
0100
1000
0100
,
0001
0100
1000
0100
,
0001
0100
0001
0010
,
1000
0100
0010
0001
,
0100
1000
0010
0010
,
0100
0100
0002
0003
,
2000
3000
0001
0100
,
0001
0100
1000
0100
,
1000
0100
0010
0010
,
0010
0010
1000
0001
,
1000
0000
0001
0000
0000
1001
0000
0000
,
;

//---------------dance-single - ----------------
#NOTEDATA:;
#CHARTNAME:;
#STEPSTYPE:dance-single;
#DESCRIPTION:;
#CHARTSTYLE:;
#DIFFICULTY:Easy;
#METER:8;
#RADARVALUES:0.336473,0.497143,0.110939,0.238945,0.000000,276.000000,263.000000,13.000000,28.000000,0.000000,0.000000,0.000000,0.000000,0.000000,0.336473,0.497143,0.110939,0.238945,0.000000,276.000000,263.000000,13.000000,28.000000,0.000000,0.000000,0.000000,0.000000,0.000000;
#CREDIT:;
#DISPLAYBPM:170.000000;
#NOTES:
0000
0000
0000
0000
,
0000
0000
0000
0000
,
0000
0000
0000
0000
,
0000
0000
0000
0000
,
0000
0000
0000
0000
,
0000
0000
0000
0000
,
0000
0000
0000
0000
,
1000
0010
0001
0100
,
1000
0000
0000
0001
0000
0000
1001
0000
,
0010
0010
1000
0001
,
0010
0010
0001
1000
,
0010
0010
1000
0001
,
0010
0010
0001
1000
,
0200
0010
0000
0010
,
0000
0010
0000
0310
,
0001
0000
1000
0000
,
0001
0010
1000
1001
,
0001
0010
1000
0100
,
0102
0000
0100
0103
,
1000
0010
0001
0100
,
2100
0000
0100
3100
,
0010
1000
0100
0001
,
1002
0000
1000
1003
,
0001
0010
1000
0100
,
0010
0000
0000
0100
0000
0000
0010
0000
,
0001
0010
0001
0000
1000
0000
0100
0000
,
2000
0000
0001
3001
,
0010
0100
0010
0000
1000
0000
0010
0000
,
0002
0000
0100
0103
,
1000
0010
1000
0000
0001
0000
0100
0000
,
0002
0000
1000
1003
,
0100
0010
0100
0000
1000
0000
0001
0000
,
2000
0000
0000
0002
3003
0000
0110
0000
,
0100
0100
0100
0001
,
1000
0000
0010
0000
0100
0000
0100
0100
,
0000
0001
0000
1000
0000
0010
0000
0100
,
0000
0100
0000
0100
0000
0001
0000
1000
,
0000
0010
0000
0100
0000
0100
0100
0000
,
0001
1000
1001
0100
,
0000
0100
0000
0100
,
0000
0001
0000
0001
,
0000
1000
0000
0010
,
0100
0010
0000
0010
,
0000
0010
0000
1000
,
0000
0001
0000
1000
,
0000
0001
0100
0001
,
0000
0001
0000
0001
,
0000
1000
0000
0001
,
0000
0100
0000
0010
,
0000
0200
0000
0302
,
0000
2003
0000
3020
,
0000
0230
0000
0302
,
0000
0000
0000
0000
0000
0000
0000
0000
0000
0000
0000
0000
0000
0000
0000
0000
0000
0000
0000
0000
0000
0000
0000
0000
0000
0000
0000
0000
0000
0000
0000
0000
0000
0000
0000
0000
0000
0000
0000
0000
0000
0000
0000
0000
0000
0000
0000
0000
2003
0000
0000
0000
0000
0000
0000
0000
0000
0000
0000
0000
0000
0000
0000
0000
0000
0000
0000
0000
0000
0000
0000
0000
0000
0000
0000
0000
0000
0000
0000
0000
0000
0000
0000
0000
0000
0000
0000
0000
0000
0000
0000
0000
0000
0000
0000
0000
0000
0000
0000
0000
0000
0000
0000
0000
0000
0000
0000
0000
0000
0000
0000
0000
0000
0000
0000
0000
0000
0000
0000
0000
0000
0000
0000
0000
0000
0000
0000
0000
0000
0000
0000
0000
0000
0000
0000
0000
0000
0000
0000
0000
0000
0000
0000
3000
0200
0000
0000
0000
0000
0000
0000
0000
0000
0000
0000
0000
0000
0000
0000
0000
0000
0000
0000
0000
0000
0000
0000
0000
0000
0000
0000
0000
0000
0000
0000
0000
0000
0000
0000
0000
0000
0000
0000
0000
0000
0000
0000
0000
0000
0000
0000
0000
,
0000
0000
0000
0000
,
0000
0000
0000
0000
,
0000
0000
0000
0000
,
0000
0000
0000
0000
,
0000
0000
0000
0000
,
0000
0000
0000
0000
,
0000
0000
0000
0000
,
0000
0000
0000
0000
,
0000
0000
0000
0000
,
0000
0000
0000
0301
,
0001
0100
0100
1000
,
1000
0100
0100
0010
,
0010
0100
0100
1000
,
0010
1000
0001
0002
,
1003
0020
1030
0200
,
1300
2000
3001
0200
,
0301
0020
0031
0010
,
0000
0100
0000
0000
0110
0000
0001
0000
,
0000
1000
0000
0220
,
0000
0000
0000
0330
,
0100
0100
0100
0100
0100
0100
0001
0000
,
0001
0100
1000
0000
0001
0000
1000
0000
,
1000
0100
0001
0000
0100
0000
1000
0000
,
0010
0001
0200
1000
,
0001
1300
0001
1000
,
1000
0100
0001
0000
1000
0000
0001
0000
,
0001
0100
1000
0000
0100
0000
0001
0000
,
0010
0000
1000
0000
0100
0000
0000
0010
,
0000
0110
2000
3100
,
0010
0001
0010
0001
0020
0000
0000
0000
,
0130
0100
1000
1100
,
0001
0101
0010
0010
,
0100
0000
0100
0000
1000
1000
1000
0000
,
0001
0001
0001
0000
1000
0100
1000
0000
,
0001
0100
0001
0000
1000
0000
0100
0000
,
0001
0000
0010
0000
1000
0100
0001
0000
,
0001
0100
1000
0000
0000
1001
0000
0000
,
;

//---------------dance-single - ----------------
#NOTEDATA:;
#CHARTNAME:;
#STEPSTYPE:dance-single;
#DESCRIPTION:;
#CHARTSTYLE:;
#DIFFICULTY:Medium;
#METER:11;
#RADARVALUES:0.514462,0.841319,0.290147,0.179208,0.025601,422.000000,388.000000,34.000000,21.000000,0.000000,0.000000,0.000000,0.000000,0.000000,0.514462,0.841319,0.290147,0.179208,0.025601,422.000000,388.000000,34.000000,21.000000,0.000000,0.000000,0.000000,0.000000,0.000000;
#CREDIT:;
#DISPLAYBPM:170.000000;
#NOTES:
0000
0000
0000
0000
,
0000
0000
0000
0000
,
0000
0000
0000
0000
,
0000
0000
0000
0000
,
0000
0000
0000
0000
,
0000
0000
0000
0000
,
0000
0000
0000
0000
,
0010
0001
0100
0010
1000
0100
0010
0000
,
1001
0000
0000
0110
0000
0000
1001
0000
,
0010
1000
0100
0000
0100
1000
0010
0000
,
0010
0001
1000
0000
1000
0001
0010
0000
,
0100
0010
1000
0000
1000
0010
0100
0000
,
0001
1000
0100
0000
0100
1000
0001
0000
,
0020
0100
0000
0100
,
0000
0000
0100
0000
0000
0000
0130
0001
,
1000
1100
0001
0101
,
1000
0100
0001
0100
1000
0010
0001
0000
,
1000
0100
1000
0000
0001
0010
0100
0010
,
0002
0000
1000
1003
,
0001
0100
0010
0000
0001
1000
0100
0010
,
2000
0100
0010
3010
,
0001
0100
0001
0000
1000
0010
0100
0010
,
2000
0000
0001
3001
,
1000
0100
0001
0000
0001
0100
1000
0010
,
0100
0000
0001
0010
0000
0001
0100
0000
,
0010
1000
0010
1000
0001
0100
1000
0100
,
0002
1000
0010
0103
,
1000
0100
1000
0100
0010
0100
1000
0010
,
0100
0001
1001
1001
,
0010
0001
0010
0001
1000
0100
0001
0100
,
2000
0001
0010
3100
,
0010
0100
1000
0000
0010
0100
0001
0000
,
2000
0000
0000
0002
3003
0000
0110
0000
,
1000
0001
0010
0000
1100
0000
0011
0000
,
0100
0000
0010
0100
1000
0001
0010
1100
,
0000
0011
0000
0100
0000
0010
0100
0001
,
1000
0010
0000
0101
0000
1010
0000
0100
,
0000
0010
0100
0001
1000
0010
0101
0000
,
1010
0110
1001
0001
,
1000
0010
0100
0010
,
1000
0001
1000
0010
,
0100
0001
1000
0010
,
0100
0001
1000
0010
,
0100
0010
1000
0001
,
0100
0010
0100
0001
,
1000
0001
0010
0100
,
1000
1000
0100
1000
,
1000
0001
0001
0100
,
1000
1000
0100
0010
,
0100
1000
0100
0001
,
0100
1000
0100
0001
,
0100
0010
1000
1000
,
0100
0010
0100
2002
,
0000
0000
0000
0000
,
0000
0000
0000
0000
,
0000
0000
0000
0000
,
0000
0000
0000
0000
,
0000
0000
0000
0000
,
0000
0000
0000
0000
,
0000
0000
0000
0000
,
0000
0000
0000
0000
,
0000
0000
0000
0003
,
0000
0000
0000
3010
,
0010
0100
0100
0001
,
0001
0000
1000
0000
1000
1000
0100
0000
,
0100
0010
0010
0001
,
0001
0000
1000
0001
1001
0000
0010
0002
,
1000
0000
0103
0010
1000
0000
0001
2000
,
0100
0000
3010
0100
0001
0000
0010
0000
,
1000
0000
0001
0100
0010
1000
0110
0000
,
0000
0000
1001
0000
0000
0000
0000
0000
0110
0000
0000
0000
0010
0000
0000
0001
,
0000
0000
1000
0000
0010
0000
0000
1000
0000
0000
0001
0000
0220
0000
0000
0000
,
0000
0000
0000
0330
,
1001
1001
0110
0110
1001
0110
1000
0001
,
1000
0100
0001
0000
1000
0100
0001
1000
,
0001
0100
1000
0000
0001
0010
0100
0010
,
0100
0010
0001
0001
1000
0010
0100
0010
,
0100
0000
1001
0000
0010
0001
0100
0010
,
1000
0100
0010
0000
0010
0100
1000
0010
,
0100
0001
0010
0000
0100
0000
1000
0000
,
0001
0001
0100
0100
0010
0000
0100
0001
,
0000
1000
1000
0100
2000
0000
3001
0010
,
0100
1000
0010
0100
0020
0000
1000
0000
,
0130
0100
0001
0010
0100
1000
0100
0001
,
0100
0000
1000
0000
0100
0000
0001
0000
0100
0000
0000
1000
0000
0000
0001
0000
,
0000
0010
0000
0000
0001
0000
0001
0000
0020
0000
0100
0000
0100
0000
0130
0000
,
1000
1000
0001
0001
0010
0100
0010
0001
,
1000
0010
0100
0010
1000
0100
2200
3300
,
0001
0000
0100
0000
0202
0000
0303
0000
0010
0000
0000
0010
0000
0000
0100
0000
,
0000
0100
0000
0000
0001
0000
1000
0000
0100
0000
1001
0000
0000
0000
0000
0000
,
;

//---------------dance-single - ----------------
#NOTEDATA:;
#CHARTNAME:;
#STEPSTYPE:dance-single;
#DESCRIPTION:;
#CHARTSTYLE:;
#DIFFICULTY:Hard;
#METER:15;
#RADARVALUES:0.702204,1.109012,0.307214,0.187742,0.422420,576.000000,540.000000,36.000000,22.000000,0.000000,0.000000,0.000000,0.000000,0.000000,0.702204,1.109012,0.307214,0.187742,0.422420,576.000000,540.000000,36.000000,22.000000,0.000000,0.000000,0.000000,0.000000,0.000000;
#CREDIT:;
#DISPLAYBPM:170.000000;
#NOTES:
0000
0000
0000
0000
,
0000
0000
0000
0000
,
0000
0000
0000
0000
,
0000
0000
0000
0000
,
0000
0000
0000
0000
,
0000
0000
0000
0000
,
0000
0000
0000
0000
,
0001
0000
0010
0000
1000
0000
0001
0000
0100
1000
0100
1000
0001
0000
0000
0000
,
1001
0000
0000
0000
0010
0000
0100
0000
0000
0000
0010
0000
1000
0000
0010
0100
,
0010
1000
0100
0001
,
0020
1000
0001
1030
,
0010
0001
0100
1000
,
0020
0000
0001
0000
1000
0000
0031
1000
,
0020
0100
0000
0100
,
0000
0000
0100
0000
0000
0000
0130
1000
,
0001
0101
1000
1100
,
0001
0000
0100
0000
1000
0000
0100
0000
0001
0010
0000
0010
0001
0000
1000
0001
,
0010
0001
0010
0001
1000
0100
0001
0100
,
2000
0000
0010
3100
,
0001
0100
0001
0100
0010
0100
0001
0010
,
0100
1000
1001
1001
,
0010
1000
0010
1000
0001
0100
1000
0100
,
0002
0000
0010
0103
,
0001
0100
1000
0001
1000
0100
0001
0010
,
0100
0000
1000
0010
0000
1000
0100
0000
,
0010
0000
0001
0000
0010
0001
0010
0001
0010
0000
0100
0000
0010
0001
0010
0001
,
1000
0000
0010
0000
0100
0010
0100
0010
0100
0000
0001
0000
1000
0000
0100
0000
,
0010
0000
0100
0000
1000
0010
1000
0010
1000
0000
0001
0000
0010
0100
0010
0100
,
0010
0000
0001
0000
1000
0010
1000
0010
0100
0001
0100
0001
1000
0100
1000
0100
,
0010
0000
0100
0000
1000
0001
1000
0001
0100
0000
0010
0000
0100
0001
0100
0001
,
0010
0000
0100
0000
1000
0100
1000
0100
0010
0000
0001
0000
1000
0000
0010
0000
,
0100
0000
0001
0000
1000
0010
1000
0010
0100
0000
0001
0000
1000
0100
1000
0100
,
2000
0000
0000
0002
3003
0000
0110
0000
,
1000
0000
0010
0000
0010
0000
0100
0001
0100
0000
0010
0000
1010
0000
0001
0000
,
1001
0000
0100
0010
0100
0000
0010
0000
1000
0000
0010
0000
0010
0000
0101
0000
,
1000
0000
1010
0000
0001
0000
1001
0000
0100
0010
0100
0000
0100
0000
0001
0000
,
0010
0000
0010
0000
0100
1000
0100
0000
0010
0000
0011
0000
1000
0000
1001
0000
,
0100
0010
0100
0000
0010
0000
0001
0000
0010
0000
0010
0000
1100
0000
0001
0000
,
0011
0000
1000
0000
0001
0000
1000
0100
1000
0000
0001
0000
1000
0000
0000
0000
,
0010
0000
0010
0000
0100
0001
0100
0000
,
0010
0000
1000
0000
0001
0100
0001
0000
,
1000
0000
0001
0000
0100
0010
0100
0000
,
0010
1000
0010
0000
0100
0000
0100
0000
,
0001
0010
0001
0000
1000
0000
0001
0000
,
0010
0001
0010
0000
0100
0000
1000
0000
,
0100
0010
0100
0000
1000
0001
1000
0000
,
0001
0000
0010
0000
0100
1000
0001
0000
,
1000
0000
0001
0000
0100
0010
1000
0000
,
0010
0000
0100
0000
0010
0100
0001
0000
,
0100
0000
0001
1000
0001
1000
0001
1000
,
0001
1000
0010
0100
0010
0100
0010
0100
,
0010
0100
0001
0100
0001
0100
0001
1000
,
0001
1000
0100
1000
0100
0000
2002
0000
,
0000
0000
0000
0000
,
0000
0000
0000
0000
,
0000
0000
0000
0000
,
0000
0000
0000
0000
,
0000
0000
0000
0000
,
0000
0000
0000
0000
,
0000
0000
0000
0000
,
0000
0000
0000
0000
,
0000
0000
0000
0003
,
0000
0000
0000
3001
,
0010
0100
1000
0001
,
0100
0000
1000
0000
0100
0100
0100
0000
,
0001
1000
0010
0100
,
0100
0000
0001
1000
0110
0000
1020
0000
,
0031
0000
0100
0010
1000
0000
0012
0000
,
0103
0000
0010
1000
0100
0000
0201
0000
,
1300
0000
0001
0010
1000
0000
0110
0000
,
0000
0000
1001
0000
0000
0000
0000
0000
0110
0000
0000
0000
1000
0010
0000
1000
,
0010
0000
0100
0000
0001
0010
0000
0001
0010
0000
0100
0000
2002
0000
0000
0000
,
0000
0000
3003
0110
,
1100
0000
0110
0000
0101
0000
0110
0000
1001
0000
0220
0330
0001
0000
1000
0010
,
0000
0100
0001
0010
0100
0000
1000
0000
0001
0000
0100
0001
1000
0001
0100
0010
,
0000
0100
0001
0010
0100
0000
1000
0000
0010
0000
1000
0100
0010
0000
0001
0100
,
0000
0010
1000
0001
0010
0000
0100
0000
1000
0000
0010
0100
0010
1000
0100
0010
,
0100
1000
0000
1000
0010
0000
1000
0000
0001
0000
0100
0001
1000
0000
0001
0010
,
0000
0100
1000
0010
0100
0000
0001
0000
1000
0000
0100
1000
0001
1000
0100
0010
,
0000
0100
1000
0010
0100
0000
0001
0000
0010
0000
0001
0100
0010
0000
1000
0100
,
0000
0010
0001
1000
0010
0000
0100
0000
0010
0000
0000
0000
0100
0000
0001
0000
,
0000
0000
1000
0000
0100
0000
1000
0000
2001
0000
0000
0000
3001
0010
0001
0010
,
0100
1000
0100
1000
0010
1000
0010
1000
0002
0000
0000
0000
0103
0000
0010
1000
,
0010
1000
0001
0100
0001
0000
0001
0000
1000
0100
0010
0100
1000
0100
0010
0100
,
1000
0100
0010
0100
1000
0100
0010
0100
0010
0001
0000
0001
0100
0000
0010
1000
,
0000
1000
0100
0000
0100
0000
0010
0000
1001
0000
0001
0000
1000
0000
1000
0000
,
0010
0010
0100
0100
0001
0001
1000
1000
,
0010
0000
0010
0000
0100
0000
0100
0000
0110
0000
0010
0100
0002
0000
0000
0000
,
0013
0000
0010
0100
2000
0000
0000
0000
3010
0100
0000
0010
0100
0000
0001
1000
,
0000
0000
0100
0000
0010
0000
0000
0000
0001
0000
0000
0000
1000
0000
0000
0000
0220
0330
0000
0000
1001
0000
0000
0000
0000
0000
0000
0000
0000
0000
0000
0000
;

//---------------dance-double - ----------------
#NOTEDATA:;
#CHARTNAME:;
#STEPSTYPE:dance-double;
#DESCRIPTION:;
#CHARTSTYLE:;
#DIFFICULTY:Easy;
#METER:8;
#RADARVALUES:0.320625,0.535385,0.085337,0.153607,0.000000,263.000000,253.000000,10.000000,18.000000,0.000000,0.000000,0.000000,0.000000,0.000000,0.320625,0.535385,0.085337,0.153607,0.000000,263.000000,253.000000,10.000000,18.000000,0.000000,0.000000,0.000000,0.000000,0.000000;
#CREDIT:;
#DISPLAYBPM:170.000000;
#NOTES:
00000000
00000000
00000000
00000000
,
00000000
00000000
00000000
00000000
,
00000000
00000000
00000000
00000000
,
00000000
00000000
00000000
00000000
,
00000000
00000000
00000000
00000000
,
00000000
00000000
00000000
00000000
,
00000000
00000000
00000000
00000000
,
00000010
00000001
00000100
00001000
,
00010000
00000000
00000000
00001000
00000000
00000000
00011000
00000000
,
01000000
01000000
10000000
10000000
,
00100000
00100000
00010000
00010000
,
00001000
00001000
00000010
00000010
,
00000001
00000001
00000100
00000100
,
00000020
00000100
00000000
00000100
,
00000000
00000100
00000000
00000130
,
00010000
00000000
00001000
00000000
,
00010000
00100000
10000000
10010000
,
00100000
00001000
00010000
01000000
,
20000000
00000000
00100000
30100000
,
00010000
00001000
00000010
00001000
,
00000002
00000000
00000010
00000013
,
00000100
00001000
00010000
00000010
,
00002000
00000000
00000001
00003001
,
00001000
00010000
00100000
10000000
,
01000000
00000000
00000000
00100000
00000000
00000000
01000000
00000000
,
00001000
00010000
00001000
00000000
00000001
00000000
00000010
00000000
,
00000002
00000000
00001000
00001003
,
00010000
00001000
00010000
00000000
10000000
00000000
00100000
00000000
,
20000000
00000000
00100000
30100000
,
01000000
00100000
01000000
00000000
00010000
00000000
00001000
00000000
,
00000200
00000000
00000001
00000301
,
00000010
00000100
00000010
00000000
00010000
00000000
00001000
00000000
,
00200000
00000000
00000000
00020000
00330000
00000000
11000000
00000000
,
10000000
10000000
01000000
01000000
,
00100000
00000000
00010000
00000000
00001000
00000000
00001000
00000100
,
00000000
00000100
00000000
00000010
00000000
00000001
00000000
00000100
,
00000000
00000100
00000000
00000010
00000000
00000010
00000000
00001000
,
00000000
00010000
00000000
01000000
00000000
01000000
00100000
00000000
,
00100000
01000000
10010000
10000000
,
00000000
10000000
00000000
01000000
,
00000000
01000000
00000000
00100000
,
00000000
00100000
00000000
00010000
,
00000000
00001000
00000000
00001000
,
00000000
00000100
00000000
00000100
,
00000000
00000010
00000000
00000010
,
00000000
00000001
00000000
00000100
,
00000000
00000010
00000000
00010000
,
00000000
00001000
00000000
00100000
,
00000000
00010000
00000000
10000000
,
00000000
00100000
00000000
01000000
,
00000000
00100000
00000000
10000000
,
00000000
01000000
00000000
00010000
,
00000000
00001000
00000000
00022000
,
00000000
00000000
00000000
00000000
,
00000000
00000000
00000000
00000000
,
00000000
00000000
00000000
00000000
,
00000000
00000000
00000000
00000000
,
00000000
00000000
00000000
00000000
,
00000000
00000000
00000000
00000000
,
00000000
00000000
00000000
00000000
,
00000000
00000000
00000000
00003000
,
00000000
00000000
00000000
00000000
,
00000000
00000000
00000000
00031000
,
00001000
00010000
00010000
00000100
,
00000000
00001000
00000000
00000010
,
00000010
00000100
00000100
00000001
,
00001000
00000001
00000000
00001000
,
00001000
00000001
00000001
00000100
,
00000100
00000001
00000001
00000100
,
00001000
00010000
00100000
01000000
,
00000000
00100000
00000000
00000000
01100000
00000000
10000000
00000000
,
00000000
00010000
00000000
00022000
,
00000000
00000000
00000000
00033000
,
00010000
00010000
00010000
00001000
00001000
00001000
00010000
00000000
,
00001000
01000000
00100000
01000000
,
00010000
00100000
01000000
00000000
00010000
00000000
00001000
00000000
,
00000100
00000001
00000020
00000001
,
00001000
00000031
00000100
00010000
,
00001000
00100000
01000000
00100000
,
00010000
01000000
00100000
00000000
00010000
00000000
00001000
00000000
,
00000010
00000000
00000001
00000000
00001000
00000000
00000000
00000001
,
00000000
00000110
00000002
00000100
,
00001000
00000013
00000100
00001000
,
00010000
00100000
20000000
01000000
,
00010000
30100000
01000000
01000000
,
00100000
00000000
01100000
00000000
10000000
10000000
10000000
00000000
,
00010000
00010000
00010000
00000000
00001000
00001000
00001000
00000000
,
00000001
00000001
00000001
00000000
00000100
00000000
00002000
00000000
,
00013000
02000000
03010000
00001000
,
00100000
00000000
01000000
00000000
00000000
10010000
00000000
00000000
,
;

//---------------dance-double - ----------------
#NOTEDATA:;
#CHARTNAME:;
#STEPSTYPE:dance-double;
#DESCRIPTION:;
#CHARTSTYLE:;
#DIFFICULTY:Medium;
#METER:12;
#RADARVALUES:0.453507,0.650111,0.247478,0.221877,0.017067,372.000000,343.000000,29.000000,26.000000,0.000000,0.000000,0.000000,0.000000,0.000000,0.453507,0.650111,0.247478,0.221877,0.017067,372.000000,343.000000,29.000000,26.000000,0.000000,0.000000,0.000000,0.000000,0.000000;
#CREDIT:;
#DISPLAYBPM:170.000000;
#NOTES:
00000000
00000000
00000000
00000000
,
00000000
00000000
00000000
00000000
,
00000000
00000000
00000000
00000000
,
00000000
00000000
00000000
00000000
,
00000000
00000000
00000000
00000000
,
00000000
00000000
00000000
00000000
,
00000000
00000000
00000000
00000000
,
10000000
01000000
00100000
00010000
00001000
00000100
00000010
00000000
,
00000011
00000000
00000000
00001100
00000000
00000000
00000101
00000000
,
00000010
00010000
00000010
00000000
00000100
00001000
00000100
00000000
,
00100000
00010000
00100000
00000000
00001000
01000000
00001000
00000000
,
00100000
10000000
00100000
00000000
01000000
00010000
01000000
00000000
,
00001000
00010000
00001000
00000000
00000010
00000100
00000010
00000000
,
00000002
00000100
00000000
00000100
,
00000000
00000100
00000000
00000103
,
00001000
00000000
00010000
00000000
,
00010010
01001000
00010100
00101000
,
10000000
00100000
10000000
00000000
00010000
10000000
01000000
00010000
,
00002000
00000000
00000100
00003100
,
00000001
00000010
00000001
00000000
00001000
00000001
00000100
00001000
,
00020000
00001000
00100000
00130000
,
01000000
00001000
00010000
00000000
00000010
00001000
00010000
00100000
,
20000000
00000000
00010000
30010000
,
10000000
01000000
00010000
00000000
00001000
00000100
00000001
00000010
,
00000100
00000000
00000000
00000010
00000000
00000000
00000110
00000000
,
00010000
00001000
00200000
00000000
00310000
01000000
00001000
00100000
,
00020000
10000000
00100000
01030000
,
00001000
00010000
00000020
00000000
00001030
00000100
00010000
00000010
,
00002000
00000001
00000010
00003100
,
00000010
00001000
00020000
00000000
00031000
01000000
00010000
01000000
,
00200000
00010000
10000000
10300000
,
00010000
10000000
00010000
00001000
,
00000002
00000000
00000000
00002000
00003003
00000000
00000110
00000000
,
00000001
00000010
00000100
00000000
00002100
00000000
00003010
00000000
,
00000001
00000000
00000100
00001000
00010000
00100000
01000000
01020000
,
00000000
00130000
00000000
10000000
00000000
00010000
01000000
00100000
,
10000000
01000000
00000000
21000000
00000000
30100000
00000000
10000000
,
00000000
01000000
00010000
00001000
00000010
00000100
00000102
00000000
,
00000013
00000001
00001001
00000100
,
00001000
00010000
00000000
00011000
,
00000000
00100000
00010000
00000000
,
10000000
00010000
01000000
00100000
,
10000000
10000000
01000000
00100000
,
00000000
10010000
00000000
00100000
,
00001000
00000000
00010000
00001000
,
00000100
00000010
00001000
00000001
,
00000100
00001000
00000000
00011000
,
00000000
00001000
01000000
00000000
,
00100000
10000000
00010000
01000000
,
00001000
00010000
00000010
00001000
,
00000000
00000110
00000000
00000100
,
00000001
00000000
00000100
00001000
,
00010000
00001000
00010000
00022000
,
00000000
00000000
00000000
00000000
,
00000000
00000000
00000000
00000000
,
00000000
00000000
00000000
00000000
,
00000000
00000000
00000000
00000000
,
00000000
00000000
00000000
00000000
,
00000000
00000000
00000000
00000000
,
00000000
00000000
00000000
00000000
,
00000000
00000000
00000000
00000000
,
00000000
00000000
00000000
00003000
,
00000000
00000000
00000000
01030000
,
01000000
10000000
10000000
00100000
,
00100000
00000000
00010000
00000000
00010000
00010000
00001000
00000000
,
00001000
00000100
00000100
00001000
,
00001000
00000000
00010000
00001000
00011000
00000000
00100000
00010000
,
10000000
00000000
00100000
10000000
01000000
00000000
00100000
00001000
,
00010000
00000000
00000010
00001000
00000100
00000000
00000010
00000000
,
00000001
00000000
00000100
00001000
00010000
00100000
00010000
00000000
,
00000000
00000000
00001000
00000000
00000000
00000000
00000000
00000000
00011000
00000000
00000000
00000000
00100000
00000000
00000000
00010000
,
00000000
00000000
00001000
00000000
00000010
00000000
00000000
00001000
00000000
00000000
00010000
00000000
00002200
00000000
00000000
00000000
,
00000000
00000000
00000000
00003300
00000000
00000000
00000000
00000000
,
00001001
00001000
00011000
00010000
10010000
10000000
01000000
00000000
,
00200000
00000000
00310000
00000000
10000000
01000000
00010000
00001000
,
00010000
00000100
00000001
00000000
00000010
00000001
00001000
00000000
,
00000010
00000000
00000100
00000000
00000001
00001000
00010000
00001000
,
00010000
00000000
10010000
00000000
00100000
00001000
00010000
00000000
,
10000000
00000000
01000000
00000000
00100000
01000000
10000000
00100000
,
00010000
00000010
00001000
00000000
00000001
00000010
00001000
00000000
,
00000001
00000100
00001000
00000000
00000001
00000000
00000100
00001000
,
00000000
00010000
00010000
00010000
00020000
00000000
01000000
00000000
,
10000000
00100000
00032000
00000100
,
00000001
00000010
00023000
01000000
,
10000000
00000000
00100000
00000000
00031000
00000000
00000000
00000110
,
00000000
00000000
00001001
00000000
00000001
00000100
00000010
00001000
,
00000001
00000010
00000100
00010000
00001000
01000000
00100000
10000000
,
01000000
00100000
00001000
00010000
00001000
00000010
00000200
00000000
,
00010300
00000000
00100000
00000000
02000000
00000000
00000000
00000000
03001000
00000000
00000000
00000100
00000000
00000000
00000001
00000000
,
00000000
00000010
00000000
00000000
00001000
00000000
00010000
00000000
00000000
00000000
11000000
00000000
00000000
00000000
00000000
00000000
,
;

//---------------dance-double - ----------------
#NOTEDATA:;
#CHARTNAME:;
#STEPSTYPE:dance-double;
#DESCRIPTION:;
#CHARTSTYLE:;
#DIFFICULTY:Hard;
#METER:16;
#RADARVALUES:0.651002,0.956045,0.238945,0.170675,0.345616,534.000000,506.000000,28.000000,20.000000,0.000000,0.000000,0.000000,0.000000,0.000000,0.651002,0.956045,0.238945,0.170675,0.345616,534.000000,506.000000,28.000000,20.000000,0.000000,0.000000,0.000000,0.000000,0.000000;
#CREDIT:;
#DISPLAYBPM:170.000000;
#NOTES:
00000000
00000000
00000000
00000000
,
00000000
00000000
00000000
00000000
,
00000000
00000000
00000000
00000000
,
00000000
00000000
00000000
00000000
,
00000000
00000000
00000000
00000000
,
00000000
00000000
00000000
00000000
,
00000000
00000000
00000000
00000000
,
00000001
00000100
00010000
00001000
00100000
10000000
00010000
00000000
,
10010000
00000000
00000000
00000000
00100000
00000000
01000000
00000000
00000000
00000000
00100000
00000000
00010000
00000000
00100000
01000000
,
00100000
01000000
10000000
00010000
,
00002000
00000001
00000100
00003001
,
00000010
00000100
00000001
00001000
,
00020000
10000000
01000000
10030000
,
02000000
00100000
00000000
00100000
,
00000000
00000000
00100000
00000000
00000000
00000000
03100000
00010000
,
00001000
00001100
00000010
00000101
,
00001000
00000000
00000100
00000000
00000001
00000000
00000100
00000000
00001000
00000010
00000000
00010000
00001000
00000000
00100000
00010000
,
10000000
00100000
01000000
00100000
00010000
00001000
00000010
00001000
,
00020000
00000010
01000000
00030010
,
00000001
00000010
00000100
00000010
00001000
00010000
00100000
00010000
,
00002000
00100000
00000100
00103000
,
00010000
00100000
10000000
00010000
01000000
10000000
00010000
00001000
,
00000200
00000000
00000010
00000310
,
00001000
00000010
00000001
00001000
00000100
00000001
00001000
00010000
,
00001000
00000000
00000001
00000010
00000000
00001000
00010000
00000000
,
00100000
00000000
10000000
00000000
00010000
10000000
00010000
10000000
00010000
00000000
01000000
00000000
00100000
10000000
00100000
10000000
,
01000000
00000000
00010000
00000000
00001000
00010000
00001000
00010000
00001000
00000000
00000010
00000000
00000001
00000000
00001000
00000000
,
00000010
00000000
00000100
00000000
00000001
00000010
00000001
00000010
00000001
00000000
00001000
00000000
00000010
00000100
00000010
00000100
,
00000010
00000000
00010000
00000000
00001000
00100000
00001000
00100000
00001000
00000000
00010000
00000000
01000000
00000000
10000000
00000000
,
00100000
00000000
01000000
00000000
00010000
10000000
00010000
10000000
01000000
00000000
00010000
00000000
00000010
00010000
00000010
00010000
,
00001000
00000000
00000100
00000000
00000010
00001000
00000010
00001000
00000001
00000000
00001000
00000000
00000001
00000000
00000010
00000000
,
00000100
00000000
00010000
00000000
00001000
00100000
00001000
00100000
01000000
00000000
10000000
00000000
00010000
01000000
00010000
01000000
,
00020000
00000000
00000000
20000000
30030000
00000000
01100000
00000000
,
10000000
00000000
01000000
00000000
01000000
00000000
00100000
00001000
00100000
00000000
00010000
00000000
00011000
00000000
00100000
00000000
,
00001000
00000000
00010000
00000100
00010000
00000000
00000010
00000000
00001000
00000000
00000100
00000000
00000100
00000000
00010010
00000000
,
00001000
00000000
00011000
00000000
00000010
00000000
00010000
00000000
00001000
00100000
00010000
00000000
01000000
00000000
00010000
00000000
,
00100000
00000000
00100000
00000000
00010000
01000000
00001000
00000000
00010000
00000000
00011000
00000000
01000000
00000000
00001000
00000000
,
00010000
00000100
00000010
00000000
00000100
00000000
00001000
00000000
00000010
00000000
00000010
00000000
00010100
00000000
00001000
00000000
,
00011000
00000000
00000100
00000000
00010000
00000000
00001000
00010000
00001000
00000000
00010000
00000000
00001000
00000000
00000000
00000000
,
01000000
00000000
01000000
00000000
00100000
01000000
00100000
00000000
,
10000000
00000000
10000000
00000000
00010000
00100000
00001000
00000000
,
00100000
00000000
00001000
00000000
00010000
00001000
00010000
00000000
,
00000010
00000100
00000010
00000000
00001000
00000000
00000001
00000000
,
00000100
00000010
00000100
00000000
00000001
00000000
00001000
00000000
,
00000100
00010000
00001000
00000000
00010000
00000000
00001000
00000000
,
00100000
01000000
00100000
00000000
00010000
10000000
00010000
00000000
,
01000000
00000000
01000000
00000000
00100000
10000000
00100000
00000000
,
01000000
00000000
00010000
00000000
00100000
00001000
00010000
00000000
,
00000100
00000000
00000010
00000000
00000001
00000100
00000001
00000000
,
00001000
00000100
00010000
00000000
00001000
00000000
00100000
00000000
,
01000000
10000000
00100000
01000000
,
00001000
00000000
00010000
00001000
00010000
00001000
00010000
00001000
,
00010000
00001000
00010000
00001000
00010000
00000000
00022000
00000000
,
00000000
00000000
00000000
00000000
,
00000000
00000000
00000000
00000000
,
00000000
00000000
00000000
00000000
,
00000000
00000000
00000000
00000000
,
00000000
00000000
00000000
00000000
,
00000000
00000000
00000000
00000000
,
00000000
00000000
00000000
00000000
,
00000000
00000000
00000000
00000000
,
00000000
00000000
00000000
00003000
,
00000000
00000000
00000000
00032000
,
00000100
00000100
00010000
00003020
,
00000100
00000100
00010000
00002030
,
00000010
00000010
00010000
00003200
,
00000010
00000000
00000010
00000000
00010000
00000000
00000301
00000010
,
00000100
00000000
00001000
00000010
00000100
00000000
00000001
00000100
,
00001000
00010000
00000010
00000100
00001000
00000000
00010000
00100000
,
10000000
00000000
00100000
00010000
00001000
00000000
00000110
00000000
,
00000000
00000000
00001001
00000000
00000000
00000000
00000000
00000000
00000110
00000000
00000000
00000000
00010000
00001000
00000000
00010000
,
00001000
00000000
00100000
00000000
00001000
00010000
00000000
00001000
00010000
00000000
00000010
00000000
00000220
00000000
00000000
00000000
,
00000000
00000000
00000000
00000330
00000000
00000000
00011000
00000000
,
00110000
00000000
11000000
00000000
00011000
00000000
00000110
00000000
01001000
00000000
00011000
00000000
00001000
00000000
00000100
00000010
,
00000000
00000010
00000000
00000010
00000001
00000000
00001000
00000000
00000010
00000000
00000100
00001000
00010000
00000000
00000010
00001000
,
00000000
00001000
00000000
00100000
00010000
00000000
10000000
00000000
01000000
00000000
00010000
00100000
01000000
00000000
00010000
00000100
,
00000000
00000010
00000000
00001000
00010000
00000000
00010000
00000000
00000100
00000000
00000001
00000100
00001000
00000000
00000001
00000100
,
00000000
00000100
00000000
00000100
00000010
00000000
00001000
00000000
00000100
00000000
00010000
00001000
00100000
00000000
00010000
00000010
,
00000000
00000100
00000000
00000001
00000010
00000000
00000100
00000000
00000010
00000000
00001000
00010000
00100000
00000000
01000000
00100000
,
00000000
00100000
00000000
00100000
01000000
00000000
00010000
00000000
00100000
00000000
00001000
00010000
00000010
00000000
00001000
00000001
,
00000000
00000010
00000000
00000001
00001000
00000000
00000010
00000000
00000100
00000000
00000000
00000000
00010000
00000000
01000000
00000000
,
00000000
00000000
00100000
00000000
00100000
00000000
00100000
00000000
02000000
00000000
00000000
00000000
03100000
00000000
10000000
01000000
,
10000000
01000000
00100000
00010000
00100000
00010000
00100000
00000000
00002000
00000000
00000000
00000000
00010000
00000000
00000000
00000000
,
00003100
00000010
00000100
00000010
00000100
00000000
00000000
00000000
00000001
00000010
00000001
00000000
00000100
00000010
00000100
00000000
,
00000010
00001000
00000010
00000000
00001000
00000100
00001000
00000000
00000001
00000000
00000000
00001001
00000000
00000000
00001000
00000000
,
00000000
00011000
00000000
00000000
00010000
00000000
01000000
00000000
01100000
00000000
00100000
00000000
10000000
00000000
01000000
00000000
,
00010000
00001000
00000100
00000001
00000110
00000010
00000001
00000100
,
00001000
00000000
00010000
00000000
01000000
00000000
10000000
00000000
00010000
00000000
01000000
00100000
02000000
00000000
00000000
00000000
,
03001000
00000000
00000100
00000010
00000200
00000000
00000000
00000000
00000301
00000010
00000000
00000100
00001000
00000000
00010000
00100000
,
00000000
01000000
10000000
00000000
00100000
00000000
01000000
00000000
01100000
00000000
00011000
00000000
00000000
00000000
00000000
00000000
,
;

//---------------dance-single - ----------------
#NOTEDATA:;
#CHARTNAME:;
#STEPSTYPE:dance-single;
#DESCRIPTION:;
#CHARTSTYLE:;
#DIFFICULTY:Challenge;
#METER:18;
#RADARVALUES:1.071593,1.261979,0.853373,0.170675,0.960045,879.000000,779.000000,100.000000,20.000000,0.000000,0.000000,0.000000,0.000000,0.000000,1.071593,1.261979,0.853373,0.170675,0.960045,879.000000,779.000000,100.000000,20.000000,0.000000,0.000000,0.000000,0.000000,0.000000;
#CREDIT:;
#DISPLAYBPM:85.000000:681.000000;
#NOTES:
// measure 0
0000
0000
0000
0000
,  // measure 1
0000
0000
0000
0000
,  // measure 2
0000
0000
0000
0000
,  // measure 3
0000
0000
0000
0000
,  // measure 4
0000
0000
0000
0000
,  // measure 5
0000
0000
0000
0000
,  // measure 6
0000
0000
0000
0000
,  // measure 7
1000
0010
0100
0001
1000
0100
0010
0001
1000
0010
0100
0001
1000
0100
0010
0001
,  // measure 8
0100
0001
0100
0001
0010
0100
0010
0100
1000
0010
1000
0010
1000
0001
1000
0001
,  // measure 9
0010
0001
0100
0000
0010
1000
0100
0000
1000
0100
0010
0001
0010
0100
1000
0000
,  // measure 10
0010
1000
0001
0000
0100
0001
1000
0000
0001
0010
0100
1000
0100
0010
0001
0000
,  // measure 11
0100
0010
0100
0000
0010
0100
0010
0000
1000
0001
1000
0000
0001
1000
0001
0000
,  // measure 12
1000
0100
0010
0001
0010
0100
1000
0000
0001
0010
0100
1000
0100
0010
0001
0000
,  // measure 13
1000
0000
0100
0000
0110
0000
0000
0010
0001
0000
0100
0000
0101
0000
0000
1000
,  // measure 14
0001
0000
1000
0000
1010
0000
0000
0010
1000
0000
0100
0000
1010
0000
0000
0010
,  // measure 15
1000
0100
0010
0001
0100
0010
1000
0001
0010
0001
1000
0100
0001
0010
0100
1000
,  // measure 16
0010
1000
0001
0100
1000
0010
0001
0010
0001
0100
1000
0010
0100
1000
0100
0001
,  // measure 17
0010
0101
1100
0010
1001
1010
0100
0110
,  // measure 18
0011
0001
0010
0100
1000
0001
0100
0010
,  // measure 19
0100
1010
0101
0001
0011
1100
1000
0110
,  // measure 20
1001
0010
1000
1001
0100
0101
1100
0011
,  // measure 21
1000
0110
1010
1000
1100
0011
1000
0011
,  // measure 22
0110
1000
0010
1000
0100
0010
0001
0010
,  // measure 23
0100
1010
0011
1000
0110
1010
0001
0101
,  // measure 24
1001
0010
1000
1100
0001
1001
0011
1010
,  // measure 25
0001
0010
0001
0010
0001
1000
0001
1000
0100
1000
0100
1000
0010
0100
0010
0100
,  // measure 26
0001
0010
0100
1000
0010
0100
0001
1000
,  // measure 27
0010
1000
0010
1000
0100
0010
0100
0010
0001
0100
0001
0100
0001
1000
0001
1000
,  // measure 28
0010
1000
0100
1100
1000
1010
0011
0101
,  // measure 29
0010
1000
0100
1000
0100
0010
0100
0010
0001
1000
0001
0010
0001
1000
0010
0100
,  // measure 30
0010
0100
0001
1000
0001
0010
0100
1000
,  // measure 31
0001
0010
0100
0010
1000
0010
1000
0001
0100
1000
0100
0001
1000
0100
0001
0010
,  // measure 32
1000
0100
0001
0100
1000
0000
0001
0010
1000
0010
0001
0000
0100
0010
1000
0001
,  // measure 33
0010
1010
1010
0101
1001
0110
1001
0010
,  // measure 34
0101
0101
1100
1100
0001
0011
0011
1001
,  // measure 35
1100
1001
0001
0110
0110
0101
0101
1000
,  // measure 36
1100
1100
0011
1001
0101
1001
1000
1010
,  // measure 37
1010
1100
1100
0100
1001
1001
0110
1100
,  // measure 38
0011
0100
0110
0110
1001
1001
0010
1000
,  // measure 39
0100
0010
0001
1000
0001
0100
1001
0000
,  // measure 40
0010
1000
0100
0010
0011
0000
0001
0010
,  // measure 41
0001
1000
0001
0010
0100
1000
0010
1000
,  // measure 42
0100
1000
0010
1000
0001
0010
0100
1000
,  // measure 43
0001
0100
0110
0000
0100
0010
0100
1000
,  // measure 44
1001
0000
0010
0001
0100
0010
1000
0001
,  // measure 45
0010
0001
0100
0001
0010
0100
1000
0010
,  // measure 46
1000
0001
0010
0100
1000
0010
0110
0000
,  // measure 47
0010
1000
0001
0100
1010
0000
1000
0001
,  // measure 48
0010
0001
0100
0001
0010
0100
1000
0001
,  // measure 49
0010
0100
1000
0010
0100
0001
0010
0100
,  // measure 50
1000
0001
0011
0000
0010
0001
0100
0010
,  // measure 51
0110
0000
1000
0010
1000
0001
0010
0001
,  // measure 52
0100
0001
0010
0100
1000
0001
2000
0000
,  // measure 53
0000
0000
3020
0000
,  // measure 54
0000
0032
0000
2003
,  // measure 55
0000
0000
3200
0000
,  // measure 56
0000
0302
0000
0203
,  // measure 57
0000
0000
0320
0000
,  // measure 58
0000
2030
0000
3020
,  // measure 59
0000
0000
0230
0000
,  // measure 60
0000
0002
0000
0000
,  // measure 61
0000
0000
0000
0000
,  // measure 62
0000
0000
0000
0000
0000
0303
2000
0000
,  // measure 63
0100
0001
0100
0010
,  // measure 64
0100
0000
3002
0000
0100
0100
0203
0000
,  // measure 65
0010
0001
1000
0320
,  // measure 66
0100
0000
0001
0000
1000
1000
1030
0010
,  // measure 67
1000
0100
0010
0001
0100
0001
1000
0001
,  // measure 68
0010
0000
0100
0000
1000
0000
0010
0000
0100
0000
0001
0000
1000
0100
0010
0001
,  // measure 69
1000
0010
0100
0001
0010
0100
0010
0100
0001
1000
0001
1000
0010
1000
0010
1000
,  // measure 70
0010
0001
0010
0001
0100
0001
0100
0001
0100
1000
0100
1000
0010
1000
0000
0001
,  // measure 71
0100
0000
0110
0000
0001
0010
0000
0100
1000
0000
1001
0000
1000
0100
0001
0100
,  // measure 72
1000
0010
0001
0010
1000
0001
0000
0100
0001
0000
1000
0000
0110
0000
0000
0000
,  // measure 73
1001
0000
1100
0000
0101
0000
1010
0000
0011
0000
0110
0000
1001
0000
0010
1000
,  // measure 74
0001
0010
0100
1000
0010
1000
0001
0000
0010
0001
0100
0001
0010
0100
1000
0010
,  // measure 75
0000
1000
0001
1000
0001
0010
0100
0000
1000
0001
0010
0100
1000
0010
0100
0001
,  // measure 76
0000
1000
0100
1000
0001
0100
0001
0000
0010
1000
0010
0100
0001
0010
0100
1000
,  // measure 77
0000
1000
0100
0010
0100
1000
0001
0000
0010
0001
0100
0001
0010
0100
1000
0010
,  // measure 78
1000
0100
0010
0001
0100
0010
1000
0000
0001
1000
0001
1000
0010
1000
0100
0010
,  // measure 79
0100
0010
0100
1000
0010
1000
0001
0000
0010
0100
0010
0100
0001
0100
0001
0100
,  // measure 80
0010
1000
0010
1000
0001
1000
0001
1000
0001
0100
0010
1000
1000
0100
0010
1000
,  // measure 81
0010
0001
1000
0100
0001
0100
0001
0010
2000
0000
0000
0000
3010
1000
0100
0010
,  // measure 82
0100
1000
0100
0010
0001
1000
0001
1000
0020
0000
0000
0000
0130
0001
0010
0001
,  // measure 83
0100
0010
1000
0100
1000
0001
0100
0010
1000
0100
0010
0001
1000
0010
0100
0001
,  // measure 84
0100
0010
1000
0001
0100
0001
1000
0010
1000
0100
0000
0100
0001
0000
1000
0010
,  // measure 85
0000
0010
0001
0000
0011
0000
1001
0000
0020
0000
0000
0000
0130
0001
0010
0001
,  // measure 86
0100
0010
1000
0001
1000
0100
0010
0001
0100
0010
0100
0010
1000
0001
1000
0001
,  // measure 87
0010
0100
0010
0100
0001
1000
0001
1000
0001
0010
0100
1000
0010
0100
0001
1000
,  // measure 88
0001
0100
0010
1000
0010
0100
0001
1000
1000
0010
0000
0010
0001
0000
1000
0100
,  // measure 89
0000
0100
0001
0000
0200
0000
0310
0000
0101
0000
1001
0000
0000
0000
0000
0000
;
